#TITLE:MR. WONDERFUL;
#SUBTITLE:;
#ARTIST:SMILE.dk;
#TITLETRANSLIT:;
#SUBTITLETRANSLIT:;
#ARTISTTRANSLIT:;
#CREDIT:;
#BANNER:MR. WONDERFUL.png;
#BACKGROUND:MR. WONDERFUL-bg.png;
#LYRICSPATH:MR. WONDERFUL.lrc;
#CDTITLE:Dance Mania 12.png;
#MUSIC:MR. WONDERFUL.mp3;
#OFFSET:-0.116;
#SAMPLESTART:42.230;
#SAMPLELENGTH:12.000;
#SELECTABLE:YES;
#DISPLAYBPM:138.000;
#BPMS:0.000=137.990;
#STOPS:;
#BGCHANGES:;
// cache tags:
#FIRSTBEAT:16.000;
#LASTBEAT:196.000;
#SONGFILENAME:Songs/toune 3/MR. WONDERFUL/MR. WONDERFUL.sm;
#HASMUSIC:1;
#HASBANNER:1;
#MUSICLENGTH:89.568;
// end cache tags

//---------------dance-single - A1Major----------------
#NOTES:
     dance-single:
     A1Major:
     Challenge:
     10:
     0.823,0.793,1.000,0.022,0.458,375.000,139.000,2.000,0.000,0.000:
0000
0000
0000
0000
,
0000
0000
0000
0000
,
0000
0000
0000
0000
,
0000
0000
0000
0000
,
1001
0000
0100
0010
0001
0010
0110
1001
,
0000
0010
0100
1000
0100
0110
1001
0000
,
1001
0000
0010
0100
1000
0110
0220
0000
,
0000
0000
0330
1000
0001
1000
0101
1001
,
1000
0010
0100
0001
1000
0001
0100
0010
1000
0001
1000
0010
0100
0001
0100
0010
,
1000
0001
1000
0000
0101
0000
0100
0010
0000
0100
0001
0000
1010
0000
0010
0100
,
0000
0010
1000
0000
0101
0000
0001
1000
0000
0001
0100
0000
1010
0000
1000
0000
,
0001
1000
0001
0000
0110
0000
1000
0001
0000
0001
1000
0000
0110
0000
1001
0000
,
1010
0000
0000
1001
0000
0000
1100
0000
0011
0000
0000
1001
0000
0000
0101
0000
,
0001
1000
0001
0000
1010
0000
0010
0100
0000
0010
1000
0000
0101
0000
0100
0010
,
0000
0100
0001
0000
1010
0000
1000
0001
0000
1000
0010
0000
0101
0000
0001
0000
,
1000
0001
1000
0000
0110
0000
0001
1000
0000
1000
0001
0000
0110
0000
1001
0000
,
0001
0100
0010
1000
0001
0010
0100
1000
0100
0010
0001
1000
0010
0100
0001
1000
,
1001
0000
0000
0101
0000
0000
1100
0000
0010
0000
0110
0000
0001
0000
1001
0000
,
0000
0000
1010
0000
1001
0000
0110
0000
0011
0000
0000
1010
0000
0000
0011
0000
,
0110
0000
0000
1001
0000
0000
0110
0000
1000
0000
0110
0000
0010
0000
1001
0000
,
0000
1001
0101
0110
1010
0000
1001
0000
,
0011
0000
0000
1010
0000
0000
0011
0000
0100
0000
0110
0000
1000
0000
1001
0000
,
0000
0000
0011
0000
0110
0000
0110
0000
1100
0000
0000
0101
0000
0000
1100
0000
,
0110
0000
0000
1001
0000
0000
0110
0000
0001
0000
0110
0000
0100
0000
1001
0000
,
1000
0100
0010
0100
1000
0001
0010
0100
0010
0001
1000
0010
0100
0001
0100
0010
,
1001
0000
0110
0010
0001
0010
0110
1001
,
0000
0110
0100
1000
0100
0110
1001
0000
,
1001
0000
0110
0100
1000
0010
0110
0101
,
0000
1000
0100
1001
0101
0000
1010
0000
,
1001
0000
0110
0100
1000
0100
0110
1001
,
0000
0110
0010
0001
0010
0110
1001
0000
,
1001
0000
0110
0010
0001
0100
0110
1000
,
0001
0000
1000
0000
0100
0000
1001
0000
1000
0100
0010
0001
1000
0010
0100
0001
,
1001
0000
0110
0010
0001
0010
0110
1001
,
0000
0110
0100
1000
0100
0110
1001
0000
,
1001
0000
0110
0100
1000
0010
0110
0101
,
0000
1000
0100
1001
0101
0000
1010
0000
,
1001
0000
0110
0010
0001
0010
0110
1001
,
0000
0110
0100
1000
0100
0110
1001
0000
,
1001
0000
0010
0100
1000
0110
0110
0000
,
0001
1000
0100
0010
0001
1000
0010
0100
0001
0010
0100
0010
0001
1000
0100
0010
,
0011
0000
0000
1010
0000
0000
0011
0000
0100
0000
0010
0000
1000
0000
1001
0000
,
0100
0000
0001
0000
0010
0000
0100
0000
1000
0100
0010
0001
1001
0000
1100
0000
,
0110
0000
0000
1001
0000
0000
0110
0000
0001
0000
0010
0000
0100
0000
1001
0000
,
0100
0000
1000
0000
0100
0000
0010
0000
0001
1000
0010
0100
0101
0000
0011
0000
,
1100
0000
0000
0101
0000
0000
1100
0000
0010
0000
0100
0000
0001
0000
1001
0000
,
0100
0000
1000
0000
0100
0000
0010
0000
0001
1000
0010
0100
0101
0000
0011
0000
,
0110
0000
0000
1001
0000
0000
0110
0000
1000
0000
0100
0000
0010
0000
1001
0000
,
0001
1000
0001
0010
0100
0010
0001
0100
0001
1000
0010
1000
0001
0010
0001
0100
,
1001
0000
0000
0000
;
