#TITLE:CYBER Sparks;
#SUBTITLE:Far East of East;
#ARTIST:Tatsh;
#TITLETRANSLIT:;
#SUBTITLETRANSLIT:;
#ARTISTTRANSLIT:;
#CREDIT:ALICE_;
#BANNER:CYBER Sparks.png;
#BACKGROUND:CYBER Sparks.jpg;
#LYRICSPATH:;
#CDTITLE:cdtitle.png;
#MUSIC:CYBER Sparks.mp3;
#OFFSET:-0.385;
#SAMPLESTART:86.240;
#SAMPLELENGTH:12.800;
#SELECTABLE:YES;
#BPMS:0.000=192.000;
#STOPS:;
#BGCHANGES:;
// cache tags:
#FIRSTBEAT:12.000;
#LASTBEAT:760.000;
#SONGFILENAME:Songs/alice 4th complete step/CYBER Sparks/CYBER Sparks.sm;
#HASMUSIC:1;
#HASBANNER:1;
#MUSICLENGTH:246.081;
// end cache tags

//---------------dance-single - ----------------
#NOTES:
     dance-single:
     :
     Challenge:
     20:
     1.000,1.000,1.000,0.500,1.000,2257.000,943.000,123.000,0.000,167.000:
0000
0000
0000
0000
,
0000
0000
0000
0000
,
0000
0000
0000
0000
,
1010
0100
0010
0100
1001
0010
0100
0010
1001
0100
0010
1000
0101
1000
0010
0100
,
1001
0010
0100
0010
0101
1000
0010
0100
1001
0010
0100
0010
1001
0100
0010
0100
,
1001
0010
0001
0100
1010
0100
0001
0010
0101
1000
0010
0100
1001
0010
0100
0010
,
1100
0001
0100
0010
1001
0100
0001
0010
1001
0100
0010
1000
0101
0010
1000
0100
,
1001
0010
0100
0001
1100
0011
1000
0100
1001
0010
0100
0001
1100
0010
0001
0100
,
1010
0001
0010
0100
0011
1100
0001
0010
1001
0010
0100
1000
0101
0010
1000
0100
,
1001
0100
0010
1000
0110
1001
0010
0100
0011
1000
0010
0100
1001
0110
0001
0010
,
1001
0100
0010
0001
0110
1001
0100
0001
1010
0001
0100
0010
1001
0110
1000
0010
,
0101
1000
0010
1000
0111
1000
0010
0100
1001
0010
0100
0001
1110
0001
1000
0010
,
0101
1000
0010
1000
0111
1000
0010
0100
1001
0010
0100
0001
1110
0001
1000
0100
,
0011
1000
0100
0010
1101
0010
1000
0010
1100
0001
0100
0010
1101
0010
1000
0001
,
0110
1000
0001
0010
1101
0010
0100
1000
0110
1000
0001
0100
1011
0100
0001
0010
,
2001
0100
0001
0100
0011
0100
0001
3010
0101
1000
0110
1000
0011
0100
0001
1000
,
0102
0010
1000
0010
1100
0010
0100
1003
0110
0001
1100
0001
1010
0100
0001
1000
,
0021
0100
1000
0100
1001
0100
0001
1030
0101
0010
1100
0010
1001
0010
0100
1000
,
0201
0010
0001
1000
0011
1000
0001
0310
1001
0100
1010
0100
0011
1000
0100
0010
,
2001
0100
0010
0100
0011
0100
0001
3010
0101
1000
0011
0100
1001
0010
0100
1000
,
0102
0010
1000
0010
1100
0010
1000
0103
1010
0001
0110
0001
1100
0010
0100
1000
,
0021
0100
0001
0100
1001
0100
1000
0031
1100
0001
0110
1000
0011
0100
1000
0100
,
0001
0010
0001
0010
0100
0010
0001
0010
1000
0100
0010
0100
1000
0001
0100
0010
,
1001
0000
0100
0000
1011
0100
0011
0000
1001
0000
0100
0000
1011
0100
0011
0000
,
1100
0000
0001
0000
1110
0001
0110
0000
1100
0000
0001
0000
1110
0001
0110
0000
,
0101
0000
1000
0000
0111
1000
0011
0000
0101
0000
1000
0000
0111
1000
0011
0000
,
1001
0100
1000
0100
1011
0100
0010
0100
1001
0010
0100
0010
1101
0010
1000
0010
,
0101
1000
0010
0100
1011
0100
0010
1000
0011
0100
1000
0100
1011
0100
0001
0010
,
1100
0001
0010
0001
1110
0001
0100
0010
1001
0100
0010
1000
0111
1000
0001
0010
,
1100
0011
1100
0000
0011
1100
0011
0000
0110
1001
0110
0000
1001
0110
1001
0100
,
0011
1100
0011
0000
1100
0011
1100
0000
1001
0110
1001
0010
0101
1010
0001
0110
,
1002
0000
1000
0000
1100
0000
1000
0100
1000
0000
1000
0000
1100
0000
1003
0100
,
0010
0000
0010
0000
0110
0000
0010
0100
0010
0000
0010
0000
0110
0000
0010
0100
,
0001
0000
0001
0000
0011
0000
0001
0010
0001
0000
0001
0000
0011
0000
0001
1000
,
0100
0000
0100
0000
0110
0000
0100
0010
0100
0000
0100
0000
0110
0000
0100
0010
,
1000
0000
1000
0000
0101
0000
1000
0010
1000
0000
1000
0000
0101
0000
1000
0010
,
0001
0000
0001
0000
1010
0000
0001
0100
0001
0000
0001
0000
1010
0000
0001
0100
,
0020
0000
1100
0001
0000
0000
1100
0031
,
2100
0011
3100
0000
,
1000
0100
0011
0000
1000
0100
0011
0000
,
1000
0000
0000
0100
0000
0000
0011
0000
0000
0100
0000
0000
0001
0000
0000
0010
0001
0010
0100
0000
0000
1000
0000
0000
,
0001
0010
1100
0000
0001
0010
1100
0000
,
0001
0000
0000
0010
0000
0000
1100
0000
0000
0010
0000
0000
1000
0000
0000
0100
1000
0100
0010
0000
0000
0001
0000
0000
,
0100
0010
1001
0000
0100
0010
1001
0000
,
0100
0000
0000
0010
0000
0000
1001
0000
0000
0010
0000
0000
0001
0000
0000
0100
0010
1000
0001
0000
0000
0100
0000
0000
,
1010
0001
1100
0000
0110
0000
0011
0000
,
1001
0000
1100
0000
0011
0000
0101
0010
,
2020
0000
0000
0000
0000
0000
0000
0000
0000
0000
0000
3030
1100
0000
0010
0000
,
0022
0000
0000
0000
0000
0000
0000
0000
0000
0033
0100
0000
1001
0000
0010
0000
,
0202
0000
0000
0000
0000
0000
0000
0300
2203
0000
0000
0300
3022
0000
0000
0030
,
0223
0000
0000
0000
0000
0000
0000
0000
0000
0000
0000
0330
1010
0000
0100
0000
,
0202
0000
0000
0000
0000
0000
0000
0000
0000
0000
0000
0303
1010
0000
0100
0000
,
0202
0000
0000
0000
0000
0000
0000
0000
0000
0303
0010
0000
0101
0000
1000
0000
,
0022
0000
0000
0000
0000
0000
0000
0030
2203
0000
0000
0300
3220
0000
0000
0030
,
0322
0000
0000
0000
0000
0000
0030
0003
,
0110
1000
0100
0010
0001
0000
0000
0000
0100
1000
0100
0010
0001
0000
0000
0000
0110
0000
0001
0000
1000
0000
0001
0000
0100
0010
1000
0001
0100
0010
1000
0001
,
1100
0000
0010
0000
0111
1000
0010
0000
1100
0000
0010
0000
0111
1000
0010
0000
,
1100
0000
0000
0000
0000
0000
0001
0000
0000
0000
0000
0000
1110
0000
0000
0001
0000
0000
0110
0000
0000
0000
0000
0000
1001
0000
0000
0000
0000
0000
1100
0000
0011
0000
1000
0000
0110
0000
0000
0000
0000
0000
1000
0000
0000
0000
0000
0000
,
0011
0000
0100
0000
1110
0001
0100
0000
0011
0000
0100
0000
1110
0001
0100
0000
,
0011
0000
0000
0000
0000
0000
1000
0000
0000
0000
0000
0000
0111
0000
0000
1000
0000
0000
0110
0000
0000
0000
0000
0000
1001
0000
0000
0000
0000
0000
0011
0000
1100
0000
0001
0000
0110
0000
0000
0000
0000
0000
1001
0000
0000
0000
0000
0000
,
0101
0000
0010
0000
1011
0100
1000
0000
0101
0000
0010
0000
1011
0100
1000
0000
,
0101
0000
0000
0000
0000
0000
1000
0000
0000
0000
0000
0000
0111
0000
0000
1000
0000
0000
0011
0000
0000
0000
0000
0000
0110
0000
0000
0000
0000
0000
1001
0000
0110
0000
0001
0000
1100
0000
0000
0000
0000
0000
0011
0000
0000
0000
0000
0000
,
1001
0010
1110
0000
1101
0000
1011
0000
,
0101
0000
0010
0000
0101
0000
0000
0000
1010
0000
0001
0000
1010
0000
0000
0000
0101
0000
0010
0000
0101
0000
0000
0000
0001
0010
1000
0100
0001
0000
0000
0000
,
1012
0100
1010
0100
1010
0103
1010
0101
,
1101
0010
0101
0010
0101
1100
0110
0011
,
2001
0100
0101
3010
1021
0130
2001
3010
,
0102
1000
0110
1000
1100
0013
1001
0110
,
1002
0000
0010
0000
1100
0010
1000
0000
0100
0000
0010
0000
1103
0010
1000
0000
,
0201
0000
1000
0000
0011
1000
0001
0300
1010
0000
0101
0000
1001
0100
0011
0000
,
1002
0000
0010
0000
1100
0010
1003
0000
0102
0000
0013
0000
2101
0000
3010
0000
,
2000
0000
0000
0000
0000
3000
0000
0000
1111
0000
1111
0000
1111
0000
1001
0110
,
1001
0100
0011
1000
0110
0001
1000
0100
0011
1000
0101
1000
0011
0100
1002
0010
,
0100
1000
0100
0010
0100
1000
0100
0010
0100
1003
0110
0001
1100
0010
1000
0100
,
1001
0010
1100
0001
0110
0001
1000
0010
1100
0001
1010
0001
1100
0010
2001
0100
,
0001
0010
0001
0100
0001
0010
0001
3100
0011
1000
0101
0010
1100
0001
0110
0001
,
1010
0100
1001
0100
0011
1000
0010
0100
1001
0100
0011
0100
1010
0001
2200
0000
,
0000
3300
0011
1000
0011
0100
1010
0100
1001
0010
1100
0001
0110
1000
0010
0100
,
1001
0010
0100
0010
1001
0100
0001
0010
1001
0100
1000
0010
0101
1000
0010
0000
,
0100
0000
1001
0000
0110
0000
0000
0000
1000
0000
0110
0000
1001
0000
0000
0000
0010
0000
1001
0000
0110
0000
0000
0000
0001
0100
0010
1000
0100
0000
0000
0000
,
1010
0100
1010
0001
1010
0100
1010
0001
1010
0100
1010
0001
1010
0100
1010
0001
,
0110
1000
0100
0010
0101
1000
0010
0100
0011
1000
0110
0001
1100
0001
0110
1000
,
0101
0010
0101
1000
0101
0010
0101
1000
0101
0010
0101
1000
0101
0010
0101
1000
,
0110
0001
1100
0001
1010
0100
1001
0010
1100
0001
0110
1000
0011
0100
1001
0010
,
1100
0001
1000
0001
0110
0000
0000
0000
0011
1000
0001
1000
0101
1000
0110
0000
,
0000
0000
0110
0000
1111
0000
1111
0000
0110
0000
1111
0000
0110
1001
0110
0000
,
1001
0110
0001
0010
1100
0001
0110
1001
0010
0100
0001
1000
0110
0001
1000
0100
,
0011
1000
0100
1001
0010
0100
1001
0010
1100
0010
0001
0100
1010
0001
0100
0011
,
1000
0001
0100
0010
1001
0100
0011
0100
1000
0011
0100
0001
1010
0100
1001
0010
,
1000
0100
0011
0100
1001
0010
0100
0001
1010
0100
0001
1010
0101
1000
0010
0100
,
1001
0100
0010
1000
0011
0100
1000
0011
1100
0001
0010
0100
1010
0100
1001
0010
,
0100
0011
1000
0100
0011
1000
0101
0010
1000
0101
0010
0100
1001
0010
0001
1100
,
0011
0100
0010
1000
0101
0010
1000
0100
1001
0010
0100
0010
1001
0100
0001
0010
,
1100
0001
1000
0110
1001
0010
0100
1000
0011
0100
0010
1000
0101
0010
1000
0100
,
1001
0110
0001
0100
1010
0001
0010
0100
1001
0010
1000
0010
0101
1000
0010
1000
,
0101
0010
1000
0110
1001
0010
0100
0010
1001
0010
0100
0001
1010
0100
0001
0010
,
1001
0100
0011
1000
0110
1000
0011
0100
1010
0001
1100
0001
1010
0001
1100
0011
,
0100
1000
0110
0001
0010
0100
1001
0010
1100
0001
1010
0100
1001
0010
0100
0010
,
1100
1001
0010
0000
1100
1001
0010
0000
0101
1001
0010
0000
0101
1001
0010
0100
,
0011
1000
0011
1000
0110
1000
0110
1000
0101
0010
0101
0010
1100
0001
1100
0010
,
1001
0100
0010
0000
1010
0000
0110
0000
0102
0000
1000
0000
0110
0000
1003
0000
,
1001
0100
0010
0000
1010
0000
0110
0000
0102
0000
0010
0000
1100
0000
0013
0000
,
1001
0010
0100
0000
0101
0000
1001
0000
2010
0000
0001
0000
0110
0000
3100
0000
,
1001
0010
0100
0000
0101
0000
1001
0000
2010
0000
0001
0000
0110
0000
3010
0000
,
1001
0100
1010
0000
1110
0000
1010
0000
2120
0000
0000
0000
0101
0000
3030
0000
,
1001
0010
0101
0000
0111
0000
0101
0000
0212
0000
0000
0000
1010
0000
0303
0000
,
1001
0100
1010
0000
1110
0000
1010
0000
2120
0000
0000
0000
0101
0000
3030
0000
,
1001
0000
0110
0000
1001
0000
0000
0000
0110
0000
1001
0000
0110
0000
0000
0000
0101
0000
1010
0000
0101
0000
0000
0000
1000
0100
0001
0010
1000
0000
0000
0000
,
0101
0010
1000
0000
1011
0000
1100
0000
2001
0000
0010
0000
0101
0000
3010
0000
,
0101
0010
1000
0000
1101
0000
1010
0000
2001
0000
0100
0000
0011
0000
3100
0000
,
1001
0010
0001
0000
0111
0000
1001
0000
0102
0000
0010
0000
1100
0000
0013
0000
,
1001
0100
0001
0000
0111
0000
1001
0000
0102
0000
0010
0000
1100
0000
0013
0000
,
0101
1000
0101
1000
0101
1000
0101
1000
0011
0100
0001
1000
0011
0100
0001
1000
,
0101
0010
0101
0010
0101
0010
0101
0010
1100
0001
1000
0010
1100
0001
1000
0010
,
1100
0011
1000
0110
1001
0100
0011
1100
0011
1000
0101
1010
0100
1001
0100
0010
,
1001
0000
0100
0000
1001
0000
0000
0000
0011
0000
0100
0000
1010
0000
0000
0000
1100
0000
0010
0000
0101
0000
0000
0000
0001
0010
1000
0100
0001
0000
0000
0000
,
1010
0001
0110
1000
0101
0010
1001
0000
1100
0011
1100
0011
1100
0011
1100
0010
,
1001
0000
0100
0000
1011
0100
0011
0000
1001
0000
0100
0000
1011
0100
0011
0000
,
1100
0000
0001
0000
1110
0001
0110
0000
1100
0000
0001
0000
1110
0001
0110
0000
,
0101
0000
1000
0000
0111
1000
0011
0000
0101
0000
1000
0000
0111
1000
0011
0000
,
1001
0000
0010
0000
1101
0010
1100
0000
1001
0000
0010
0000
1101
0010
1100
0000
,
0011
0000
1000
0000
0111
1000
0110
0000
0011
0000
1000
0000
0111
1000
0110
0000
,
1001
0000
0100
0000
1011
0100
1001
0000
1010
0000
0100
0000
1011
0100
1001
0010
,
1100
0001
1010
0001
0110
1000
0010
0100
0011
1000
0101
1000
0110
0001
0100
0010
,
1001
0100
0010
1000
0111
1000
0010
0100
1001
0010
0100
0001
1110
0001
1000
0010
,
0101
1000
0010
0100
1011
0100
0010
1000
0011
0100
0010
1000
0111
1000
0100
0010
,
1100
0010
1000
0001
1110
0001
0010
0100
1001
0010
0001
0100
1011
0100
0001
0010
,
1100
0011
1100
0000
0011
1100
0011
0000
0110
1001
0110
0000
1001
0110
1001
0000
,
0110
1000
0100
0010
0001
0000
0000
0000
0100
1000
0100
0010
0001
0000
0000
0000
0110
0000
1000
0000
0001
0000
1000
0000
0010
0100
0001
1000
0010
0100
0001
1000
,
0110
0000
1000
0000
0111
1000
0001
0000
0110
0000
1000
0000
0111
1000
0001
0000
,
1100
0000
0000
0000
0000
0000
0010
0000
0000
0000
0000
0000
1110
0000
0000
0001
0000
0000
1100
0000
0000
0000
0000
0000
0011
0000
0000
0000
0000
0000
1100
0000
0011
0000
1000
0000
0110
0000
0000
0000
0000
0000
1001
0000
0000
0000
0000
0000
,
0110
0000
0001
0000
1110
0001
1000
0000
0110
0000
0001
0000
1110
0001
1000
0000
,
0110
0000
0000
0000
0000
0000
1001
0000
0000
0000
0000
0000
0111
0000
0000
1000
0000
0000
0110
0000
0000
0000
0000
0000
1001
0000
0000
0000
0000
0000
0011
0000
1100
0000
0001
0000
0110
0000
0000
0000
0000
0000
1001
0000
0000
0000
0000
0000
,
0101
0000
0010
0000
1011
0100
1001
0000
0101
0000
0010
0000
1011
0100
1001
0000
,
0101
0000
0000
0000
0000
0000
1010
0000
0000
0000
0000
0000
0111
0000
0000
1000
0000
0000
0011
0000
0000
0000
0000
0000
0110
0000
0000
0000
0000
0000
1001
0000
0110
0000
0001
0000
1100
0000
0000
0000
0000
0000
0011
0000
0000
0000
0000
0000
,
1001
0010
1110
0000
1101
0000
1011
0000
,
0101
0000
0010
0000
0101
0000
0000
0000
1010
0000
0001
0000
1010
0000
0000
0000
0101
0000
0010
0000
0101
0000
0000
0000
0001
0010
1000
0100
0001
0000
0000
0000
,
1012
0000
0100
0000
1010
0100
0010
0000
1010
0000
0103
0000
1010
0100
0011
0000
,
2101
0000
0010
0000
0011
0100
0001
0000
3011
0000
1100
0000
0110
0000
0011
0000
,
2001
0000
0100
0000
0011
0100
3010
0000
1021
0000
0130
0000
2001
0000
3010
0000
,
0102
0000
1000
0000
0110
1000
0010
0000
1100
0000
0013
0000
1001
0000
0110
0000
,
1002
0000
0010
0000
1100
0010
1000
0000
0110
0000
0010
0000
1103
0010
1000
0000
,
0201
0000
1000
0000
0011
1000
0001
0300
1010
0000
0101
0000
1001
0100
0011
0000
,
1002
0000
0010
0000
1100
0010
1003
0000
0102
0000
0013
0000
2101
0000
3010
0000
,
2002
0000
0000
0000
0000
0000
3003
0000
1111
0000
1111
0000
1111
0000
1001
0110
,
1001
0100
0011
1000
0110
0001
1000
0100
0011
1000
0101
1000
0011
0100
1002
0010
,
0100
1000
0100
0010
0100
1000
0100
0010
0100
1003
0110
0001
1100
0010
1000
0100
,
1001
0010
1100
0001
0110
0001
1000
0010
1100
0001
1010
0001
1100
0010
2001
0100
,
0001
0010
0001
0100
0001
0010
0001
3100
0011
1000
0101
0010
1100
0001
0110
0001
,
1010
0100
1001
0100
0011
1000
0010
0100
1001
0100
0011
0100
1010
0001
2200
0000
,
0000
3300
0011
1000
0011
0100
1010
0100
1001
0010
1100
0001
0110
1000
0010
0100
,
1001
0010
0100
0010
1001
0100
0001
0010
1001
0100
1000
0010
0101
1000
0010
0000
,
0100
0000
1001
0000
0110
0000
0000
0000
1000
0000
0110
0000
1001
0000
0000
0000
0010
0000
1001
0000
0110
0000
0000
0000
0001
0100
0010
1000
0100
0000
0000
0000
,
1010
0100
1010
0001
1010
0100
1010
0001
1010
0100
1010
0001
1010
0100
1010
0001
,
0110
1000
0100
0010
0101
1000
0010
0100
0011
1000
0110
0001
1100
0001
0110
1000
,
0101
0010
0101
1000
0101
0010
0101
1000
0101
0010
0101
1000
0101
0010
0101
1000
,
0110
0001
1100
0001
1010
0100
1001
0010
1100
0001
0110
1000
0011
0100
1001
0010
,
1100
0001
1000
0001
0110
0000
0000
0000
0011
1000
0001
1000
0101
1000
0110
0000
,
0000
0000
0110
0000
1111
0000
1111
0000
0110
0000
1111
0000
0110
1001
0110
0000
,
1001
0110
1000
0100
0011
1000
0110
1001
0100
0010
1000
0001
0110
1000
0001
0010
,
1100
0001
0010
1001
0100
0010
1001
0100
0011
0100
1000
0010
0101
1000
0010
1000
,
0011
0100
0010
0100
1001
0010
1100
0010
0001
0100
0010
1000
0101
0010
1001
0100
,
0001
0010
1100
0010
1001
0100
0010
1000
0101
0010
1000
0101
1010
0001
0100
0010
,
1001
0010
0100
0001
1100
0010
0001
1100
0011
1000
0100
0010
0101
0010
1001
0100
,
0010
1100
0001
0010
1100
0001
1010
0100
0001
1010
0100
0010
1001
0100
1000
0011
,
1100
0010
0100
0001
1010
0100
0001
0010
1001
0100
0010
0100
1001
0010
1000
0100
,
0011
1000
0001
0110
1001
0100
0010
0001
1100
0010
0100
0001
1010
0100
0001
0010
,
1001
0110
1000
0010
0101
1000
0010
0100
1001
0110
0001
0100
1010
0001
0100
0001
,
1010
0100
0001
0110
1001
0100
0010
0100
1001
0100
0011
1000
0101
0010
1000
0110
,
1001
0010
1100
0001
0110
0001
1100
0010
0101
1000
0011
1000
0101
1000
0011
1100
,
0010
0001
0110
1000
0100
0010
1001
0100
0011
1000
0101
0010
1001
0100
0010
0100
,
0011
0000
1001
0000
0100
0000
0000
0000
0010
0001
0100
1000
0010
0000
0000
0000
1100
0000
1001
0000
0010
0000
0000
0000
0100
1000
0010
0001
0100
0000
0010
0000
,
1001
0100
0011
1000
0101
1000
0011
0100
1001
0100
1010
0100
0011
1000
0110
0110
,
1002
0000
0100
0000
1010
0100
1000
0000
0010
0000
0100
0000
1010
0100
1003
0000
,
2200
0000
3310
0000
2020
0000
3130
0000
0202
0000
0313
0000
0022
1000
0133
0000
,
2001
0000
0010
0000
0101
0010
0001
0000
0100
0000
0010
0000
0101
0010
3001
0000
,
0022
0000
0133
0000
0202
0000
0313
0000
2020
0000
3130
0000
2200
0001
3310
0000
,
0201
0000
1000
0000
0011
1000
0001
0000
0011
0000
1000
0000
0011
1000
0301
0000
,
0202
1303
2200
3310
2002
3103
0202
0313
,
1001
0010
0100
0001
1010
0001
0100
0010
1001
0100
0010
0100
0011
1000
0010
0100
,
1001
0100
0010
1000
0101
1000
0010
0100
1001
0010
0100
0001
1010
0001
1000
0010
,
0101
1000
0100
1000
0111
1000
0010
1000
0101
1000
0100
1000
0111
1000
0010
1000
,
0011
0100
1001
0100
0011
0100
1001
0100
1001
0010
1100
0010
1001
0010
1100
0010
,
0101
1010
0101
0000
0110
1001
0110
0000
1100
0011
1100
0000
1001
0110
1001
0000
,
1100
0000
0010
0000
2202
3303
0000
0000
0011
0000
0100
0000
2022
3033
0000
0000
0001
0000
0110
0000
1001
0000
0100
0000
1010
0000
0001
0000
1100
0000
0011
0000
,
2000
0000
0000
0000
,
3002
0023
0230
2300
,
3020
0000
0000
0000
,
2030
3200
0320
0032
,
0000
0000
0000
0000
,
0003
0000
0000
0000
;
