#TITLE:Whine Up;
#SUBTITLE:Sexuality Violation;
#ARTIST:Kat Deluna ft. Elephant Man;
#TITLETRANSLIT:;
#SUBTITLETRANSLIT:;
#ARTISTTRANSLIT:;
#CREDIT:;
#BANNER:Whine up - bn.png;
#BACKGROUND:Whine up - bg.png;
#LYRICSPATH:;
#CDTITLE:;
#MUSIC:Whine Up.ogg;
#OFFSET:0.010;
#SAMPLESTART:45.526;
#SAMPLELENGTH:12.000;
#SELECTABLE:YES;
#BPMS:0.000=250.000;
#STOPS:;
#BGCHANGES:;
// cache tags:
#FIRSTBEAT:32.000;
#LASTBEAT:816.000;
#SONGFILENAME:Songs/Sexuality Violation 2/Whine Up - [Aoreo]/Whine Up.sm;
#HASMUSIC:1;
#HASBANNER:1;
#MUSICLENGTH:203.251;
// end cache tags

//---------------dance-single - J. Nero----------------
#NOTES:
     dance-single:
     J. Nero:
     Challenge:
     20:
     1.000,1.000,0.212,0.246,1.000,2087.000,43.000,50.000,0.000,11.000:
0000
0000
0000
0000
,
0000
0000
0000
0000
,
0000
0000
0000
0000
,
0000
0000
0000
0000
,
0000
0000
0000
0000
,
0000
0000
0000
0000
,
0000
0000
0000
0000
,
0000
0000
0000
0000
,
1100
0000
1000
0001
0010
0000
0100
0000
,
1100
0000
1000
0010
0100
0000
0001
0000
,
1001
0000
1000
0010
0100
0000
0001
0000
,
1000
0000
0000
0000
0001
0100
0001
0010
0100
1000
0010
1000
0001
0100
0001
1000
,
0100
0000
0010
0001
1000
0000
0100
0000
,
1100
0000
1000
0001
0100
0000
0001
0000
,
0011
0000
0010
0100
1000
0000
0001
0000
,
1000
0000
0000
0000
0001
0100
0001
0010
0100
1000
0010
0100
0001
1000
0100
0010
,
0001
0000
1000
0010
0100
0000
0001
0010
,
0100
0000
1000
0010
0100
0000
0001
0100
,
0001
0010
0100
1000
0010
0100
0001
1000
,
0001
0000
0000
0000
1000
0100
0010
0100
1000
0010
0100
0001
1000
0000
0100
0000
,
1000
0000
0010
0100
0001
0000
1000
0100
,
0010
0000
0100
1000
0010
0000
1000
0001
,
0100
0000
0001
0010
0100
0000
1000
0001
,
0200
0000
0300
0000
0200
0000
0300
0000
0200
0000
0300
0000
0200
0300
0200
0300
,
0001
1000
0001
0010
0100
1000
0010
0100
,
0001
1000
0100
1000
0010
0100
0001
1000
,
0001
0100
0001
0000
1000
0100
0010
0000
0001
0010
0100
0000
1000
0100
0010
0000
,
0001
0100
0001
1000
0100
1000
0010
0100
0001
0000
0000
0000
1000
0000
0100
0000
,
1000
0100
1000
0000
0001
0100
0001
0000
1000
0100
0010
0000
0001
0010
0100
0000
,
1000
0100
1000
0001
0010
0100
1000
0001
1000
0000
0000
0000
0001
0000
0100
0000
,
0001
0000
0010
0100
1000
0000
0001
0100
,
0010
0000
0010
0000
,
1000
0001
1000
0000
0000
0000
0000
0000
0000
0000
0000
0000
0001
0100
0001
0000
0000
0000
0000
0000
0000
0000
0000
0000
,
1000
0000
0000
0000
0000
0000
0000
0000
0000
0000
0001
0000
0000
0000
0000
0000
0000
0000
0000
0100
0000
0000
0000
0000
0000
0000
0000
0000
0000
0001
0000
0000
0000
0000
0000
0000
0000
0000
0010
0000
0000
0000
0000
0000
0000
0000
0000
0000
0100
0000
0000
0000
0000
0000
0000
0000
0000
0000
1000
0000
0000
0000
0000
0000
0000
0000
0000
0010
0000
0000
0000
0000
0000
0000
0000
0000
0000
0100
0000
0000
0000
0000
0000
0000
0000
0000
0001
0000
0000
0000
0000
0000
0000
0000
0000
0000
1000
0000
0000
0000
0000
0000
0000
0000
0000
0000
0100
0000
0000
0000
0000
0000
0000
0000
0000
0010
0000
0000
0000
0000
0000
0000
0000
0000
0000
0001
0000
0000
0000
0000
0000
0000
0000
0000
1000
0000
0000
0000
0000
0000
0000
0000
0000
0000
0001
0000
0000
0000
0000
0000
0000
0000
0000
0000
0000
0000
0000
0000
0000
0000
0000
0000
0000
0000
0000
0000
0000
0000
0000
0000
0000
0000
0000
0000
0000
0000
0000
0000
0000
0000
0000
0000
0000
0000
0000
0000
0000
0000
0000
0000
0000
0000
,
1000
0100
1000
0001
0010
0100
1000
0001
0100
0010
0100
0001
0010
0100
1000
0001
,
0100
0001
0010
0001
1000
0100
0010
0001
1000
0010
1000
0100
1000
0001
0100
0001
,
1000
0001
1000
0000
0000
0000
0000
0000
0000
0000
0000
0000
0001
0100
0001
0000
0000
0000
0000
0000
0000
0000
0000
0000
,
1000
0000
0000
0000
0000
0000
0000
0000
0000
0000
0001
0000
0000
0000
0000
0000
0000
0000
0000
0100
0000
0000
0000
0000
0000
0000
0000
0000
0000
0001
0000
0000
0000
0000
0000
0000
0000
0000
0010
0000
0000
0000
0000
0000
0000
0000
0000
0000
0100
0000
0000
0000
0000
0000
0000
0000
0000
0000
1000
0000
0000
0000
0000
0000
0000
0000
0000
0010
0000
0000
0000
0000
0000
0000
0000
0000
0000
0100
0000
0000
0000
0000
0000
0000
0000
0000
0001
0000
0000
0000
0000
0000
0000
0000
0000
0000
1000
0000
0000
0000
0000
0000
0000
0000
0000
0000
0100
0000
0000
0000
0000
0000
0000
0000
0000
0010
0000
0000
0000
0000
0000
0000
0000
0000
0000
0001
0000
0000
0000
0000
0000
0000
0000
0000
1000
0000
0000
0000
0000
0000
0000
0000
0000
0000
0002
0000
0000
0000
0000
0000
0000
0000
0000
0000
0000
0000
0000
0000
0000
0000
0000
0000
0000
0000
0000
0000
0000
0000
0003
0000
0000
0000
0000
0000
0000
0000
0000
0000
0000
0000
0000
0000
0000
0000
0000
0000
0000
0000
0000
0000
0000
0000
,
1000
0100
0010
0100
1000
0010
0100
0010
1000
0100
0010
0001
,
1000
0100
0010
0100
1000
0001
0100
0001
0010
0100
1000
0001
0100
0010
0100
0001
,
1000
1000
0010
0010
0100
0100
0001
0001
,
0010
0010
0100
0100
1000
1000
0010
0010
,
0100
0100
0001
0001
0010
0010
0100
0100
,
1000
1000
0001
0001
0100
0100
0001
0001
,
1000
0100
1000
0010
0100
0001
0100
0001
1000
0100
0010
0001
1000
0100
1000
0010
,
0100
0010
1000
0001
0010
0100
1000
0001
0100
0001
0010
0001
1000
0100
0010
0001
,
1000
0100
1000
0010
1000
0001
0100
0001
0010
0100
1000
0001
0100
0001
0010
0100
,
1000
0001
1000
0100
1000
0010
0100
0001
1000
0100
1000
0001
0100
0010
0100
0001
,
1000
1000
0010
0010
0100
0100
0001
0001
,
0010
0010
0100
0100
1000
1000
0010
0010
,
0100
0100
0001
0001
1000
1000
0100
0100
,
1000
1000
0010
0010
0100
0100
0001
0001
,
1000
0100
1000
0001
0100
0001
1000
0100
0010
0001
1000
0100
1000
0001
0100
0010
,
0100
0001
1000
0001
0010
0100
1000
0001
1000
0100
1000
0001
0100
0010
0100
0001
,
2000
3010
0100
0001
0020
0130
1000
0010
,
0200
0301
0010
0100
2002
0000
0000
3003
,
1000
0100
1000
0001
0010
0100
1000
0001
0100
0010
0100
0001
1000
0100
0010
0001
,
1000
0100
1000
0010
0100
0001
1000
0100
1000
0001
0100
0001
1000
0001
0010
0100
,
1000
0001
1000
0010
0100
0010
1000
0001
1000
0100
0010
0001
1000
0100
1000
0001
,
1000
0000
0000
0000
0001
0010
0100
1000
0001
1000
0001
1000
0001
1000
0001
1000
,
0010
0100
0001
1000
0001
0100
0010
0100
0001
1000
0100
0010
0001
1000
0100
1000
,
0001
1000
0010
0100
0010
1000
0001
0010
0100
1000
0001
0100
0010
0100
0001
1000
,
0100
0010
0001
1000
0100
1000
0010
0100
0010
1000
0001
0010
0100
1000
0001
0100
,
0001
0000
0000
0000
1000
0010
0100
0010
1000
0001
1000
0001
1000
0001
1000
0001
,
1000
0100
0010
0001
1000
0100
1000
0010
0100
0001
0100
0010
1000
0100
0010
0001
,
1000
0100
0010
0100
1000
0001
0100
0010
0100
0001
0010
0100
1000
0001
0100
0001
,
1000
0100
0010
0001
1000
0100
1000
0001
0100
0001
0010
0100
1000
0001
0100
0001
,
1000
0000
0000
0000
0001
0100
0010
0100
0001
1000
0001
1000
0001
1000
0001
1000
,
0001
0100
0010
1000
0100
0010
0001
1000
0100
1000
0010
1000
0001
0010
0100
1000
,
0001
0100
0010
0100
0001
0010
0100
1000
0001
0100
0010
0100
0001
0010
0100
1000
,
0001
0100
0010
0100
0001
0010
0100
1000
0001
0100
0001
0010
0100
1000
0010
0100
,
0001
0000
0000
0000
1000
0100
0010
0100
1000
0001
1000
0001
1000
0001
1000
0001
,
1000
0100
0010
0100
1000
0010
0100
0001
,
0010
0000
0000
0000
0000
0000
0100
0000
0000
0000
0000
0000
1000
0000
0000
0000
0000
0000
0001
0000
0000
0000
0000
0000
1000
0000
0000
0001
0000
0000
0100
0000
0010
0000
0000
0000
0000
0000
0000
0000
0000
0000
0000
0000
0000
0000
0000
0000
,
0000
1000
0001
1000
0100
0010
0001
0100
,
0001
0000
1000
0000
0100
0000
1000
0000
0001
0100
0010
0000
0000
0000
0000
0000
,
0000
0000
0000
1000
0000
0000
0000
0000
0000
0001
0000
0000
0100
0000
0000
0001
0010
0100
1000
0000
0000
0001
0000
0000
,
0100
0000
0001
0000
1000
0000
1111
0000
0000
0000
0000
0000
,
0000
0000
0001
0100
0001
1000
0100
1000
0001
0010
0100
1000
0001
0100
0001
0010
,
0001
1000
0100
1000
0001
0100
0010
1000
0001
0000
0100
0000
0010
0000
0100
0000
,
0001
1000
0001
0010
0100
1000
0010
0100
,
0001
0100
0010
1000
0100
0010
0100
1000
,
0001
0100
0001
1000
0010
0100
0001
1000
,
1002
0000
0000
0000
0000
0000
0000
0000
0000
0003
0000
1100
0022
2200
0000
0000
0000
0000
0000
0000
0000
3333
0000
0000
,
1000
0100
0010
0100
1000
0001
0100
0001
,
0010
0100
1000
0001
1000
0001
0100
0001
,
1000
0010
0100
0010
1000
0001
0100
0001
1000
0100
0010
0001
1000
0100
1000
0001
,
0200
0000
0300
0000
0200
0000
0300
0000
0200
0000
0300
0000
0200
0300
0200
0300
,
0001
1000
0001
0000
1000
0100
1000
0000
0001
0010
0100
0000
1000
0100
1000
0000
,
0001
0100
0001
0010
0100
1000
0001
0100
0010
0000
0000
0000
1000
0100
1000
0000
,
0001
0100
0001
0000
1000
0100
0010
0000
0001
1000
0001
0000
1000
0010
0100
0000
,
0001
0000
0000
1000
0000
0000
0001
0000
0000
0010
0000
0000
0100
0000
0000
1000
0000
0000
0010
0000
0000
0100
0000
0000
0001
0000
0000
0000
0000
0000
0000
0000
0000
0000
1000
0000
0100
0000
0000
0000
0000
0000
0000
0000
0000
0000
0000
0000
,
1000
0000
0000
0000
0000
0000
0010
0000
0000
0000
0000
0000
0000
0000
0000
0000
0000
0000
0000
0000
0000
0000
0000
0000
0000
0000
0000
0000
0000
0000
0000
0000
0000
0000
0000
0000
0000
0000
0000
0000
0000
0000
0000
0000
0000
0000
0000
0000
0100
0000
0000
0000
0000
0000
0001
0000
0000
0000
0000
0000
0000
0000
0000
0000
0000
0000
0000
0000
0000
0000
0000
0000
0000
0000
0000
0000
0000
0000
0000
0000
0000
0000
0000
0000
0000
0000
0000
0000
0000
0000
0000
0000
0000
0000
0000
0000
0010
0000
0000
0000
0000
0000
0000
0000
0001
0000
0000
0000
0000
0000
0000
0000
0000
0000
0000
0000
0000
0000
0000
0000
0000
0000
0000
0000
0000
0000
0000
0000
0000
0000
0000
0000
0000
0000
0000
0000
0000
0000
0000
0000
0000
0000
0000
0000
1000
0000
0000
0000
0000
0000
0000
0000
0100
0000
0000
0000
0000
0000
0000
0000
0000
0000
0000
0000
0000
0000
0000
0000
0000
0000
0000
0000
0000
0000
0000
0000
0000
0000
0000
0000
0000
0000
0000
0000
0000
0000
0000
0000
0000
0000
0000
0000
,
1000
0001
1000
0100
1000
0001
0100
0001
1000
0000
0001
0000
0100
0000
0000
0000
,
0001
0100
0010
0000
0100
0001
1000
0000
,
0200
0000
0000
0000
0300
0000
0000
0000
0000
0000
0000
0000
0000
0000
0000
0000
2000
0002
0020
0200
3000
0003
0030
0300
0000
0000
0000
0000
0000
0000
0000
0000
,
1000
0001
1000
0000
0000
0000
0000
0000
0000
0000
0000
0000
0001
1000
0001
0000
0000
0000
0000
0000
0000
0000
0000
0000
,
1000
0000
0000
0000
0000
0000
0000
0000
0000
0000
0100
0000
0000
0000
0000
0000
0000
0000
0000
0010
0000
0000
0000
0000
0000
0000
0000
0000
0000
0001
0000
0000
0000
0000
0000
0000
0000
0000
1000
0000
0000
0000
0000
0000
0000
0000
0000
0000
0010
0000
0000
0000
0000
0000
0000
0000
0000
0000
1000
0000
0000
0000
0000
0000
0000
0000
0000
0100
0000
0000
0000
0000
0000
0000
0000
0000
0000
0010
0000
0000
0000
0000
0000
0000
0000
0000
0001
0000
0000
0000
0000
0000
0000
0000
0000
0000
1000
0000
0000
0000
0000
0000
0000
0000
0000
0000
0000
0000
0000
0000
0000
0000
0000
0000
0000
0000
0000
0000
0000
0000
0100
0000
0000
0000
0000
0000
0000
0000
0000
0000
0000
0000
0000
0000
0000
0000
0000
0000
0000
0000
0000
0000
0000
0000
0010
0000
0000
0000
0000
0000
0000
0000
0000
0000
0000
0000
0000
0000
0000
0000
0000
0000
0000
0000
0000
0000
0000
0000
0100
0000
0000
0000
0000
0000
0000
0000
0000
0000
0000
0000
0000
0000
0000
0000
0000
0000
0000
0000
0000
0000
0000
0000
,
1000
0010
0100
0001
0010
0100
1000
0001
,
0100
0001
1000
0001
0010
0100
1000
0001
0100
0001
0010
0001
1000
0100
1000
0001
,
1000
0100
1000
0000
0000
0000
0000
0000
0000
0000
0000
0000
0001
0010
0100
0000
0000
0000
0000
0000
0000
0000
0000
0000
,
1000
0000
0000
0000
0000
0000
0000
0000
0000
0000
0100
0000
0000
0000
0000
0000
0000
0000
0000
1000
0000
0000
0000
0000
0000
0000
0000
0000
0000
0001
0000
0000
0000
0000
0000
0000
0000
0000
0100
0000
0000
0000
0000
0000
0000
0000
0000
0000
0010
0000
0000
0000
0000
0000
0000
0000
0000
0000
1000
0000
0000
0000
0000
0000
0000
0000
0000
0001
0000
0000
0000
0000
0000
0000
0000
0000
0000
0100
0000
0000
0000
0000
0000
0000
0000
0000
0010
0000
0000
0000
0000
0000
0000
0000
0000
0000
1000
0000
0000
0000
0000
0000
0000
0000
0000
0000
0100
0000
0000
0000
0000
0000
0000
0000
0000
0010
0000
0000
0000
0000
0000
0000
0000
0000
0000
0001
0000
0000
0000
0000
0000
0000
0000
0000
1000
0000
0000
0000
0000
0000
0000
0000
0000
0000
0001
0000
0000
0000
0000
0000
0000
0000
0000
0000
0000
0000
0000
0000
0000
0000
0000
0000
0000
0000
0000
0000
0000
0000
0000
0000
0000
0000
0000
0000
0000
0000
0000
0000
0000
0000
0000
0000
0000
0000
0000
0000
0000
0000
0000
0000
0000
0000
,
0101
0000
0100
0001
0010
0000
0100
0000
,
1000
0100
1000
0010
1000
0001
0100
0001
0010
0000
0100
0000
1000
0000
0001
0000
,
0100
0100
0001
0001
0010
0010
0100
0100
,
1000
1000
0010
0010
0100
0100
0001
0001
,
1000
1000
0010
0010
0100
0100
0001
0001
,
0010
0010
0100
0100
1000
1000
0001
0001
,
1000
0100
1000
0001
1000
0010
0100
0001
1000
0001
0010
0100
1000
0001
0100
0010
,
0100
0001
1000
0100
1000
0010
1000
0001
0100
0001
1000
0001
0010
0100
1000
0001
,
1000
0010
0100
0010
1000
0001
1000
0100
0010
0001
1000
0100
1000
0010
1000
0001
,
0100
0001
0010
0100
1000
0001
0100
0010
0100
0001
1000
0100
0010
0001
1000
0001
,
0100
0100
0001
0001
0010
0010
0100
0100
,
1000
1000
0010
0010
0100
0100
0001
0001
,
1000
1000
0010
0010
0100
0100
0001
0001
,
0010
0010
0100
0100
1000
1000
0010
0010
,
1000
0100
1000
0010
1000
0001
0010
0100
1000
0001
0100
0001
0010
0100
1000
0010
,
1000
0001
0100
0001
0010
0001
1000
0100
0010
0001
1000
0100
1000
0010
0100
0001
,
2000
3010
0100
0001
0020
0130
1000
0010
,
0200
0301
1000
0010
2002
0000
0000
3003
,
1000
0100
1000
0010
0100
0010
1000
0001
0100
0001
1000
0001
0010
0100
1000
0001
,
0100
0010
0100
0001
0010
0001
1000
0010
0100
0010
1000
0001
0010
0100
1000
0001
,
0100
0010
0100
0001
1000
0100
1000
0010
0100
0010
1000
0001
0010
0100
1000
0001
,
0100
0000
0000
0000
0001
0010
0100
1000
0001
1000
0001
1000
0001
1000
0001
1000
,
0001
0100
0010
0100
0001
0010
0100
1000
0001
0100
0010
0100
0001
1000
0100
1000
,
0010
1000
0001
0100
0001
1000
0001
0010
0100
1000
0001
0100
0010
0100
0001
1000
,
0100
0010
0001
1000
0100
1000
0001
0100
0010
0100
0001
1000
0001
0010
0100
1000
,
0001
0000
0000
0000
0100
0001
0010
0100
1000
0001
1000
0001
1000
0001
1000
0001
,
0100
0010
0100
0001
0010
0100
1000
0001
1000
0100
1000
0010
0100
0010
1000
0001
,
0100
0001
1000
0001
0010
0100
1000
0010
0100
0001
0100
0010
1000
0001
1000
0100
,
0010
0001
1000
0100
1000
0010
0100
0010
1000
0001
0010
0100
1000
0010
0100
0001
,
1000
0000
0000
0000
0010
1000
0100
0010
0001
1000
0001
1000
0001
1000
0001
1000
,
0100
0010
0001
0100
0001
1000
0100
1000
0010
0100
0010
1000
0001
0010
0100
0010
,
0001
1000
0001
0100
0010
0100
0001
1000
0100
1000
0001
0100
0010
0100
0001
0010
,
0100
1000
0001
1000
0100
0010
0001
0100
0010
0100
0001
1000
0100
1000
0010
0100
,
0001
0000
0000
0000
0100
0001
0010
0100
1000
0001
1000
0001
1000
0001
1000
0001
,
2000
0000
3000
0000
0002
0003
1000
0100
,
0010
0100
0100
0001
0100
0100
1000
0000
,
1111
0000
0000
0000
0000
0000
0001
0000
0100
0000
0001
0000
,
1001
0000
1000
0100
0010
0001
0010
0100
,
1111
0000
0000
0000
2000
3000
0001
1000
,
0100
0100
0001
0010
0010
1000
0001
0000
,
1111
0000
0001
1000
0001
0100
0100
1000
,
1001
0001
1000
0010
,
1111
0000
0000
1000
0100
0100
0001
0000
,
1001
0000
1000
0010
0100
0000
0100
0000
,
1111
0000
0000
0001
0100
0100
1000
0001
,
0020
0000
0130
1000
0000
1000
0001
0000
,
1111
0000
0000
1000
0000
0001
0100
0000
,
0001
0000
0010
0000
0100
0000
1000
0000
0000
1001
0000
0000
,
1111
0000
0000
0000
0000
0000
0001
0000
0000
0000
0000
0000
0010
0000
0000
0000
0100
0000
0000
0000
0000
0100
0000
0000
,
1000
0000
0001
0100
0010
0000
1001
0000
,
2000
0000
0000
3100
2000
0000
0000
3100
,
2000
0000
0000
3100
2000
0000
0000
3100
,
0020
0000
0030
0011
,
0001
0100
0010
1000
0000
0000
0000
0000
0000
0000
0000
0000
0001
0010
0100
1000
0000
0000
0000
0000
0000
0000
0000
0000
0000
0000
0000
0000
0000
0000
0000
0000
,
0002
0000
0000
0013
0002
0000
0000
0013
,
0002
1000
0100
0013
0002
0000
0000
0013
,
0002
0000
0003
0100
,
0010
0000
0000
0000
1100
0011
1100
0011
2100
0000
0000
0000
0000
0000
0000
0000
,
3001
0100
0001
1000
0100
1000
0010
1000
0001
0100
0001
1000
0001
0010
0100
1000
,
0001
0100
0010
0100
0001
1000
0001
0010
0100
1000
0001
1000
0100
1000
0010
0100
,
0010
1000
0001
0100
0001
0010
0100
1000
0001
0100
0010
0100
0001
1000
0100
0010
,
0001
1000
0001
0100
0010
1000
0100
0010
0001
1000
0001
1000
0010
1000
0100
0010
,
0001
1000
0001
1000
0001
1000
0001
1000
0010
0100
0001
0010
0100
1000
0001
0100
,
0001
1000
0100
1000
0010
0100
0001
1000
0001
0010
0100
1000
0001
0100
0001
0010
,
0001
1000
0100
1000
0010
0100
0010
1000
0001
0010
0100
1000
0001
1000
0100
1000
,
0010
0100
0001
1000
0010
1000
0100
0010
0001
1000
0001
1000
0001
0100
0010
0100
,
0001
1000
0001
1000
0001
1000
0001
0100
0010
1000
0100
0010
0001
0100
0001
1000
,
0100
1000
0001
1000
0010
0100
0010
1000
0001
0010
0100
1000
0001
0100
0010
1000
,
0100
0010
0001
1000
0100
1000
0010
1000
0001
0100
0001
0010
0100
1000
0001
0100
,
0010
0100
0001
1000
0010
1000
0100
0010
0001
1000
0001
1000
0001
0100
0010
0100
,
0001
1000
0001
1000
0001
1000
0001
1000
0100
0010
0001
1000
0010
0100
0001
1000
,
0001
0100
0001
1000
0010
0100
0010
1000
0001
0100
0001
1000
0100
0010
0001
1000
,
0001
0100
0010
0100
0001
1000
0001
0010
0100
1000
0001
0100
0001
1000
0100
0010
,
0001
1000
0001
0100
0001
1000
0100
0010
0001
1000
0001
1000
0001
0100
0010
0100
,
0001
0000
0000
1000
0000
0000
0001
0000
0000
1000
0000
0000
0001
0000
0000
1000
0000
0000
0001
0000
0000
1000
0000
0000
0001
0000
0000
0000
0100
0000
0000
0000
0001
0000
0000
0000
0010
0000
0000
0000
0100
0000
0000
0000
1000
0000
0000
0000
,
0001
0100
0001
1000
0100
0010
0100
1000
0001
0100
0010
0100
,
0001
1000
0100
0010
0001
1000
0001
0010
0100
0010
0001
1000
,
0010
0100
0010
1000
0001
1000
0100
0010
0001
1000
0010
1000
,
0001
0010
0100
0010
0001
0100
0001
1000
0100
0010
0001
1000
,
0010
1000
0001
0010
0100
0010
0001
0100
0001
1000
0100
0010
,
0001
0100
0001
1000
0010
1000
0100
0010
0001
1000
0010
0100
,
0010
1000
0001
0010
0100
0010
0001
0100
0001
1000
0010
1000
,
0100
0010
0001
1000
0010
1000
0001
0010
0100
0010
0001
1000
,
0010
1000
0100
0010
0001
1000
0001
0010
0100
0010
0001
1000
,
0010
1000
0001
0100
0010
0100
0001
0010
0100
1000
0001
0010
,
0001
1000
0010
0100
0010
1000
0001
1000
0100
0010
0001
1000
,
0010
0100
0010
1000
0001
0010
0100
0010
0001
1000
0010
0100
,
0010
1000
0001
1000
0100
0010
0001
1000
0010
0100
0010
1000
,
0001
0010
0100
0010
0001
1000
0001
0100
0010
0100
0001
1000
,
0100
0010
0100
1000
0001
0100
0010
0100
0001
1000
0100
0010
,
0001
1000
0001
0100
0010
0100
0001
1000
0001
0010
0100
1000
,
0001
0100
0001
0010
0100
1000
0001
0100
0010
0100
0001
1000
,
0100
0010
0100
1000
0010
0100
0010
1000
0100
0010
0001
1000
,
0001
0100
0010
0100
0001
0010
0100
1000
0001
0100
0001
1000
,
0100
1000
0001
0100
0010
0100
0001
1000
0001
0010
0100
1000
,
0010
1000
0001
0100
0001
0010
0100
1000
0010
0100
0001
1000
,
0100
0010
0001
1000
0001
0100
0010
0100
0001
0010
0100
1000
,
0001
0000
0101
0000
0110
0000
1001
0000
0000
0110
0000
0000
,
2002
3003
1001
1000
,
1010
0000
0010
0100
0001
0000
0010
0000
,
0110
0000
0100
1000
0010
0000
0100
0000
,
0101
0000
1001
0000
1010
0000
0220
0000
0000
0000
0000
0000
,
0330
0000
0000
0000
;

//---------------dance-single - J. Nero----------------
#NOTES:
     dance-single:
     J. Nero:
     Hard:
     19:
     1.000,1.000,0.354,0.246,1.000,1897.000,72.000,50.000,0.000,11.000:
0000
0000
0000
0000
,
0000
0000
0000
0000
,
0000
0000
0000
0000
,
0000
0000
0000
0000
,
0000
0000
0000
0000
,
0000
0000
0000
0000
,
0000
0000
0000
0000
,
0000
0000
0000
0000
,
1100
0000
1000
0001
0010
0000
0100
0000
,
1100
0000
1000
0010
0100
0000
0001
0000
,
1001
0000
1000
0010
0100
0000
0001
0000
,
1000
0000
0000
0000
0001
0100
0001
0010
0100
1000
0010
1000
0001
0100
0001
1000
,
0100
0000
0010
0001
1000
0000
0100
0000
,
1100
0000
1000
0001
0100
0000
0001
0000
,
0011
0000
0010
0100
1000
0000
0001
0000
,
1000
0000
0000
0000
0001
0100
0001
0010
0100
1000
0010
0100
0001
1000
0100
0010
,
0001
0000
1000
0010
0100
0000
0001
0010
,
0100
0000
1000
0010
0100
0000
0001
0100
,
0001
0010
0100
1000
0010
0100
0001
1000
,
0001
0000
0000
0000
1000
0100
0010
0100
1000
0010
0100
0001
1000
0000
0100
0000
,
1000
0000
0010
0100
0001
0000
1000
0100
,
0010
0000
0100
1000
0010
0000
1000
0001
,
0100
0000
0001
0010
0100
0000
1000
0001
,
0200
0000
0300
0000
0200
0000
0300
0000
0200
0000
0300
0000
0200
0300
0200
0300
,
0001
1000
0001
0010
0100
1000
0010
0100
,
0001
1000
0100
1000
0010
0100
0001
1000
,
0001
0100
0001
0000
1000
0100
0010
0000
0001
0010
0100
0000
1000
0100
0010
0000
,
0001
0100
0001
1000
0100
1000
0010
0100
0001
0000
0000
0000
1000
0000
0100
0000
,
1000
0100
1000
0000
0001
0100
0001
0000
1000
0100
0010
0000
0001
0010
0100
0000
,
1000
0100
1000
0001
0010
0100
1000
0001
1000
0000
0000
0000
0001
0000
0100
0000
,
0001
0000
0010
0100
1000
0000
0001
0100
,
0010
0000
0010
0000
,
1000
0001
1000
0000
0000
0000
0000
0000
0000
0000
0000
0000
0001
0100
0001
0000
0000
0000
0000
0000
0000
0000
0000
0000
,
1000
0100
1000
0001
0100
0001
0010
0100
1000
0010
0100
0001
1000
0000
0000
0000
,
0001
0100
0001
0010
0100
1000
0001
0100
0010
0100
0001
1000
,
0100
0010
0001
1000
0001
0100
0001
0010
0100
1000
0001
1000
,
0001
0100
0001
0000
0000
0000
0000
0000
0000
0000
0000
0000
1000
0010
1000
0000
0000
0000
0000
0000
0000
0000
0000
0000
,
0001
0100
0001
1000
0100
0010
0001
0100
0010
1000
0001
0100
0002
0000
0000
0000
,
1003
0100
0010
0100
1000
0010
0100
0010
1000
0100
0010
0001
,
1000
0100
0010
0100
1000
0001
0100
0001
0010
0100
1000
0001
0100
0010
0100
0001
,
1000
0100
0010
0100
1000
0010
0100
0001
,
0010
0100
1000
0001
0100
0010
0100
0001
,
0010
0100
1000
0001
0100
0001
1000
0100
,
0010
0001
0100
0001
1000
0100
0010
0001
,
1000
0100
1000
0010
0100
0001
0100
0001
1000
0100
0010
0001
1000
0100
1000
0010
,
0100
0010
1000
0001
0010
0100
1000
0001
0100
0001
0010
0001
1000
0100
0010
0001
,
1000
0100
1000
0010
1000
0001
0100
0001
0010
0100
1000
0001
0100
0001
0010
0100
,
1000
0001
1000
0100
1000
0010
0100
0001
1000
0100
1000
0001
0100
0010
0100
0001
,
1000
0100
0010
0100
1000
0010
0100
0001
,
0010
0100
1000
0001
0100
0001
0010
0100
,
1000
0010
0100
0010
1000
0100
1000
0001
,
0010
0100
1000
0001
0100
0010
0100
0001
,
1000
0100
1000
0001
0100
0001
1000
0100
0010
0001
1000
0100
1000
0001
0100
0010
,
0100
0001
1000
0001
0010
0100
1000
0001
1000
0100
1000
0001
0100
0010
0100
0001
,
2000
3010
0100
0001
0020
0130
1000
0010
,
0200
0301
0010
0100
2002
0000
0000
3003
,
1000
0100
1000
0001
0010
0100
1000
0001
0100
0010
0100
0001
1000
0100
0010
0001
,
1000
0100
1000
0010
0100
0001
1000
0100
1000
0001
0100
0001
1000
0001
0010
0100
,
1000
0001
1000
0010
0100
0010
1000
0001
1000
0100
0010
0001
1000
0100
1000
0001
,
1000
0000
0000
0000
0001
0010
0100
1000
0001
1000
0001
1000
0001
1000
0001
1000
,
0010
0100
0001
1000
0001
0100
0010
0100
0001
1000
0100
0010
0001
1000
0100
1000
,
0001
1000
0010
0100
0010
1000
0001
0010
0100
1000
0001
0100
0010
0100
0001
1000
,
0100
0010
0001
1000
0100
1000
0010
0100
0010
1000
0001
0010
0100
1000
0001
0100
,
0001
0000
0000
0000
1000
0010
0100
0010
1000
0001
1000
0001
1000
0001
1000
0001
,
1000
0100
0010
0001
1000
0100
1000
0010
0100
0001
0100
0010
1000
0100
0010
0001
,
1000
0100
0010
0100
1000
0001
0100
0010
0100
0001
0010
0100
1000
0001
0100
0001
,
1000
0100
0010
0001
1000
0100
1000
0001
0100
0001
0010
0100
1000
0001
0100
0001
,
1000
0000
0000
0000
0001
0100
0010
0100
0001
1000
0001
1000
0001
1000
0001
1000
,
0001
0100
0010
1000
0100
0010
0001
1000
0100
1000
0010
1000
0001
0010
0100
1000
,
0001
0100
0010
0100
0001
0010
0100
1000
0001
0100
0010
0100
0001
0010
0100
1000
,
0001
0100
0010
0100
0001
0010
0100
1000
0001
0100
0001
0010
0100
1000
0010
0100
,
0001
0000
0000
0000
1000
0100
0010
0100
1000
0001
1000
0001
1000
0001
1000
0001
,
1000
0100
0010
0100
1000
0010
0100
0001
,
0010
0000
0000
0000
0000
0000
0100
0000
0000
0000
0000
0000
1000
0000
0000
0000
0000
0000
0001
0000
0000
0000
0000
0000
1000
0000
0000
0001
0000
0000
0100
0000
0010
0000
0000
0000
0000
0000
0000
0000
0000
0000
0000
0000
0000
0000
0000
0000
,
0000
1000
0001
1000
0100
0010
0001
0100
,
0001
0000
1000
0000
0100
0000
1000
0000
0001
0100
0010
0000
0000
0000
0000
0000
,
0000
0000
0000
1000
0000
0000
0000
0000
0000
0001
0000
0000
0100
0000
0000
0001
0010
0100
1000
0000
0000
0001
0000
0000
,
0100
0000
0001
0000
1000
0000
1111
0000
0000
0000
0000
0000
,
0000
0000
0001
0100
0001
1000
0100
1000
0001
0010
0100
1000
0001
0100
0001
0010
,
0001
1000
0100
1000
0001
0100
0010
1000
0001
0000
0100
0000
0010
0000
0100
0000
,
0001
1000
0001
0010
0100
1000
0010
0100
,
0001
0100
0010
1000
0100
0010
0100
1000
,
0001
0100
0001
1000
0010
0100
0001
1000
,
0002
0000
0000
0000
0000
0000
0000
0000
0000
0003
0000
1100
0022
2200
0000
0000
0000
0000
0000
0000
0000
3333
0000
0000
,
1000
0100
0010
0100
1000
0001
0100
0001
,
0010
0100
1000
0001
1000
0001
0100
0001
,
1000
0010
0100
0010
1000
0001
0100
0001
1000
0100
0010
0001
1000
0100
1000
0001
,
0200
0000
0300
0000
0200
0000
0300
0000
0200
0000
0300
0000
0200
0300
0200
0300
,
0001
1000
0001
0000
1000
0100
1000
0000
0001
0010
0100
0000
1000
0100
1000
0000
,
0001
0100
0001
0010
0100
1000
0001
0100
0010
0000
0000
0000
1000
0100
1000
0000
,
0001
0100
0001
0000
1000
0100
0010
0000
0001
1000
0001
0000
1000
0010
0100
0000
,
0001
0000
0000
1000
0000
0000
0001
0000
0000
0010
0000
0000
0100
0000
0000
1000
0000
0000
0010
0000
0000
0100
0000
0000
0001
0000
0000
0000
0000
0000
0000
0000
0000
0000
1000
0000
0100
0000
0000
0000
0000
0000
0000
0000
0000
0000
0000
0000
,
1000
0000
0000
0000
0000
0000
0010
0000
0000
0000
0000
0000
0000
0000
0000
0000
0000
0000
0000
0000
0000
0000
0000
0000
0000
0000
0000
0000
0000
0000
0000
0000
0000
0000
0000
0000
0000
0000
0000
0000
0000
0000
0000
0000
0000
0000
0000
0000
0100
0000
0000
0000
0000
0000
0001
0000
0000
0000
0000
0000
0000
0000
0000
0000
0000
0000
0000
0000
0000
0000
0000
0000
0000
0000
0000
0000
0000
0000
0000
0000
0000
0000
0000
0000
0000
0000
0000
0000
0000
0000
0000
0000
0000
0000
0000
0000
0010
0000
0000
0000
0000
0000
0000
0000
0001
0000
0000
0000
0000
0000
0000
0000
0000
0000
0000
0000
0000
0000
0000
0000
0000
0000
0000
0000
0000
0000
0000
0000
0000
0000
0000
0000
0000
0000
0000
0000
0000
0000
0000
0000
0000
0000
0000
0000
1000
0000
0000
0000
0000
0000
0000
0000
0100
0000
0000
0000
0000
0000
0000
0000
0000
0000
0000
0000
0000
0000
0000
0000
0000
0000
0000
0000
0000
0000
0000
0000
0000
0000
0000
0000
0000
0000
0000
0000
0000
0000
0000
0000
0000
0000
0000
0000
,
1000
0001
1000
0100
1000
0001
0100
0001
1000
0000
0001
0000
0100
0000
0000
0000
,
0001
0100
0010
0000
0100
0001
1000
0000
,
0200
0000
0000
0000
0000
0000
0000
0000
0300
0000
0000
0000
0000
0000
0000
0000
2000
0002
0020
0200
3000
0003
0030
0300
0000
0000
0000
0000
0000
0000
0000
0000
,
1000
0001
1000
0000
0000
0000
0000
0000
0000
0000
0000
0000
0001
1000
0001
0000
0000
0000
0000
0000
0000
0000
0000
0000
,
1000
0010
1000
0100
0010
0001
1000
0001
0100
0000
0001
0000
1000
0000
0100
0000
,
1000
0010
0100
0001
0010
0100
1000
0001
,
0100
0001
1000
0001
0010
0100
1000
0010
0100
0001
1000
0001
,
1000
0100
1000
0000
0000
0000
0000
0000
0000
0000
0000
0000
0001
0010
0100
0000
0000
0000
0000
0000
0000
0000
0000
0000
,
1000
0100
1000
0010
0100
0001
0010
0100
1000
0010
0100
0001
1000
0100
0010
0001
,
1000
0000
1000
0001
0100
0000
0010
0000
,
1000
0100
1000
0010
1000
0001
0100
0001
0010
0000
0100
0000
1000
0000
0001
0000
,
0100
0001
0010
0100
1000
0010
0100
0010
,
1000
0100
0010
0001
0100
0001
1000
0010
,
1000
0100
0010
0100
1000
0010
0100
0001
,
1000
0100
0010
0001
1000
0010
0100
0001
,
1000
0100
1000
0001
1000
0010
0100
0001
1000
0001
0010
0100
1000
0001
0100
0010
,
0100
0001
1000
0100
1000
0010
1000
0001
0100
0001
1000
0001
0010
0100
1000
0001
,
1000
0010
0100
0010
1000
0001
1000
0100
0010
0001
1000
0100
1000
0010
1000
0001
,
0100
0001
0010
0100
1000
0001
0100
0010
0100
0001
1000
0100
0010
0001
1000
0001
,
0100
0001
0010
0100
1000
0001
0100
0001
,
1000
0100
0010
0100
1000
0010
0100
0010
,
1000
0100
0010
0001
0100
0001
1000
0010
,
0100
0010
1000
0100
0010
0001
0100
0001
,
1000
0100
1000
0010
1000
0001
0010
0100
1000
0001
0100
0001
0010
0100
1000
0010
,
1000
0001
0100
0001
0010
0001
1000
0100
0010
0001
1000
0100
1000
0010
0100
0001
,
2000
3010
0100
0001
0020
0130
1000
0010
,
0200
0301
1000
0010
2002
0000
0000
3003
,
1000
0100
1000
0010
0100
0010
1000
0001
0100
0001
1000
0001
0010
0100
1000
0001
,
0100
0010
0100
0001
0010
0001
1000
0010
0100
0010
1000
0001
0010
0100
1000
0001
,
0100
0010
0100
0001
1000
0100
1000
0010
0100
0010
1000
0001
0010
0100
1000
0001
,
0100
0000
0000
0000
0001
0010
0100
1000
0001
1000
0001
1000
0001
1000
0001
1000
,
0001
0100
0010
0100
0001
0010
0100
1000
0001
0100
0010
0100
0001
1000
0100
1000
,
0010
1000
0001
0100
0001
1000
0001
0010
0100
1000
0001
0100
0010
0100
0001
1000
,
0100
0010
0001
1000
0100
1000
0001
0100
0010
0100
0001
1000
0001
0010
0100
1000
,
0001
0000
0000
0000
0100
0001
0010
0100
1000
0001
1000
0001
1000
0001
1000
0001
,
0100
0010
0100
0001
0010
0100
1000
0001
1000
0100
1000
0010
0100
0010
1000
0001
,
0100
0001
1000
0001
0010
0100
1000
0010
0100
0001
0100
0010
1000
0001
1000
0100
,
0010
0001
1000
0100
1000
0010
0100
0010
1000
0001
0010
0100
1000
0010
0100
0001
,
1000
0000
0000
0000
0010
1000
0100
0010
0001
1000
0001
1000
0001
1000
0001
1000
,
0100
0010
0001
0100
0001
1000
0100
1000
0010
0100
0010
1000
0001
0010
0100
0010
,
0001
1000
0001
0100
0010
0100
0001
1000
0100
1000
0001
0100
0010
0100
0001
0010
,
0100
1000
0001
1000
0100
0010
0001
0100
0010
0100
0001
1000
0100
1000
0010
0100
,
0001
0000
0000
0000
0100
0001
0010
0100
1000
0001
1000
0001
1000
0001
1000
0001
,
2000
0000
3000
0000
0002
0003
1000
0100
,
0010
0100
0100
0001
0100
0100
1000
0000
,
1111
0000
0000
0000
0000
0000
0001
0000
0100
0000
0001
0000
,
1001
0000
1000
0100
0010
0001
0010
0100
,
1111
0000
0000
0000
2000
3000
0001
1000
,
0100
0100
0001
0010
0010
1000
0001
0000
,
1111
0000
0001
1000
0001
0100
0100
1000
,
1001
0001
1000
0010
,
1111
0000
0000
1000
0100
0100
0001
0000
,
1001
0000
1000
0010
0100
0000
0100
0000
,
1111
0000
0000
0001
0100
0100
1000
0001
,
0020
0000
0130
1000
0000
1000
0001
0000
,
1111
0000
0000
1000
0000
0001
0100
0000
,
0001
0000
0010
0000
0100
0000
1000
0000
0000
1001
0000
0000
,
1111
0000
0000
0000
0000
0000
0001
0000
0000
0000
0000
0000
0010
0000
0000
0000
0100
0000
0000
0000
0000
0100
0000
0000
,
1000
0000
0001
0100
0010
0000
1001
0000
,
2000
0000
0000
3100
2000
0000
0000
3100
,
2000
0000
0000
3100
2000
0000
0000
3100
,
0020
0000
0030
0011
,
0001
0100
0010
1000
0000
0000
0000
0000
0000
0000
0000
0000
0001
0010
0100
1000
0000
0000
0000
0000
0000
0000
0000
0000
0000
0000
0000
0000
0000
0000
0000
0000
,
0002
0000
0000
0013
0002
0000
0000
0013
,
0002
1000
0100
0013
0002
0000
0000
0013
,
0002
0000
0003
0100
,
0010
0000
0000
0000
1100
0011
1100
0011
2100
0000
0000
0000
0000
0000
0000
0000
,
3001
0100
0001
1000
0100
1000
0010
1000
0001
0100
0001
1000
0001
0010
0100
1000
,
0001
0100
0010
0100
0001
1000
0001
0010
0100
1000
0001
1000
0100
1000
0010
0100
,
0010
1000
0001
0100
0001
0010
0100
1000
0001
0100
0010
0100
0001
1000
0100
0010
,
0001
0000
0000
0000
0100
0001
0010
0100
1000
0001
1000
0001
0100
0001
0010
0100
,
1000
0001
1000
0001
1000
0001
1000
0001
0100
0010
1000
0100
0010
0001
1000
0010
,
1000
0001
0010
0001
0100
0010
1000
0001
1000
0100
0010
0001
1000
0010
1000
0100
,
1000
0001
0010
0001
0100
0010
0100
0001
1000
0100
0010
0001
1000
0001
0100
0001
,
1000
0000
0000
0000
0010
1000
0100
0010
0001
1000
0001
1000
0001
0100
0010
0100
,
0001
1000
0001
1000
0001
1000
0001
0100
0010
1000
0100
0010
0001
0100
0001
1000
,
0100
1000
0001
1000
0010
0100
0010
1000
0001
0010
0100
1000
0001
0100
0010
1000
,
0100
0010
0001
1000
0100
1000
0010
1000
0001
0100
0001
0010
0100
1000
0001
0100
,
0001
0000
0000
0000
1000
0001
0010
0100
1000
0001
1000
0001
1000
0010
0100
0010
,
1000
0001
1000
0001
1000
0001
1000
0001
0010
0100
1000
0001
0100
0010
1000
0001
,
1000
0010
1000
0001
0100
0010
0100
0001
1000
0010
1000
0001
0010
0100
1000
0001
,
1000
0010
0100
0010
1000
0001
1000
0100
0010
0001
1000
0010
1000
0001
0100
0010
,
1000
0000
0000
0000
0001
1000
0100
0010
0001
1000
0001
1000
0001
0100
0010
0100
,
0001
1000
0001
1000
0001
1000
0001
1000
0001
0000
0000
0000
0100
0000
0000
0000
,
0001
0000
1000
0010
0100
0000
0001
0000
,
0010
0000
0100
1000
0010
0000
0100
0000
,
0101
0000
1001
0000
0011
0000
0110
0000
0000
1100
0000
0000
,
1001
0000
0001
0100
0010
0000
0100
0000
,
0001
0000
0010
0100
1000
0000
0001
0000
,
0100
0000
0001
1000
0100
0000
0010
0000
,
0011
0000
1001
0000
1010
0000
0110
0000
0000
0101
0000
0000
,
1001
0000
1000
0100
0010
0000
0100
0000
,
1000
0000
0010
0100
0001
0000
0010
0000
,
0100
0000
1000
0010
0100
0000
0001
0000
,
1001
0000
0110
0000
1010
0000
0101
0000
0000
0011
0000
0000
,
0110
0000
0100
1000
0010
0000
0100
0000
,
0001
0000
0010
0100
1000
0000
0010
0000
,
0100
0000
0001
1000
0100
0000
0010
0000
,
0011
0000
1001
0000
1010
0000
0110
0000
0000
0101
0000
0000
,
1001
0000
1000
0100
0010
0000
0100
0000
,
1000
0000
0010
0100
0001
0000
0010
0000
,
0100
0000
1000
0010
0100
0000
0001
0000
,
1001
0000
1010
0000
0110
0000
1001
0000
0000
0101
0000
0000
,
0110
0000
0010
1000
0100
0000
0010
0000
,
0001
0000
0100
0001
1000
0000
0001
0000
,
0010
0000
0100
1000
0001
0000
0100
0000
,
0101
0000
1010
0000
0110
0000
1001
0000
0000
0110
0000
0000
,
2002
0000
0000
3003
1001
0000
1000
0000
,
1010
0000
0010
0100
0001
0000
0010
0000
,
0110
0000
0100
1000
0010
0000
0100
0000
,
0101
0000
1001
0000
1010
0000
0220
0000
0000
0000
0000
0000
,
0330
0000
0000
0000
;

//---------------dance-single - J. Nero----------------
#NOTES:
     dance-single:
     J. Nero:
     Medium:
     16:
     1.000,1.000,0.354,0.364,1.000,1707.000,72.000,74.000,0.000,11.000:
0000
0000
0000
0000
,
0000
0000
0000
0000
,
0000
0000
0000
0000
,
0000
0000
0000
0000
,
0000
0000
0000
0000
,
0000
0000
0000
0000
,
0000
0000
0000
0000
,
0000
0000
0000
0000
,
1100
0000
1000
0001
0010
0000
0100
0000
,
1100
0000
1000
0010
0100
0000
0001
0000
,
1001
0000
1000
0010
0100
0000
0001
0000
,
1000
0000
0000
0000
0001
0100
0001
0010
0100
1000
0010
1000
0001
0100
0001
1000
,
0100
0000
0010
0001
1000
0000
0100
0000
,
1100
0000
1000
0001
0100
0000
0001
0000
,
0011
0000
0010
0100
1000
0000
0001
0000
,
1000
0000
0000
0000
0001
0100
0001
0010
0100
1000
0010
0100
0001
1000
0100
0010
,
0001
0000
1000
0010
0100
0000
0001
0010
,
0100
0000
1000
0010
0100
0000
0001
0100
,
0001
0010
0100
1000
0010
0100
0001
1000
,
0001
0000
0000
0000
1000
0100
0010
0100
1000
0010
0100
0001
1000
0000
0100
0000
,
1000
0000
0010
0100
0001
0000
1000
0100
,
0010
0000
0100
1000
0010
0000
1000
0001
,
0100
0000
0001
0010
0100
0000
1000
0001
,
0200
0000
0300
0000
0200
0000
0300
0000
0200
0000
0300
0000
0200
0300
0200
0300
,
0001
1000
0001
0010
0100
1000
0010
0100
,
0001
1000
0100
1000
0010
0100
0001
1000
,
0001
0100
0001
0000
1000
0100
0010
0000
0001
0010
0100
0000
1000
0100
0010
0000
,
0001
0100
0001
1000
0100
1000
0010
0100
0001
0000
0000
0000
1000
0000
0100
0000
,
1000
0100
1000
0000
0001
0100
0001
0000
1000
0100
0010
0000
0001
0010
0100
0000
,
1000
0100
1000
0001
0010
0100
1000
0001
1000
0000
0000
0000
0001
0000
0100
0000
,
0001
0000
0010
0100
1000
0000
0001
0100
,
0010
0000
0010
0000
,
1000
0001
1000
0000
0000
0000
0000
0000
0000
0000
0000
0000
0001
0100
0001
0000
0000
0000
0000
0000
0000
0000
0000
0000
,
1000
0100
1000
0001
0100
0001
0010
0100
1000
0010
0100
0001
1000
0000
0000
0000
,
0001
0100
0001
0010
0100
1000
0001
0100
0010
0100
0001
1000
,
0100
0010
0001
1000
0001
0100
0001
0010
0100
1000
0001
1000
,
0001
0100
0001
0000
0000
0000
0000
0000
0000
0000
0000
0000
1000
0010
1000
0000
0000
0000
0000
0000
0000
0000
0000
0000
,
0001
0100
0001
1000
0100
0010
0001
0100
0010
1000
0001
0100
0002
0000
0000
0000
,
1003
0100
0010
0100
1000
0010
0100
0010
1000
0100
0010
0001
,
1000
0100
0010
0100
1000
0001
0100
0001
0010
0100
1000
0001
0100
0010
0100
0001
,
1000
0100
0010
0100
1000
0010
0100
0001
,
0010
0100
1000
0001
0100
0010
0100
0001
,
0010
0100
1000
0001
0100
0001
1000
0100
,
0010
0001
0100
0001
1000
0100
0010
0001
,
1000
0100
0010
0100
1000
0010
0100
0010
1000
0001
0010
0100
,
1000
0001
0100
0010
0100
0001
1000
0100
0010
0001
1000
0001
,
0100
0001
0010
0100
1000
0010
0100
0010
1000
0100
0010
0001
,
1000
0100
1000
0010
0100
0010
1000
0001
0010
0100
1000
0001
,
1000
0100
0010
0100
1000
0010
0100
0001
,
0010
0100
1000
0001
0100
0001
0010
0100
,
1000
0010
0100
0010
1000
0100
1000
0001
,
0010
0100
1000
0001
0100
0010
0100
0001
,
1000
0100
0010
0001
0100
0001
1000
0010
0100
0010
1000
0001
,
0010
0100
1000
0010
0100
0001
1000
0100
0010
0100
1000
0001
,
2000
3010
0100
0001
0020
0130
1000
0010
,
0200
0301
0010
0100
2002
0000
0000
3003
,
1000
0000
0001
0000
0100
0000
0001
0000
1000
0010
0100
0001
0010
0100
1000
0001
,
2000
0000
3001
0000
0100
0000
0001
0000
0100
0001
1000
0100
0010
0001
1000
0010
,
0200
0000
0301
0000
0010
0000
0100
0000
1000
0010
0100
0010
1000
0100
0010
0001
,
1000
0000
0000
0000
0001
0100
0010
1000
0100
1000
0001
0010
0100
1000
0001
1000
,
0010
0000
0100
0000
0001
0000
1000
0000
0100
1000
0001
0100
0001
1000
0100
1000
,
0002
0000
1003
0000
0100
0000
0010
0000
0001
1000
0001
0100
0010
0100
0001
1000
,
0200
0000
0310
0000
0100
0000
1000
0000
0010
0100
0001
1000
0100
0010
0001
0100
,
0001
0000
0000
0000
1000
0010
0100
0001
1000
0100
0010
0001
1000
0010
0100
0001
,
0100
0000
0001
0000
0010
0000
0100
0000
1000
0010
1000
0100
0010
0001
0100
0001
,
2000
0000
3010
0000
0100
0000
0001
0000
0010
0100
1000
0001
1000
0010
0100
0001
,
2000
0000
3010
0000
0100
0000
0001
0000
0010
0100
1000
0001
1000
0010
0100
0010
,
1000
0000
0000
0000
0001
0100
0010
0100
0001
1000
0100
0010
0001
1000
0010
1000
,
0001
0000
1000
0000
0100
0000
0010
0000
0001
0100
0001
1000
0100
0010
0001
1000
,
0002
0000
0103
0000
0010
0000
1000
0000
0001
0100
0010
0100
0001
0010
0100
1000
,
0020
0000
0130
0000
0001
0000
1000
0000
0100
1000
0001
0100
0001
1000
0100
0010
,
0001
0000
0000
0000
1000
0100
0010
0100
1000
0010
0100
0001
1000
0100
0010
0001
,
1000
0100
0010
0100
1000
0010
0100
0001
,
0010
0000
0000
0000
0000
0000
0100
0000
0000
0000
0000
0000
1000
0000
0000
0000
0000
0000
0001
0000
0000
0000
0000
0000
1000
0000
0000
0001
0000
0000
0100
0000
0010
0000
0000
0000
0000
0000
0000
0000
0000
0000
0000
0000
0000
0000
0000
0000
,
0000
1000
0001
1000
0100
0010
0001
0100
,
0001
0000
1000
0000
0100
0000
1000
0000
0001
0100
0010
0000
0000
0000
0000
0000
,
0000
0000
0000
1000
0000
0000
0000
0000
0000
0001
0000
0000
0100
0000
0000
0001
0010
0100
1000
0000
0000
0001
0000
0000
,
0100
0000
0001
0000
1000
0000
1111
0000
0000
0000
0000
0000
,
0000
0000
0001
1000
0001
0100
0001
0010
0100
1000
0010
0100
,
0001
0000
1000
0000
0100
0000
0010
0000
0100
0000
1000
0000
0001
0000
0000
0100
0000
0000
0010
0000
0000
0100
0000
0000
,
0001
1000
0001
0010
0100
1000
0010
0100
,
0001
0100
0010
1000
0100
0010
0100
1000
,
0001
0100
0001
1000
0010
0100
0001
1000
,
0002
0000
0000
0000
0000
0000
0000
0000
0000
0003
0000
1100
0022
2200
0000
0000
0000
0000
0000
0000
0000
3333
0000
0000
,
1000
0100
0010
0100
1000
0001
0100
0001
,
0010
0100
1000
0001
1000
0001
0100
0001
,
1000
0010
1000
0001
0010
0100
1000
0010
0100
0001
1000
0010
,
0200
0000
0300
0000
0200
0000
0300
0000
0200
0000
0300
0000
0200
0300
0200
0300
,
0001
1000
0001
0000
1000
0100
1000
0000
0001
0010
0100
0000
1000
0100
1000
0000
,
0001
0100
0001
0010
0100
1000
0001
0100
0010
0000
0000
0000
1000
0100
1000
0000
,
0001
0100
0001
0000
1000
0100
0010
0000
0001
1000
0001
0000
1000
0010
0100
0000
,
0001
0000
0000
1000
0000
0000
0001
0000
0000
0010
0000
0000
0100
0000
0000
1000
0000
0000
0010
0000
0000
0100
0000
0000
0001
0000
0000
0000
0000
0000
0000
0000
0000
0000
1000
0000
0100
0000
0000
0000
0000
0000
0000
0000
0000
0000
0000
0000
,
1000
0000
0000
0000
0000
0000
0010
0000
0000
0000
0000
0000
0000
0000
0000
0000
0000
0000
0000
0000
0000
0000
0000
0000
0000
0000
0000
0000
0000
0000
0000
0000
0000
0000
0000
0000
0000
0000
0000
0000
0000
0000
0000
0000
0000
0000
0000
0000
0100
0000
0000
0000
0000
0000
0001
0000
0000
0000
0000
0000
0000
0000
0000
0000
0000
0000
0000
0000
0000
0000
0000
0000
0000
0000
0000
0000
0000
0000
0000
0000
0000
0000
0000
0000
0000
0000
0000
0000
0000
0000
0000
0000
0000
0000
0000
0000
0010
0000
0000
0000
0000
0000
0000
0000
0001
0000
0000
0000
0000
0000
0000
0000
0000
0000
0000
0000
0000
0000
0000
0000
0000
0000
0000
0000
0000
0000
0000
0000
0000
0000
0000
0000
0000
0000
0000
0000
0000
0000
0000
0000
0000
0000
0000
0000
1000
0000
0000
0000
0000
0000
0000
0000
0100
0000
0000
0000
0000
0000
0000
0000
0000
0000
0000
0000
0000
0000
0000
0000
0000
0000
0000
0000
0000
0000
0000
0000
0000
0000
0000
0000
0000
0000
0000
0000
0000
0000
0000
0000
0000
0000
0000
0000
,
1000
0001
1000
0100
1000
0001
0100
0001
1000
0000
0001
0000
0100
0000
0000
0000
,
0001
0100
0010
0000
0100
0001
1000
0000
,
0200
0000
0000
0000
0000
0000
0000
0000
0300
0000
0000
0000
0000
0000
0000
0000
2000
0002
0020
0200
3000
0003
0030
0300
0000
0000
0000
0000
0000
0000
0000
0000
,
1000
0001
1000
0000
0000
0000
0000
0000
0000
0000
0000
0000
0001
1000
0001
0000
0000
0000
0000
0000
0000
0000
0000
0000
,
1000
0010
1000
0100
0010
0001
1000
0001
0100
0000
0001
0000
1000
0000
0100
0000
,
1000
0010
0100
0001
0010
0100
1000
0001
,
0100
0001
1000
0001
0010
0100
1000
0010
0100
0001
1000
0001
,
1000
0100
1000
0000
0000
0000
0000
0000
0000
0000
0000
0000
0001
0010
0100
0000
0000
0000
0000
0000
0000
0000
0000
0000
,
1000
0100
1000
0010
0100
0001
0010
0100
1000
0010
0100
0001
1000
0100
0010
0001
,
1000
0000
1000
0001
0100
0000
0010
0000
,
1000
0100
1000
0010
1000
0001
0100
0001
0010
0000
0100
0000
1000
0000
0001
0000
,
0100
0001
0010
0100
1000
0010
0100
0010
,
1000
0100
0010
0001
0100
0001
1000
0010
,
1000
0100
0010
0100
1000
0010
0100
0001
,
1000
0100
0010
0001
1000
0010
0100
0001
,
1000
0100
0010
0100
1000
0001
0100
0010
0100
0001
1000
0100
,
0010
0001
1000
0001
0010
0100
1000
0010
0100
0010
1000
0100
,
0010
0001
1000
0001
0100
0001
0010
0100
1000
0010
0100
0001
,
1000
0100
0010
0001
1000
0001
0100
0010
0100
0001
0010
0100
,
1000
0001
0010
0100
1000
0001
0100
0001
,
1000
0100
0010
0100
1000
0010
0100
0010
,
1000
0100
0010
0001
0100
0001
1000
0010
,
0100
0010
1000
0100
0010
0001
0100
0001
,
1000
0100
0010
0100
1000
0010
0100
0001
1000
0001
0010
0100
,
1000
0010
1000
0001
0100
0001
0010
0100
1000
0010
0100
0001
,
2000
3010
0100
0001
0020
0130
1000
0010
,
0200
0301
1000
0010
2002
0000
0000
3003
,
1000
0000
0100
0000
0010
0000
0001
0000
0100
0001
1000
0100
0010
0001
1000
0010
,
0200
0000
0301
0000
0010
0000
0100
0000
1000
0010
1000
0001
0100
0001
0010
0100
,
2000
0000
3001
0000
0100
0000
0010
0000
1000
0100
1000
0010
0100
0001
0010
0100
,
1000
0000
0000
0000
0001
0100
0001
1000
0100
0010
0100
1000
0001
0100
0010
1000
,
0001
0000
1000
0000
0100
0000
0010
0000
0001
0100
0010
0100
0001
1000
0100
1000
,
0020
0000
0130
0000
0001
0000
0010
0000
0100
1000
0001
0100
0010
0100
0001
1000
,
0002
0000
0103
0000
0001
0000
0010
0000
0100
1000
0001
0100
0010
1000
0100
0010
,
0001
0000
0000
0000
0100
0001
0010
0100
1000
0010
0100
0010
1000
0001
0010
0100
,
1000
0000
0001
0000
0100
0000
0001
0000
1000
0100
1000
0010
0100
0010
1000
0001
,
0200
0000
0301
0000
1000
0000
0010
0000
0100
0001
0100
0010
1000
0001
1000
0100
,
0020
0000
0031
0000
1000
0000
0001
0000
0100
0001
0010
0100
1000
0010
0100
0001
,
1000
0000
0000
0000
0010
1000
0100
0010
0001
1000
0100
1000
0001
0100
0001
1000
,
0010
0000
0100
0000
0001
0000
0010
0000
0100
1000
0001
0100
0001
0010
0100
1000
,
0020
0000
0130
0000
0001
0000
1000
0000
0001
1000
0001
0100
0010
0100
0001
0010
,
0200
0000
1300
0000
0100
0000
0010
0000
0001
0100
0001
1000
0100
1000
0010
0100
,
0001
0000
0000
0000
0100
0001
0010
0100
1000
0010
1000
0001
0010
0100
1000
0001
,
2000
0000
3000
0000
0002
0003
1000
0100
,
0010
0100
0100
0001
0100
0100
1000
0000
,
1111
0000
0000
0000
0000
0000
0001
0000
0100
0000
0001
0000
,
1001
0000
1000
0100
0010
0001
0010
0100
,
1111
0000
0000
0000
2000
3000
0001
1000
,
0100
0100
0001
0010
0010
1000
0001
0000
,
1111
0000
0001
1000
0001
0100
0100
1000
,
1001
0001
1000
0010
,
1111
0000
0000
1000
0100
0100
0001
0000
,
1001
0000
1000
0010
0100
0000
0100
0000
,
1111
0000
0000
0001
0100
0100
1000
0001
,
0020
0000
0130
1000
0000
1000
0001
0000
,
1111
0000
0000
1000
0000
0001
0100
0000
,
0001
0000
0010
0000
0100
0000
1000
0000
0000
1001
0000
0000
,
1111
0000
0000
0000
0000
0000
0001
0000
0000
0000
0000
0000
0010
0000
0000
0000
0100
0000
0000
0000
0000
0100
0000
0000
,
1000
0000
0001
0100
0010
0000
1001
0000
,
2000
0000
0000
3100
2000
0000
0000
3100
,
2000
0000
0000
3100
2000
0000
0000
3100
,
0020
0000
0030
0011
,
0001
0100
0010
1000
0000
0000
0000
0000
0000
0000
0000
0000
0001
0010
0100
1000
0000
0000
0000
0000
0000
0000
0000
0000
0000
0000
0000
0000
0000
0000
0000
0000
,
0002
0000
0000
0013
0002
0000
0000
0013
,
0002
1000
0100
0013
0002
0000
0000
0013
,
0002
0000
0003
0100
,
0010
0000
0000
0000
1100
0011
1100
0011
2100
0000
0000
0000
0000
0000
0000
0000
,
3001
0000
0100
0000
0001
0000
1000
0000
0001
0100
0001
1000
0001
0010
0100
1000
,
0002
0000
1003
0000
0010
0000
0100
0000
0001
0100
0001
1000
0100
1000
0010
0100
,
0002
0000
1003
0000
0100
0000
0010
0000
0001
0100
0010
0100
0001
1000
0100
0010
,
0001
0000
0000
0000
0100
0001
0010
0100
1000
0001
1000
0010
0100
0001
0010
0100
,
1000
0001
1000
0100
0010
0001
1000
0001
0100
0010
1000
0100
0010
0001
1000
0010
,
2000
0000
3100
0000
0010
0000
0001
0000
1000
0100
0010
0001
1000
0010
1000
0100
,
2000
0000
3010
0000
0100
0000
0001
0000
0100
0001
0010
0100
1000
0001
0100
0001
,
1000
0000
0000
0000
0001
1000
0100
0010
0100
1000
0001
1000
0010
0100
0010
1000
,
0001
1000
0100
0010
0001
1000
0001
0100
0010
1000
0100
0010
0001
0100
0001
1000
,
0020
0000
0130
0000
0001
0000
1000
0000
0001
0100
0001
1000
0100
0010
0001
1000
,
0002
0000
1003
0000
0100
0000
0010
0000
0001
0100
0001
0010
0100
1000
0001
0100
,
0001
0000
0000
0000
1000
0001
0010
0100
1000
0010
1000
0100
0010
0001
1000
0100
,
1000
0001
0100
0001
0010
0100
1000
0001
0100
0001
1000
0100
0010
0100
1000
0001
,
2000
0000
3001
0000
0010
0000
0100
0000
1000
0100
1000
0001
0100
0010
0100
0001
,
2000
0000
3010
0000
0100
0000
0010
0000
1000
0100
1000
0010
0100
0001
0010
0100
,
1000
0000
0000
0000
0001
1000
0100
0010
0001
0100
0001
1000
0010
0100
0010
1000
,
0100
0010
0001
1000
0010
0100
0010
1000
0001
0000
0000
0000
0100
0000
0000
0000
,
0001
0000
1000
0010
0100
0000
0001
0000
,
0010
0000
0100
1000
0010
0000
0100
0000
,
0101
0000
1001
0000
0011
0000
0110
0000
0000
1100
0000
0000
,
1001
0000
0001
0100
0010
0000
0100
0000
,
0001
0000
0010
0100
1000
0000
0001
0000
,
0100
0000
0001
1000
0100
0000
0010
0000
,
0011
0000
1001
0000
1010
0000
0110
0000
0000
0101
0000
0000
,
1001
0000
1000
0100
0010
0000
0100
0000
,
1000
0000
0010
0100
0001
0000
0010
0000
,
0100
0000
1000
0010
0100
0000
0001
0000
,
1001
0000
0110
0000
1010
0000
0101
0000
0000
0011
0000
0000
,
0110
0000
0100
1000
0010
0000
0100
0000
,
0001
0000
0010
0100
1000
0000
0010
0000
,
0100
0000
0001
1000
0100
0000
0010
0000
,
0011
0000
1001
0000
1010
0000
0110
0000
0000
0101
0000
0000
,
1001
0000
1000
0100
0010
0000
0100
0000
,
1000
0000
0010
0100
0001
0000
0010
0000
,
0100
0000
1000
0010
0100
0000
0001
0000
,
1001
0000
1010
0000
0110
0000
1001
0000
0000
0101
0000
0000
,
0110
0000
0010
1000
0100
0000
0010
0000
,
0001
0000
0100
0001
1000
0000
0001
0000
,
0010
0000
0100
1000
0001
0000
0100
0000
,
0101
0000
1010
0000
0110
0000
1001
0000
0000
0110
0000
0000
,
2002
0000
0000
3003
1001
0000
1000
0000
,
1010
0000
0010
0100
0001
0000
0010
0000
,
0110
0000
0100
1000
0010
0000
0100
0000
,
0101
0000
1001
0000
1010
0000
0220
0000
0000
0000
0000
0000
,
0330
0000
0000
0000
;

//---------------dance-single - J. Nero----------------
#NOTES:
     dance-single:
     J. Nero:
     Easy:
     15:
     1.000,1.000,0.315,0.359,1.000,1629.000,64.000,73.000,0.000,11.000:
0000
0000
0000
0000
,
0000
0000
0000
0000
,
0000
0000
0000
0000
,
0000
0000
0000
0000
,
0000
0000
0000
0000
,
0000
0000
0000
0000
,
0000
0000
0000
0000
,
0000
0000
0000
0000
,
1100
0000
1000
0001
0010
0000
0100
0000
,
1100
0000
1000
0010
0100
0000
0001
0000
,
1001
0000
1000
0010
0100
0000
0001
0000
,
1000
0000
0000
0000
0001
0100
0001
0010
0100
1000
0010
1000
0001
0100
0001
1000
,
0100
0000
0010
0001
1000
0000
0100
0000
,
1100
0000
1000
0001
0100
0000
0001
0000
,
0011
0000
0010
0100
1000
0000
0001
0000
,
1000
0000
0000
0000
0001
0100
0001
0010
0100
1000
0010
0100
0001
1000
0100
0010
,
0001
0000
1000
0010
0100
0000
0001
0010
,
0100
0000
1000
0010
0100
0000
0001
0100
,
0001
0010
0100
1000
0010
0100
0001
1000
,
0001
0000
0000
0000
1000
0100
0010
0001
1000
0000
0001
0000
0100
0000
0010
0000
,
0100
0000
0010
0100
0001
0000
1000
0100
,
0010
0000
0100
1000
0010
0000
1000
0001
,
0100
0000
0001
0010
0100
0000
1000
0001
,
0200
0000
0300
0000
0200
0000
0300
0000
0200
0000
0300
0000
0200
0300
0200
0300
,
0001
1000
0001
0010
0100
1000
0010
0100
,
0001
1000
0100
1000
0010
0100
0001
1000
,
0001
0100
0001
0000
1000
0100
0010
0000
0001
1000
0001
0000
1000
0010
1000
0000
,
0001
0000
0100
0000
0001
0000
1000
0000
0100
0000
0010
0000
0001
0000
0000
0000
0000
0000
1000
0000
0000
0100
0000
0000
,
0010
0100
1000
0010
0100
0010
1000
0001
,
1000
0000
0100
0000
0010
0000
0100
0000
1000
0000
0010
0000
0100
0000
0000
0000
0000
0000
0001
0000
0000
0100
0000
0000
,
0001
0000
0010
0100
1000
0000
0001
0100
,
0010
0000
0010
0000
,
1000
0001
1000
0000
0000
0000
0000
0000
0001
0100
0001
0000
0000
0000
0000
0000
,
1000
0001
1000
0010
0100
0001
1000
0100
0010
0001
1000
0001
0100
0000
0000
0000
,
0001
0000
0100
0001
0010
0000
0100
0000
,
1000
0100
0010
0100
1000
0010
0100
0001
1000
0002
0000
0000
,
1003
0100
1000
0000
0000
0000
0000
0000
0001
0100
0001
0000
0000
0000
0000
0000
,
1000
0001
0100
0001
1000
0100
0010
0001
1000
0001
0100
0010
2000
0000
0000
0000
,
3001
0000
0001
0010
0100
0000
0100
1000
,
0001
0100
0001
0010
0100
1000
0010
0100
0001
1000
0100
0010
,
0001
0010
0100
0010
0001
0100
0010
1000
,
0100
0010
0001
1000
0010
0100
0010
1000
,
0100
0010
0001
1000
0010
1000
0001
0010
,
0100
1000
0010
1000
0001
0010
0100
1000
,
0001
0010
0100
0010
0001
0100
0010
0100
0001
1000
0100
0010
,
0001
1000
0010
0100
0010
1000
0001
0010
0100
1000
0001
1000
,
0010
1000
0100
0010
0001
0100
0010
0100
0001
0010
0100
1000
,
0001
0010
0001
0100
0010
0100
0001
1000
0100
0010
0001
1000
,
0001
0010
0100
0010
0001
0100
0010
1000
,
0100
0010
0001
1000
0010
1000
0100
0010
,
0001
0100
0010
0100
0001
0010
0001
1000
,
0100
0010
0001
1000
0010
0100
0010
1000
,
0001
0010
0100
1000
0010
1000
0001
0100
0010
0100
0001
1000
,
0100
0010
0001
0100
0010
1000
0001
0010
0100
0010
0001
1000
,
0002
0103
0010
1000
0200
0310
0001
0100
,
0020
1030
0100
0010
0002
0000
0000
0003
,
1000
0000
0001
0000
0100
0000
0001
0000
1000
0010
0100
0001
1000
0100
0010
0001
,
2000
0000
3001
0000
0100
0000
0001
0000
0100
0001
1000
0100
0010
0001
1000
0010
,
0200
0000
0301
0000
0010
0000
0100
0000
1000
0010
0100
0001
1000
0001
0010
0100
,
1000
0000
0000
0001
0100
0001
0010
0100
1000
0010
0100
0001
,
1000
0000
0100
0000
0010
0000
0100
0000
1000
0001
0100
0001
1000
0100
0010
0001
,
2000
0000
3001
0000
0100
0000
0001
0000
1000
0010
1000
0001
0010
0100
1000
0001
,
0200
0000
0310
0000
1000
0000
0100
0000
1000
0001
0100
0001
1000
0100
0010
0001
,
1000
0000
0000
0001
0100
0001
0010
0100
1000
0010
0100
0001
,
1000
0000
0001
0000
0010
0000
0100
0000
1000
0001
1000
0100
0010
0001
1000
0010
,
2000
0000
3010
0000
0100
0000
0001
0000
0010
0100
1000
0001
1000
0010
0100
0001
,
2000
0000
3010
0000
0100
0000
0001
0000
0010
0100
1000
0001
1000
0010
0100
0010
,
1000
0000
0000
0001
0100
0001
0010
0100
1000
0010
0100
0001
,
1000
0000
0001
0000
0100
0000
0001
0000
0010
0100
1000
0001
0100
0001
1000
0010
,
0200
0000
0301
0000
1000
0000
0100
0000
1000
0001
0100
0010
0100
0001
1000
0100
,
0020
0000
0130
0000
1000
0000
0001
0000
0100
0001
1000
0100
0010
0001
1000
0001
,
0100
0000
0000
0001
0100
0001
0010
0100
1000
0010
0100
0001
,
1000
0100
0010
0100
1000
0010
0100
0001
,
0010
0000
0000
0000
0000
0000
0100
0000
0000
0000
0000
0000
1000
0000
0000
0000
0000
0000
0001
0000
0000
0000
0000
0000
1000
0000
0000
0001
0000
0000
0100
0000
0010
0000
0000
0000
0000
0000
0000
0000
0000
0000
0000
0000
0000
0000
0000
0000
,
0000
1000
0001
1000
0100
0010
0001
0100
,
0001
0000
1000
0000
0100
0000
1000
0000
0001
0100
0010
0000
0000
0000
0000
0000
,
0000
0000
0000
1000
0000
0000
0000
0000
0000
0001
0000
0000
0100
0000
0000
0001
1000
0010
0100
0000
0000
0001
0000
0000
,
0100
0000
0001
0000
1000
0000
1111
0000
0000
0000
0000
0000
,
0000
0000
0001
1000
0001
0100
0001
0010
0100
1000
0010
0100
,
0001
0000
1000
0000
0100
0000
0010
0000
0100
0000
1000
0000
0001
0000
0000
0100
0000
0000
0010
0000
0000
0100
0000
0000
,
0001
1000
0001
0010
0100
1000
0010
0100
,
0001
0100
0010
1000
0100
0010
0100
1000
,
0001
0100
0001
1000
0010
0100
0001
1000
,
0002
0000
0000
0000
0000
0000
0000
0000
0000
0003
0000
1100
0022
2200
0000
0000
0000
0000
0000
0000
0000
3333
0000
0000
,
1000
0100
0010
0100
1000
0001
0100
0001
,
0010
0100
1000
0001
1000
0001
0100
0001
,
1000
0010
1000
0001
0010
0100
1000
0010
0100
0001
1000
0010
,
0200
0000
0300
0000
0200
0000
0300
0000
0200
0000
0300
0000
0200
0300
0200
0300
,
0001
1000
0100
1000
0001
0100
0010
0100
,
0001
0100
0001
1000
0100
0010
0001
1000
0001
0000
0000
0000
1000
0100
1000
0000
,
0001
0100
0001
0000
1000
0100
0010
0000
0001
1000
0001
0000
1000
0010
0100
0000
,
0001
0000
0000
1000
0000
0000
0001
0000
0000
0010
0000
0000
0100
0000
0000
1000
0000
0000
0010
0000
0000
0100
0000
0000
0001
0000
0000
0000
0000
0000
0000
0000
0000
0000
1000
0000
0100
0000
0000
0000
0000
0000
0000
0000
0000
0000
0000
0000
,
1000
0000
0000
0000
0000
0000
0010
0000
0000
0000
0000
0000
0000
0000
0000
0000
0000
0000
0000
0000
0000
0000
0000
0000
0000
0000
0000
0000
0000
0000
0000
0000
0000
0000
0000
0000
0000
0000
0000
0000
0000
0000
0000
0000
0000
0000
0000
0000
0100
0000
0000
0000
0000
0000
0001
0000
0000
0000
0000
0000
0000
0000
0000
0000
0000
0000
0000
0000
0000
0000
0000
0000
0000
0000
0000
0000
0000
0000
0000
0000
0000
0000
0000
0000
0000
0000
0000
0000
0000
0000
0000
0000
0000
0000
0000
0000
0010
0000
0000
0000
0000
0000
0000
0000
0001
0000
0000
0000
0000
0000
0000
0000
0000
0000
0000
0000
0000
0000
0000
0000
0000
0000
0000
0000
0000
0000
0000
0000
0000
0000
0000
0000
0000
0000
0000
0000
0000
0000
0000
0000
0000
0000
0000
0000
1000
0000
0000
0000
0000
0000
0000
0000
0100
0000
0000
0000
0000
0000
0000
0000
0000
0000
0000
0000
0000
0000
0000
0000
0000
0000
0000
0000
0000
0000
0000
0000
0000
0000
0000
0000
0000
0000
0000
0000
0000
0000
0000
0000
0000
0000
0000
0000
,
1000
0100
0010
0001
1000
0010
0100
0001
1000
0000
0001
0000
0100
0000
0000
0000
,
0001
1000
0100
0000
0010
0100
1000
0000
,
0020
0000
0000
0000
0000
0000
0000
0000
0030
0000
0000
0000
0000
0000
0000
0000
2000
0002
0020
0200
3000
0003
0030
0300
0000
0000
0000
0000
0000
0000
0000
0000
,
1000
0001
1000
0000
0000
0000
0000
0000
0001
0100
0001
0000
0000
0000
0000
0000
,
1000
0010
1000
0100
0010
0001
1000
0001
0100
0000
0001
0000
1000
0000
0100
0000
,
1000
0010
0100
0001
0010
0100
1000
0001
,
0100
0001
1000
0001
0010
0100
1000
0010
0100
0001
1000
0001
,
1000
0100
1000
0000
0000
0000
0000
0000
0001
0100
0001
0000
0000
0000
0000
0000
,
1000
0100
1000
0001
0100
0001
1000
0100
0010
0001
1000
0010
1000
0001
0010
0100
,
1000
0000
0001
0100
0010
0000
1000
0001
,
1000
0100
1000
0010
1000
0001
0100
0001
0010
0000
0100
0000
1000
0000
0001
0000
,
0100
0001
0010
0100
1000
0010
0100
0010
,
1000
0100
0010
0001
0100
0001
1000
0010
,
1000
0100
0010
0100
1000
0010
0100
0001
,
1000
0100
0010
0001
1000
0010
0100
0001
,
1000
0100
0010
0100
1000
0001
0100
0010
0100
0001
1000
0100
,
0010
0001
1000
0001
0010
0100
1000
0010
0100
0010
1000
0100
,
0010
0001
1000
0001
0100
0001
0010
0100
1000
0010
0100
0001
,
1000
0100
0010
0001
1000
0001
0100
0010
0100
0001
0010
0100
,
1000
0001
0010
0100
1000
0001
0100
0001
,
1000
0100
0010
0100
1000
0010
0100
0010
,
1000
0100
0010
0001
0100
0001
1000
0010
,
0100
0010
1000
0100
0010
0001
0100
0001
,
1000
0100
0010
0100
1000
0010
0100
0001
1000
0001
0010
0100
,
1000
0010
1000
0001
0100
0001
0010
0100
1000
0010
0100
0001
,
2000
3010
0100
0001
0020
0130
1000
0010
,
0200
0301
1000
0010
2000
0000
0000
3000
,
0001
0000
0100
0000
0010
0000
0100
0000
0001
1000
0100
0010
0001
1000
0001
0100
,
0020
0000
1030
0000
0100
0000
0010
0000
0001
0100
0001
1000
0010
1000
0100
0010
,
0002
0000
1003
0000
0010
0000
0100
0000
0001
0100
0001
1000
0010
1000
0001
0010
,
0100
0000
0000
1000
0100
0010
0100
1000
0010
0100
0001
1000
,
0001
0000
1000
0000
0100
0000
0010
0000
0001
0100
0010
1000
0001
1000
0100
0010
,
0002
0000
0103
0000
0010
0000
1000
0000
0010
1000
0001
0100
0010
0100
0001
1000
,
0002
0000
0103
0000
0001
0000
0010
0000
0100
1000
0001
0100
0001
1000
0100
0010
,
0001
0000
0000
1000
0100
0010
0100
1000
0010
0100
0001
1000
,
0001
0000
1000
0000
0010
0000
1000
0000
0001
0100
0001
1000
0100
0010
0001
1000
,
0002
0000
0103
0000
0010
0000
1000
0000
0010
1000
0010
0100
0001
1000
0001
0010
,
0200
0000
1300
0000
0001
0000
1000
0000
0010
1000
0001
0010
0100
1000
0001
0100
,
0001
0000
0000
1000
0001
0010
0100
1000
0010
0100
0001
1000
,
0001
0000
0100
0000
0001
0000
0010
0000
0100
1000
0001
0100
0001
1000
0100
0010
,
0002
0000
0103
0000
0010
0000
1000
0000
0001
1000
0001
0100
0010
1000
0001
0010
,
0200
0000
1300
0000
0100
0000
0010
0000
0001
0100
0001
1000
0100
1000
0001
0100
,
0001
0000
0000
0000
1000
0000
0001
0000
0100
0001
1000
0001
0010
0100
1000
0001
,
2000
0000
3000
0000
0002
0003
1000
0100
,
0010
0100
0100
0001
0100
0100
1000
0000
,
1111
0000
0000
0000
0000
0000
0001
0000
0100
0000
0001
0000
,
1001
0000
1000
0100
0010
0001
0010
0100
,
1111
0000
0000
0000
2000
3000
0001
1000
,
0100
0100
0001
0010
0010
1000
0001
0000
,
1111
0000
0001
1000
0001
0100
0100
1000
,
1001
0001
1000
0010
,
1111
0000
0000
1000
0100
0100
0001
0000
,
1001
0000
1000
0010
0100
0000
0100
0000
,
1111
0000
0000
0001
0100
0100
1000
0001
,
0020
0000
0130
1000
0000
1000
0001
0000
,
1111
0000
0000
1000
0000
0001
0100
0000
,
0001
0000
0010
0000
0100
0000
1000
0000
0000
1001
0000
0000
,
1111
0000
0000
0000
0000
0000
0001
0000
0000
0000
0000
0000
0010
0000
0000
0000
0100
0000
0000
0000
0000
0100
0000
0000
,
1000
0000
0001
0100
0010
0000
0000
0000
,
2000
0000
0000
3100
2000
0000
0000
3100
,
2000
0000
0000
3100
2000
0000
0000
3100
,
0020
0000
0030
0011
,
0001
1000
0000
0000
0000
0000
0000
0000
0000
0000
0000
0000
0010
0100
0000
0000
0000
0000
0000
0000
0000
0000
0000
0000
0000
0000
0000
0000
0000
0000
0000
0000
,
0002
0000
0000
0013
0002
0000
0000
0013
,
0002
1000
0100
0013
0002
0000
0000
0013
,
0002
0000
0003
0100
,
0010
0000
0000
0000
1000
0001
0010
0100
2000
0000
0000
0000
0000
0000
0000
0000
,
3001
0000
0100
0000
0001
0000
1000
0000
0001
0100
0001
1000
0001
0010
0100
1000
,
0002
0000
1003
0000
0010
0000
0100
0000
0001
0100
0001
1000
0100
1000
0001
0100
,
0002
0000
1003
0000
0100
0000
0010
0000
0001
0100
0010
0100
0001
1000
0100
0010
,
0001
0000
0000
0100
0001
1000
0001
0010
0100
1000
0010
0100
,
0001
0000
0000
0000
1000
0000
0000
0000
0100
0000
0000
0000
0010
0000
0000
0000
0001
0000
0000
0000
1000
0000
0000
0000
0001
0000
0000
0100
0000
0000
0001
0000
0000
1000
0000
0000
0100
0000
0000
0010
0000
0000
0001
0000
0000
1000
0000
0000
,
0002
0000
0103
0000
0010
0000
1000
0000
0001
0100
0001
1000
0001
0010
0100
1000
,
0002
0000
0103
0000
0010
0000
1000
0000
0100
0010
0001
1000
0001
0100
0010
1000
,
0001
0000
0000
1000
0100
0010
0100
1000
0010
0100
0001
0010
,
0100
0000
0000
0000
1000
0000
0000
0000
0010
0000
0000
0000
0100
0000
0000
0000
0001
0000
0000
0000
1000
0000
0000
0000
0010
0000
0000
1000
0000
0000
0100
0000
0000
0010
0000
0000
0001
0000
0000
0100
0000
0000
0001
0000
0000
1000
0000
0000
,
0020
0000
0130
0000
0001
0000
1000
0000
0001
0100
0001
1000
0100
0010
0001
1000
,
0002
0000
1003
0000
0100
0000
0010
0000
0001
0100
0001
0010
0100
1000
0001
0100
,
0001
0000
0000
1000
0100
0010
0100
1000
0010
0100
0001
0010
,
0100
0000
0000
0000
1000
0000
0000
0000
0010
0000
0000
0000
0100
0000
0000
0000
0001
0000
0000
0000
1000
0000
0000
0000
0001
0000
0000
0100
0000
0000
0001
0000
0000
1000
0000
0000
0100
0000
0000
0010
0000
0000
0001
0000
0000
0100
0000
0000
,
0002
0000
1003
0000
0100
0000
0010
0000
0100
1000
0001
0100
0001
1000
0010
0100
,
0020
0000
1030
0000
0100
0000
0010
0000
0001
0100
0001
1000
0100
0010
0001
1000
,
0001
0000
0000
1000
0100
0010
0100
1000
0010
0100
0001
1000
,
0001
0010
0001
1000
0010
0100
0010
1000
0001
0000
0000
0000
0100
0000
0000
0000
,
0001
0000
1000
0010
0100
0000
0001
0000
,
0010
0000
0100
1000
0010
0000
0100
0000
,
0101
0000
1001
0000
0011
0000
0110
0000
0000
1100
0000
0000
,
1001
0000
0001
0100
0010
0000
0100
0000
,
0001
0000
0010
0100
1000
0000
0001
0000
,
0100
0000
0001
1000
0100
0000
0010
0000
,
0011
0000
1001
0000
1010
0000
0110
0000
0000
0101
0000
0000
,
1001
0000
1000
0100
0010
0000
0100
0000
,
1000
0000
0010
0100
0001
0000
0010
0000
,
0100
0000
1000
0010
0100
0000
0001
0000
,
1001
0000
0110
0000
1010
0000
0101
0000
0000
0011
0000
0000
,
0110
0000
0100
1000
0010
0000
0100
0000
,
0001
0000
0010
0100
1000
0000
0010
0000
,
0100
0000
0001
1000
0100
0000
0010
0000
,
0011
0000
1001
0000
1010
0000
0110
0000
0000
0101
0000
0000
,
1001
0000
1000
0100
0010
0000
0100
0000
,
1000
0000
0010
0100
0001
0000
0010
0000
,
0100
0000
1000
0010
0100
0000
0001
0000
,
1001
0000
1010
0000
0110
0000
1001
0000
0000
0101
0000
0000
,
0110
0000
0010
1000
0100
0000
0010
0000
,
0001
0000
0100
0001
1000
0000
0001
0000
,
0010
0000
0100
1000
0001
0000
0100
0000
,
0101
0000
1010
0000
0110
0000
1001
0000
0000
0110
0000
0000
,
2002
3003
1001
1000
,
1010
0000
0010
0100
0001
0000
0010
0000
,
0110
0000
0100
1000
0010
0000
0100
0000
,
0101
0000
1001
0000
1010
0000
0220
0000
0000
0000
0000
0000
,
0330
0000
0000
0000
;
