#TITLE:Don't Don't Go Away (Ricardo Autobahn Remix);
#SUBTITLE:;
#ARTIST:Foxxie;
#TITLETRANSLIT:;
#SUBTITLETRANSLIT:;
#ARTISTTRANSLIT:;
#CREDIT:;
#BANNER:don'tgoaway.png;
#BACKGROUND:don'tgoaway-bg.png;
#LYRICSPATH:;
#CDTITLE:cdtitle.png;
#MUSIC:Don't Don't Go Away (Ricardo Autobahn Remix).ogg;
#OFFSET:-0.009;
#SAMPLESTART:66.207;
#SAMPLELENGTH:12.000;
#SELECTABLE:YES;
#BPMS:0.000=145.000;
#STOPS:;
#BGCHANGES:;
// cache tags:
#FIRSTBEAT:0.000;
#LASTBEAT:260.000;
#SONGFILENAME:Songs/Rodd's Rad Christmas Pack/Don't Don't Go Away (Ricardo Autobahn Remix) (Rodd Steps)/Don't Don't Go Away (Ricardo Autobahn Remix).sm;
#HASMUSIC:1;
#HASBANNER:1;
#MUSICLENGTH:105.000;
// end cache tags

//---------------dance-single - R. Farias----------------
#NOTES:
     dance-single:
     R. Farias:
     Challenge:
     9:
     0.834,0.929,0.095,1.000,0.390,486.000,10.000,117.000,32.000,0.000:

0002
0003
0200
0300
0020
0030
0200
0300
0002
0003
0200
0300
0020
0030
2000
3000
,
000M
M000
00M0
0M00
,
0002
0003
2000
3000
0200
0300
2000
3000
0002
0003
2000
3000
0200
0300
0020
0030
,
000M
M000
00M0
M000
,
0002
0003
0200
0300
0002
0003
2000
3000
0200
0300
2000
3000
0020
0030
0200
0300
,
000M
M000
0M00
00M0
,
0002
0003
2000
3000
0020
0030
2000
3000
0002
0003
0020
0030
0002
0003
2000
3000
,
0001
0000
0100
0000
0010
1000
0000
0002
0000
0000
1003
0000
1000
0000
0100
0000
,
0110
0000
0010
0001
0100
0000
0010
1000
0001
0000
1000
0100
0010
0000
0001
0100
,
0010
0000
0100
0001
1000
0000
0100
0010
0001
0000
0010
0100
1000
0000
0001
0100
,
0010
0000
0100
0001
1000
0000
0001
1000
0100
0000
0010
0001
0100
0000
0010
0000
,
1000
0200
M0M1
0300
100M
0200
00M1
0300
,
M100
0000
0010
0001
0100
0000
0010
1000
0100
0000
0010
0001
0100
0000
0010
1000
,
0001
0000
1000
0100
0010
0000
0001
0100
0010
0000
1000
0100
0010
0000
0100
1000
,
0001
0000
0100
0010
1000
0000
0100
0010
0001
0000
0100
0010
1000
0000
0001
1000
,
0100
0000
0000
0010
0001
0000
0000
0100
0010
0000
0000
1000
0001
0000
0100
0000
,
1010
0000
1000
0000
0100
0000
0010
0002
0000
0000
0103
0000
0010
0000
1000
0000
,
0100
0000
1000
0000
0001
0000
1000
0200
0000
0000
0310
0000
0001
0000
0100
0000
,
0010
0000
0100
0000
0001
0000
0001
2000
0000
0000
3100
0000
0010
0000
0100
0000
,
1000
0000
0001
0000
0100
0000
0100
0020
0000
0000
1000
0000
1030
0000
0000
0000
,
0001
0000
0000
0000
0100
0000
0010
2000
0000
0000
3001
0000
1000
0000
0100
0000
,
0010
0000
0000
0000
0001
0000
0100
0020
0000
0000
0130
0000
0001
0000
1000
0000
,
0100
0010
0001
0010
0100
1000
0001
0100
,
0010
0100
0001
1000
0100
1000
0010
0100
,
0001
0000
1000
0100
0010
0000
0001
0000
0100
0000
0010
1000
0001
0000
1000
0000
,
0100
0000
0010
0001
1000
0000
0001
0000
0100
0000
0010
0000
1000
0000
0002
0000
,
0000
1003
0100
0010
0001
0200
0000
0320
,
0000
0000
1000
0000
2030
0000
0000
0000
3001
0000
1000
0000
0100
0000
0010
0001
,
1000
0000
0001
0000
0100
0000
0010
1000
0100
0000
0010
0000
0001
0000
1000
0001
,
1000
0000
0001
0000
0100
0000
0010
1000
0001
0000
1000
0000
0100
0000
0020
0000
,
0000
0031
0100
0010
0100
0002
0000
2003
,
0000
0000
0100
0000
3100
0010
0000
0001
0100
0010
1000
0001
1000
0000
0002
0000
,
0000
1003
0100
1000
0010
0010
0100
0001
,
1000
0100
0010
0002
0000
0103
0010
2000
,
0000
3001
2000
0000
3100
0010
0001
0200
,
0000
0310
1000
0002
0000
1003
0100
0020
,
0000
0031
0100
0010
1000
0001
1000
0100
,
1000
0010
0100
0002
0000
1003
0001
1000
,
0001
0100
0002
0000
1003
0100
0010
0002
,
0000
0103
0010
1000
0002
0000
0010
0000
,
1003
0000
0000
0000
1010
0000
0000
0000
1000
0000
0100
0020
0000
0030
0001
0000
,
0100
0000
0010
1000
0001
0000
1000
0200
0000
0000
0010
0000
0310
0000
0000
0000
,
0001
0000
0100
0000
0010
0000
0100
0002
0000
0000
1003
0000
0100
0000
1000
0000
,
0001
0000
0200
0000
0000
0000
0310
0000
0000
0000
0010
1000
0001
0000
1000
0000
,
0100
0000
0000
0000
0110
0000
0000
0000
0010
0000
0001
2000
0000
3000
0000
0000
,
0001
0000
0100
0000
0010
0000
1000
0002
0000
0000
0100
0000
0103
0000
0000
0000
,
0010
1000
0010
0100
0001
1000
0100
0001
,
0100
0000
0020
0000
0000
0000
0031
0000
0000
0000
0001
0100
0010
0000
0100
0010
,
1000
0000
0000
0000
1001
0000
0000
0000
1000
0000
0100
0020
0000
0030
0001
0000
,
0100
0000
0001
0100
0010
0000
0010
2000
0000
0000
0001
0000
3001
0000
0000
0000
,
1000
0000
0100
0000
0010
0000
0001
0200
0000
0300
0010
0000
1000
0000
0001
0000
,
1000
0000
0200
0000
0000
0000
0310
0000
0000
0000
0001
0100
0010
0000
0100
0001
,
1000
0000
0000
0000
1100
0000
0000
0000
0100
0000
0010
0002
0000
0003
0100
0000
,
0010
0000
0001
0000
0010
0000
1000
0002
0000
0000
1000
0000
1003
0000
0000
0000
,
0001
0100
0010
1000
0010
0001
0010
1000
,
0100
0000
0020
0000
0000
0000
0031
0000
0000
0000
0100
0010
1000
0000
0001
1000
,
0002
0000
0003
0000
2000
0000
3000
0000
020M
0000
0320
0032
M000
0003
0200
0000
,
0320
0000
0230
0302
2003
3000
2000
3200
000M
0000
0020
0030
0320
0000
0030
0000
,
0011
0000
0001
0000
0100
0000
0010
1000
0001
0000
10M0
0000
0100
0000
200M
3020
,
0230
0300
0200
M000
0302
0000
2003
30M2
0000
0003
0000
0000
M1M1
0000
0000
0000
,
2010
0000
3000
0000
0020
0M00
0030
0000
0200
0000
0302
2003
0000
30M0
0200
0000
,
0320
0000
M032
0203
0320
0030
002M
2030
0000
0000
0M02
0003
3002
0000
0003
00M0
,
1000
0000
0100
0010
0001
0000
0100
0000
0010
0000
1000
0001
1000
0000
0200
0320
,
0032
0003
0002
0000
0203
0000
0320
2030
0000
0000
3001
0100
0010
0000
0010
0000
,
0220
0000
0000
0000
,
0330
0000
0000
0000
;
