#TITLE:Amen Iraq;
#SUBTITLE:;
#ARTIST:The Flashbulb;
#TITLETRANSLIT:;
#SUBTITLETRANSLIT:;
#ARTISTTRANSLIT:;
#CREDIT:;
#BANNER:BN.PnG;
#BACKGROUND:BG.JPG;
#LYRICSPATH:;
#CDTITLE:moonlightx.png;
#MUSIC:5 Amen Iraq .MP3;
#OFFSET:-0.035;
#SAMPLESTART:81.666;
#SAMPLELENGTH:15.300;
#SELECTABLE:YES;
#BPMS:0.000=101.200,22.000=203.020,336.000=220.000,396.000=109.960;
#STOPS:;
#BGCHANGES:;
// cache tags:
#FIRSTBEAT:8.000;
#LASTBEAT:461.250;
#SONGFILENAME:Songs/toune 3/Amen Iraqq/amen iraq.sm;
#HASMUSIC:1;
#HASBANNER:1;
#MUSICLENGTH:161.648;
// end cache tags

//---------------dance-single - ----------------
#NOTES:
     dance-single:
     :
     Hard:
     13:
     1.000,1.000,1.000,1.000,1.000,1144.000,434.000,193.000,0.000,49.000:
0000
0000
0000
0000
,
0000
0000
0000
0000
,
1001
0000
0000
0010
0000
0100
0100
0100
1010
0000
0000
0001
0000
0010
0010
0010
,
1100
0000
0000
0100
0000
0001
0001
0001
0101
0000
0000
0000
0000
0000
0000
0000
,
1001
0000
0000
0010
0000
0100
0100
0100
0011
0000
0000
0010
0000
1000
1000
1000
,
0101
0000
0000
0010
0000
0100
0100
0100
2200
0000
3300
0000
2200
0000
3300
0000
,
2200
0000
3300
0000
1001
0010
1001
0000
0010
0000
0010
0000
1001
0000
0010
1000
,
0010
1000
0101
0010
0000
0100
0010
0010
1001
0000
0001
1000
0001
1000
0011
0000
,
0011
0000
0000
0000
0000
0000
0100
0000
0000
0010
0000
0000
0100
0000
0000
0010
0000
0000
0100
0000
0010
0000
0100
0000
0010
0000
0000
0000
0000
0000
0010
0000
0000
0000
0000
0000
0110
0000
0000
0000
0000
0000
0001
0000
0000
0010
0000
0000
,
2200
0000
0000
0000
0000
0000
3310
0000
0000
0001
0000
0000
2200
0000
0000
0000
0000
0000
3310
0000
0000
0001
0000
0000
2200
0000
0000
0000
0000
0000
3310
0000
0000
0001
0000
0000
1000
0000
0010
0000
1000
0000
0010
0000
1000
0000
0000
0000
,
0011
0000
0000
0000
0000
0000
0010
0000
0000
0000
0000
0000
0011
0000
0000
0000
0000
0000
1000
0000
0000
0001
0000
0000
1000
0000
0000
0001
0000
0000
1000
0000
0000
0001
0000
0000
0010
0000
0100
0000
0010
0000
0100
0000
0010
0000
0100
0000
,
1001
0000
1001
0000
0010
0100
0011
0000
0100
1000
0011
0000
1000
1000
0011
0011
,
0100
0011
0100
0100
0011
0000
1010
0000
0202
0000
0313
1000
0202
0000
0313
1000
,
0202
0000
0000
0000
0000
0000
0313
0000
0000
0100
0000
0000
1001
0000
0000
0000
0000
0000
0001
0000
0000
0000
0000
0000
0110
0000
0000
0000
0000
0000
0001
0000
0000
0010
0000
0000
1000
0000
0100
0000
0010
0000
1000
0000
0000
0001
0000
0000
,
0010
0000
0010
0001
0110
0000
0001
0010
1100
0000
0010
0001
1100
0010
0101
0000
,
0101
0000
0000
0000
0000
0000
0001
0000
0000
0010
0000
0000
0100
0000
0000
1000
0000
0000
0010
0000
0000
0001
0000
0000
0010
0000
0000
0100
0000
0000
0010
0000
0000
0100
0000
0000
1001
0000
0000
0000
0000
0000
1000
0000
0100
0000
0010
0001
,
2200
0000
3300
0000
2200
0000
3300
0000
2200
0000
3300
0000
0022
0033
0000
0000
,
1001
0000
0010
0010
0101
0000
0011
0100
0011
1000
0100
1000
0011
0100
0011
0100
,
1001
0000
0010
0000
1001
0000
0010
0100
1001
0000
0010
0000
0010
0000
0100
0000
,
0101
0000
0000
1000
0000
0000
0101
0000
0000
1000
0000
0000
0101
0000
0000
0000
0000
0000
0010
0000
0000
0000
0100
0000
2002
0000
0000
0000
0000
0000
3003
0000
0000
0000
0000
0000
2002
0000
0000
0000
0000
0000
3003
0000
0000
0000
0000
0000
,
2002
0000
3003
0000
0101
0000
0000
0000
1100
0000
0010
0000
1100
0000
0001
0010
,
0001
0010
1100
0000
0010
0001
0010
0001
1100
0020
1130
0000
0101
0000
0010
0010
,
0101
0000
1010
0000
0100
0001
1100
0000
1100
0000
1100
0000
1001
0000
0010
0100
,
2002
0000
0000
0000
3023
0030
0000
0000
2002
0000
0000
0000
3023
0030
0000
0000
2002
0000
0000
0000
3013
0000
0000
0000
0010
0000
0000
0000
0100
0000
0000
0000
,
0011
0000
1000
0000
0011
0000
0100
0010
0100
0010
0100
0000
1000
0001
1000
0001
,
0110
0000
0000
0000
0000
0000
1001
0000
0000
0000
0000
0000
0110
0000
0000
0000
0000
0000
0001
0000
0000
1000
0000
0000
0110
0000
0000
0000
0000
0000
0001
0000
0010
0000
0100
0000
0001
0000
0000
0010
0000
0000
1000
0000
0000
0100
0000
0000
,
0011
0000
0000
0000
0000
0000
1100
0000
0000
0000
0000
0000
0011
0000
1000
0000
0100
0000
0010
0000
0000
0100
0000
0000
2002
0000
0000
0000
0000
0000
3003
0000
0000
0000
0000
0000
2002
0000
0000
0000
0000
0000
3003
0000
0000
0000
0000
0000
,
2002
0000
0000
0000
0000
0000
3003
0000
0000
0000
0000
0000
0110
0000
0000
0000
0000
0000
0001
0000
0010
0000
0100
0000
1001
0000
0000
0000
0000
0000
0110
0000
0000
0000
0000
0000
1001
0000
0000
0000
0000
0000
0010
0000
0000
0001
0000
0000
,
0100
0000
0010
0000
0101
0000
0000
0000
1000
0000
0010
0000
0101
0000
0000
0000
0001
0000
0010
0000
1000
0100
0010
0001
0100
0000
0000
0000
0010
0000
0010
0000
,
0100
0000
0000
0010
0000
0000
1100
0000
0000
0000
0000
0000
0020
0000
0000
0230
0000
0000
0320
0000
0000
0230
0000
0000
0310
0000
0000
0000
0000
0000
0100
0000
0000
0000
0000
0000
0010
0000
0000
0000
0000
0000
1000
0000
0100
0000
0010
0000
,
2002
0000
3103
0000
2002
0000
3103
0000
2002
0010
3103
0000
0020
0000
0000
0030
,
1100
0000
0011
0000
1100
0000
0010
0001
1100
0000
0010
0001
0010
0001
1100
0000
,
0110
0000
0110
0000
1001
0000
0010
0100
1001
0000
0010
0100
0010
0100
1001
0000
,
0202
0303
0000
0000
0000
0000
0000
0000
2002
0000
3003
0000
2002
0000
3003
0000
,
2002
0000
3003
0000
0110
0000
0001
0000
0110
0000
1000
0000
0011
0000
0010
0001
,
0010
0001
1010
0000
0010
0001
0010
0001
2200
0000
3310
0000
0101
0000
0010
0100
,
0010
0100
0011
0000
1100
0011
1100
0000
1001
0000
0100
0000
1001
0000
0010
0100
,
0011
0000
0000
0000
0000
0000
0000
0000
0000
0000
0000
0000
0000
0000
0000
0000
0000
0000
0000
0000
0000
0000
0000
0000
0010
0000
0000
0000
0000
0000
0000
0000
1000
0000
0000
0000
0000
0000
0000
0000
0010
0000
0000
0000
0000
0000
0000
0000
1001
0000
0000
0000
0000
0000
0000
0000
0000
0000
0000
0000
0000
0000
0000
0000
0000
0000
0000
0000
0000
0000
0000
0000
1000
0000
0000
0000
0000
0000
0100
0000
0000
0000
0000
0000
0010
0000
0000
0000
0000
0000
0001
0000
0000
0000
0000
0000
2020
0000
0000
0000
0000
0000
0000
0000
0000
0000
0000
0000
0000
0000
0000
0000
0000
0000
0000
0000
0000
0000
0000
0000
3030
0000
0000
0000
0000
0000
0000
0000
0000
0000
0000
0000
0000
0000
0000
0000
0000
0000
0000
0000
0000
0000
0000
0000
2020
0000
0000
0000
0000
0000
0000
0000
0000
0000
0000
0000
0000
0000
0000
0000
0000
0000
0000
0000
0000
0000
0000
0000
3030
0000
0000
0000
0000
0000
0000
0000
0000
0000
0000
0000
0000
0000
0000
0000
0000
0000
0000
0000
0000
0000
0000
0000
,
2020
0000
3030
0000
0101
0000
0110
0000
0022
0000
0133
0000
1100
0000
0010
0100
,
0010
0000
0000
0100
0000
0000
1000
0000
0000
0100
0000
0000
0010
0000
0001
0000
0010
0000
0100
0000
1000
0000
0100
0000
0010
0000
0000
0000
0000
0000
0001
0000
0000
0100
0000
0000
1010
0000
0000
0000
0000
0000
0001
0000
0000
0010
0000
0000
,
1100
0001
1100
0001
0220
2330
3220
0330
2002
0000
3013
0000
0110
0000
1000
0100
,
1000
0100
0011
0000
1001
0000
0000
0000
2002
0000
3013
0000
2002
0000
3103
0000
,
2002
0000
0000
0000
0000
0000
3013
0000
0000
0100
0000
0000
1000
0000
0001
0000
1000
0000
0001
0000
1000
0000
0001
0000
1000
0000
0000
0000
0000
0000
0100
0000
0000
0000
0000
0000
1010
0000
0000
0000
0000
0000
0001
0000
0000
0100
0000
0000
,
0001
0100
1001
0000
0100
0001
0100
0001
1010
0000
1010
0000
0101
0000
0010
1000
,
0101
0000
0010
0000
0010
0010
0101
0000
0001
0000
0000
0000
1000
0000
0000
0000
,
0022
0000
0000
0000
0000
0000
1033
0000
0000
0000
0000
0000
0001
0000
0010
0000
0100
0000
1000
0000
0000
0010
0000
0000
2002
0000
0000
0000
0000
0000
3013
0000
0000
0000
0000
0000
2002
0000
0000
0000
0000
0000
3103
0000
0000
0000
0000
0000
,
2002
0000
3013
0000
1000
0000
0100
0000
0011
0000
0100
0000
1010
0000
0001
0100
,
0001
0000
0000
0100
0000
0000
0010
0000
0001
0000
0010
0000
0100
0000
0000
1000
0000
0000
0100
0000
0000
1000
0000
0000
0101
0000
0000
0000
0000
0000
0101
0000
0000
0000
0000
0000
1001
0000
0000
0000
0000
0000
0010
0000
0000
1000
0000
0000
,
0010
1000
0010
1000
0100
0000
0200
0000
0311
1000
0011
1100
0011
0000
0001
0110
,
0001
0000
0110
0000
0001
0000
0000
0000
0110
0000
0000
0000
0000
0000
0000
0000
2002
0000
0000
0000
3003
0000
0000
0000
1000
0100
0010
0001
1000
0100
0000
0000
,
0220
0000
0000
0000
0000
0000
0000
0000
0330
0000
0000
0000
0020
0000
0000
0000
0000
0000
0000
0000
0000
0000
0030
0000
1001
0000
0000
0000
0000
0000
0100
0000
0000
0000
0000
0000
1001
0000
0000
0000
0000
0000
0010
0000
0000
1000
0000
0000
,
0010
1000
0011
0000
1000
0100
0011
1100
0022
0033
1010
0000
1010
0000
0100
1000
,
0001
0000
0000
0010
0000
0000
1000
0000
0100
0000
0010
0000
0001
0000
0000
1000
0000
0000
0100
0000
0000
0010
0000
0000
0101
0000
0000
0010
0000
0000
1001
0000
0000
0010
0000
0000
0001
0000
0010
0000
0100
0000
1000
0000
0100
0000
0010
0000
,
2002
3013
2002
3013
2002
3103
2002
3013
,
2002
0000
3013
0000
0110
0000
0001
1000
0001
1000
0110
0000
0202
0000
0000
0303
,
2002
0000
0000
3003
0000
0000
0000
0000
0000
0000
0000
0000
0000
0000
0000
0000
0000
0000
0010
0000
0000
0100
0000
0000
1001
0000
0000
0000
0000
0000
0101
0000
0000
0000
0000
0000
0010
0000
1000
0000
0010
0000
1000
0000
0010
0000
1000
0000
,
0022
0000
0000
0000
0000
0000
0000
0000
0000
0000
0000
0000
0233
0000
0000
0000
0000
0000
0000
0000
0000
0000
0000
0000
0300
0000
0000
0000
0000
0000
0000
0000
0000
0000
0000
0000
0000
0000
0000
0000
0000
0000
0000
0000
0000
0000
0000
0000
0001
0000
0000
0000
0000
0000
0000
0000
0000
0000
0000
0000
0010
0000
0000
0000
0000
0000
0000
0000
0000
0000
0000
0000
1000
0000
0000
0000
0000
0000
0000
0000
0100
0000
0000
0000
0000
0000
0000
0000
0010
0000
0000
0000
0000
0000
0000
0000
2002
0000
0000
0000
0000
0000
0000
0000
0000
0000
0000
0000
0000
0000
0000
0000
0000
0000
0000
0000
0000
0110
0000
0000
3003
0000
0000
0000
0000
0000
0000
0000
0000
0000
0000
0000
0000
0000
0000
0000
0000
0000
0000
0000
0000
0000
0000
0000
2002
0000
0000
0000
0000
0000
0000
0000
0000
0000
0000
0000
0000
0000
0000
0000
0000
0000
0000
0000
0000
0110
0000
0000
3003
0000
0000
0000
0000
0000
0000
0000
0000
0000
0000
0000
0000
0000
0000
0000
0000
0000
0000
0000
0000
0000
0000
0000
,
2002
0000
0000
0000
0000
0000
0000
0110
3003
0000
0000
0000
0000
0000
0000
0000
1001
0000
0000
0000
0000
0000
0000
0000
0101
0000
0000
0000
0000
0000
0000
0000
1001
0000
0000
0000
0000
0000
0000
0000
0010
0000
0000
0000
0100
0000
0000
0000
1001
0000
0000
0000
0000
0000
0000
0000
0100
0000
0000
0000
0000
0000
0000
0000
,
0000
0000
0000
0000
0000
0000
0000
0000
0000
0100
0000
0000
1001
0000
0000
0000
0110
0000
0000
0000
0000
1000
0000
0000
0101
0000
0000
0000
0000
0000
0100
0000
0000
0000
0000
0000
2002
0000
0000
0000
0000
0000
0000
0000
0000
3103
0000
0000
,
0010
0000
0000
0100
0000
0000
1001
0000
0000
0000
0000
0000
0001
0000
0000
1000
0000
0000
0001
0000
0000
1000
0000
0000
0101
0000
0000
0000
0010
0000
0000
0000
0000
0001
0000
0000
0010
0000
0000
0000
0100
0000
0000
0000
0010
0000
0000
0000
,
0202
0303
0010
0100
0022
0033
0010
0100
0022
0033
0010
0100
1001
0000
0000
0000
,
1001
0000
0110
0000
1001
0000
0100
1000
0110
0000
0110
0000
0001
0010
1100
0000
,
0011
0000
0010
0000
1100
0000
0010
0100
0011
0000
0010
0100
0010
0100
0011
0000
,
2002
0000
3003
0000
2002
3003
2002
3003
,
2002
0000
3003
0000
0110
0000
0001
0000
0110
0000
1000
0000
0011
0000
1000
0011
,
1000
0100
0011
0000
0100
0010
0100
0010
1001
0000
0010
0000
1001
0000
0010
0100
,
0010
0000
0000
0100
0000
0000
1001
0000
0000
0000
0000
0000
0001
0000
0000
0001
0000
0000
0100
0000
0000
0100
0000
0000
1001
0000
0000
0000
0000
0000
0010
0000
0100
0000
0010
0000
0100
0000
0000
0010
0000
0000
0100
0000
0000
0010
0000
0000
,
0001
0000
0000
0000
0000
0000
0100
0000
0000
0000
0000
0000
0010
0000
0000
0000
0000
0000
0000
0000
0000
0000
0000
0000
0001
0000
0000
0000
0000
0000
0000
0000
0000
0000
0000
0000
0010
0000
0000
0000
0000
0000
0000
0000
0000
0000
0000
0000
0100
0000
0000
0000
0000
0000
0000
0000
0010
0000
0000
0000
0000
0000
0000
0000
0100
0000
0000
0000
0000
0000
0000
0000
2000
0000
0000
0000
0000
0000
0000
0000
0000
0000
0000
0000
0000
0000
0000
0000
0000
0000
0000
0000
0000
0000
0000
0000
3022
0000
0000
0000
0000
0000
0000
0000
0000
0000
0000
0000
0000
0000
0000
0000
0000
0000
0000
0000
0000
0000
0000
0000
0033
0000
0000
0000
0000
0000
0000
0000
0000
0000
0000
0000
0000
0000
0000
0000
0000
0000
0000
0000
0000
0000
0000
0000
2200
0000
0000
0000
0000
0000
0000
0000
0000
0000
0000
0000
0000
0000
0000
0000
0000
0000
0000
0000
0000
0000
0000
0000
3300
0000
0000
0000
0000
0000
0000
0000
0000
0000
0000
0000
0000
0000
0000
0000
0000
0000
0000
0000
0000
0000
0000
0000
,
0022
0000
0000
0000
0000
0000
0000
0000
0033
0000
0000
0000
0000
0000
0000
0000
2200
0000
0000
0000
0000
0000
0000
3300
0010
0000
0000
0000
0000
0000
0000
0000
0101
0000
0000
0000
0000
0000
0000
0000
0010
0000
0000
0000
0000
0000
0000
0000
0101
0000
0000
0000
0000
0000
0000
0000
0010
0000
0000
0000
1000
0000
0000
0000
,
0010
0000
0000
1000
0000
0000
0010
0000
0000
1000
0000
0000
0100
0000
0001
0000
0100
0000
0010
0000
1000
0000
0010
0000
0100
0000
0000
0000
0000
0000
0011
0000
0000
0000
0000
0000
1100
0000
0000
0000
0000
0000
0110
0000
0000
0000
0000
0000
,
0001
0000
0000
0010
0000
0000
0100
0000
1000
0000
0100
0000
0022
0000
0033
0000
0000
0000
1100
0000
0000
0000
0000
0000
0011
0000
0000
0000
0000
0000
0100
0000
0000
0000
0000
0000
0011
0000
0000
0000
0000
0000
0100
0000
0000
1000
0000
0000
,
0100
0000
0000
1000
0000
0000
0100
0000
1000
0000
0100
0000
1001
0000
0000
0000
0000
0000
0000
0000
0000
0000
0000
0000
2002
0000
0000
0000
0000
0000
3113
0000
0000
0000
0000
0000
2002
0000
0000
0000
0000
0000
3113
0000
0000
0000
0000
0000
,
2002
0000
0000
0000
3113
0000
1000
0000
0010
0100
0001
1000
0010
0100
0001
0000
1100
0000
0000
0000
0100
0000
0000
0000
1001
0000
0000
0000
0010
0000
0100
0000
,
0010
0000
0000
0100
0000
0000
1001
0000
0000
0000
0000
0000
0010
0000
0000
0100
0000
0000
1001
0000
0000
0000
0000
0000
0110
0000
0000
0000
0000
0000
0010
0000
0000
0000
0000
0000
1001
0000
0000
0000
0000
0000
0010
0000
0100
0000
0010
0000
,
0100
0000
0202
0000
0313
1000
0010
1000
0101
0000
0000
0101
0000
0000
1010
0000
,
0101
0000
0000
0000
0000
0000
0000
0000
0000
0000
0000
0000
0010
0000
0000
0000
0000
0000
0000
0000
0000
0000
0000
0000
0001
0000
0000
0000
0000
0000
0000
0000
0000
0000
0000
0000
0010
0000
0000
0000
0000
0000
0000
0000
0000
0000
0000
0000
1000
0000
0000
0000
0000
0000
0000
0000
0100
0000
0000
0000
0000
0000
0000
0000
0010
0000
0000
0000
0000
0000
0000
0000
0001
0000
0000
0000
0000
0000
0010
0000
0000
0000
0000
0000
0100
0000
0000
0000
0000
0000
1000
0000
0000
0000
0000
0000
0011
0000
0000
0000
0000
0000
0000
0000
0000
0000
0000
0000
0000
0000
0000
0000
0000
0000
0000
0000
0000
0000
0000
0000
0011
0000
0000
0000
0000
0000
0000
0000
0000
0000
0000
0000
1100
0000
0000
0000
0000
0000
0000
0000
0000
0000
0000
0000
0011
0000
0000
0000
0000
0000
0000
0000
0000
0000
0000
0000
0000
0000
0000
0000
0000
0000
0000
0000
0000
0000
0000
0000
0011
0000
0000
0000
0000
0000
0000
0000
0000
0000
0000
0000
0000
0000
0000
0000
0000
0000
0000
0000
0000
0000
0000
0000
,
0011
0000
0011
0000
1100
0000
0010
0000
1001
0000
0010
0000
1001
0000
0010
0100
,
0010
0000
0100
0000
0010
0100
0010
0000
0001
0000
1000
0000
0001
0000
1000
0000
0110
0000
0000
0000
0110
0000
0000
0000
1001
0000
0000
0000
0001
0000
1000
0000
,
0001
0000
0000
1000
0000
0000
0001
0000
0000
1000
0000
0000
0011
0000
0000
0000
0000
0000
1000
0000
0100
0000
0010
0000
0001
0000
0000
0000
0000
0000
0001
0000
0000
0000
0000
0000
1010
0000
0000
0000
0000
0000
0100
0000
0000
0011
0000
0000
,
0100
0000
0011
0000
0100
0000
0000
0000
2002
3003
0000
0000
0000
0000
0000
0000
0000
0000
0000
0000
0000
0000
0000
0000
0000
0000
0000
0000
0000
0000
0000
0000
,
0000
0000
0000
0000
,
0000
0000
0000
0000
0000
0000
0000
0000
1000
0100
0000
0000
0000
0000
0000
0000
,
0000
0000
0000
0000
,
0000
0000
0000
0000
,
2002
3103
2002
3013
2002
3103
2002
3003
,
0110
0110
0110
0110
0110
0110
0110
0000
,
0110
0000
0100
0010
0100
0000
0010
0000
1001
0000
0010
0000
1001
0000
0110
0000
,
0110
1001
0110
0000
1001
0110
1001
0110
1001
0000
0010
0000
1001
0000
0010
0000
,
1001
0000
0010
0000
1001
0000
0010
0000
1001
0000
0000
1001
0000
0000
0011
0000
,
0000
0011
0000
0000
1001
0000
1001
0000
0110
0000
0001
0010
1100
0000
0110
0000
,
0001
0000
0000
1000
0000
0000
0001
0000
0000
1000
0000
0000
0010
0000
0100
0000
0010
0000
0100
0000
0000
0001
0000
0000
0010
0000
0100
0000
1000
0000
0100
0000
0000
1000
0000
0000
0010
0000
0000
1000
0000
0000
0010
0000
0000
1000
0000
0000
,
0022
0000
0033
0000
0100
0000
1000
0000
0022
0000
0033
0000
0100
0000
0000
0000
0022
0000
0033
0000
0100
0000
0010
0000
1000
0100
0010
0001
0000
0000
1100
0000
,
0011
0000
0000
0011
0000
0000
1001
0000
0000
1001
0000
0000
0110
0000
1001
0000
0110
0000
0001
0010
0100
1000
0100
0010
,
0001
0000
0010
0100
1001
0000
0010
0000
1001
0000
0010
0000
1001
0000
0110
0000
,
1001
0110
1001
0000
0011
1100
0011
1100
0011
0000
1000
0000
0011
0000
1000
0000
,
0011
0000
1000
0000
0011
0000
1000
0000
0011
0000
0000
0011
0000
0000
0101
0000
,
0000
0101
0000
0000
1001
0000
0010
0000
1001
0000
0010
0100
1001
0000
0110
0000
,
1001
0000
0000
0010
0000
0000
0100
0000
0000
0010
0000
0000
1001
0000
0100
0000
0010
0000
0100
0000
0000
0010
0000
0000
0100
0000
0000
1000
0000
0000
0001
0000
1000
0000
0001
0000
1000
0000
0000
0100
0000
0000
0010
0000
0000
0001
0000
0000
,
0010
0000
0100
0000
0010
0000
0000
0000
0100
0000
0000
0000
0000
0000
0010
0000
0000
0000
0000
0000
0000
0002
0000
0000
0000
0000
0000
0000
0000
0000
0000
0000
0000
0000
0000
0000
0000
0000
0000
0000
0000
0000
0000
0000
0000
0000
0000
0000
,
1103
0000
0100
0000
1001
0000
0000
0000
1001
0000
0010
0010
0110
0000
0000
0000
,
1001
0000
0010
0000
1010
0000
0000
0000
1001
0000
0100
0100
1100
0000
0000
0000
,
0101
0000
0010
0000
1001
0000
0000
0000
0110
0000
0010
0010
0110
0000
0000
0000
,
1001
0000
0110
0000
1001
0000
0010
0000
1001
0000
0001
0001
0101
0000
0000
0000
,
1001
0000
0100
0000
1001
0000
0000
0000
0011
0000
0100
0100
0110
0000
0000
0000
,
0101
0000
0001
0000
1010
0000
0000
0000
0101
0000
0010
0010
1010
0000
0000
0000
,
0101
0000
1000
0000
0110
0000
0000
0000
1001
0000
0010
0010
0110
0000
0000
0000
,
0101
0000
0010
0000
2002
3003
0000
0000
0110
0000
0001
0001
1001
0000
0000
0000
,
0110
0000
1000
0100
0011
0100
0010
1000
0101
0010
0010
0010
1010
0000
0110
0000
,
1001
0000
0001
0001
2002
3003
0010
0000
0110
0000
0110
0000
0011
1100
0000
1010
,
0101
0000
0010
0010
0110
0000
0100
0100
0101
0010
0100
0010
1001
0000
0101
0000
,
0110
0000
1000
0000
0011
0000
0000
0000
0110
0110
1001
1001
2002
3203
0320
0030
,
0011
0000
0100
0100
0110
0000
0100
0100
0101
0010
0100
0001
1100
0000
0020
0000
,
1031
0000
0000
0000
0010
0000
0100
0000
0011
0000
0110
0000
0000
0000
0000
0000
0110
0000
0000
0000
0010
0000
0010
0000
0101
0000
0010
0000
2000
0000
0000
3000
,
0110
0000
0100
0010
1001
0000
0010
1000
0101
0010
0100
0010
1001
0000
0000
0000
,
0110
0000
0001
0110
1001
0110
0002
0000
1103
0000
1000
0100
0011
0000
0001
0001
,
2002
0000
0000
0000
0000
3003
0000
0000
0000
0000
0000
0000
0000
0000
0000
0000
;

//---------------dance-single - ----------------
#NOTES:
     dance-single:
     :
     Challenge:
     15:
     1.000,1.000,1.000,1.000,1.000,1223.000,482.000,193.000,0.000,61.000:
0000
0000
0000
0000
,
0000
0000
0000
0000
,
1001
0000
0000
0010
0000
0100
0100
0100
1010
0000
0000
0001
0000
0010
0010
0010
,
1100
0000
0000
0100
0000
0001
0001
0001
0101
0000
0000
0000
0000
0000
0000
0000
,
1001
0000
0000
0010
0000
0100
0100
0100
0011
0000
0000
0010
0000
1000
1000
1000
,
0101
0000
0000
0010
0000
0100
0100
0100
2200
0000
3300
0000
2200
0000
3300
0000
,
2200
0000
0000
0000
0000
0000
3300
0000
0000
0000
0000
0000
1100
0010
0001
0100
1000
0010
0001
0000
0000
0000
0000
0000
0100
0000
0000
0000
0000
0000
0010
0000
0000
0000
0000
0000
1001
0000
0000
0000
0000
0000
0010
0000
0000
1000
0000
0000
,
0010
0001
1100
0010
0100
0010
0010
0100
1001
0000
0001
1000
0001
1000
0011
0000
,
0110
0000
0000
0000
0000
0000
0000
0000
0000
0000
0000
0000
0000
0000
0000
0000
0000
0000
0000
0000
0000
0000
0000
0000
0100
0000
0000
0000
0000
0000
0000
0000
0000
0000
0000
0000
0010
0000
0000
0000
0000
0000
0000
0000
0000
0000
0000
0000
0100
0000
0000
0000
0000
0000
0000
0000
0000
0000
0000
0000
0010
0000
0000
0000
0100
0000
0000
0000
0010
0000
0000
0000
0100
0000
0000
0000
0010
0000
0001
0000
0000
0010
0000
0000
0100
0000
0000
1000
0000
0000
0010
0000
0000
0000
0000
0000
0100
0000
0000
0000
0000
0000
0000
0000
0000
0000
0000
0000
0000
0000
0000
0000
0000
0000
0000
0000
0000
0000
0000
0000
0010
0000
0000
0000
0000
0000
0000
0000
0000
0000
0000
0000
0000
0000
0000
0000
0000
0000
0000
0000
0000
0000
0000
0000
0110
0000
0000
0000
0000
0000
0000
0000
0000
0000
0000
0000
0000
0000
0000
0000
0000
0000
0000
0000
0000
0000
0000
0000
0001
0000
0000
0000
0000
0000
0000
0000
0000
0000
0000
0000
0010
0000
0000
0000
0000
0000
0000
0000
0000
0000
0000
0000
,
2200
0000
0000
0000
0000
0000
3310
0000
0000
0001
0000
0000
2200
0000
0000
0000
0000
0000
3310
0000
0000
0001
0000
0000
2200
0000
0000
0000
0000
0000
3310
0000
0000
0001
0000
0000
1100
0001
0010
0100
1000
0001
0010
0100
1000
0000
0000
0000
,
0011
0000
0000
0000
0000
0000
0010
0000
0000
0000
0000
0000
0011
0000
0000
0000
0000
0000
1000
0000
0000
0001
0000
0000
1000
0000
0000
0001
0000
0000
1000
0000
0000
0001
0000
0000
1000
0100
0010
0001
1000
0100
0010
0001
1000
0100
0010
0000
,
1001
0000
1001
0000
0010
0100
0011
0000
0100
1000
0011
0000
1000
1000
0011
0011
,
0100
0011
0100
0100
0011
0000
1010
0000
0202
0000
0313
1000
0202
0000
0313
1000
,
0202
0000
0000
0000
0000
0000
0313
0000
0000
1000
0000
0000
1001
0000
0000
0000
0000
0000
0001
0000
0000
0000
0000
0000
0110
0000
0000
0000
0000
0000
0001
0000
0000
0001
0000
0000
1000
0000
0100
0000
0010
0000
1000
0000
0000
0001
0000
0000
,
0001
0000
0010
0010
0110
0000
0001
0010
1100
0000
0010
0001
1100
0010
0101
0000
,
0101
0000
0000
0000
0000
0000
0010
0000
0000
0010
0000
0000
1100
0000
0000
1100
0000
0000
0001
0000
0000
0001
0000
0000
0110
0000
0000
0110
0000
0000
1100
0000
0000
1100
0000
0000
0101
0000
0000
0000
0000
0000
1000
0000
0100
0010
0001
0010
,
2200
0000
3300
0000
2200
0000
3300
0000
2200
0000
3300
0000
0022
0033
0000
0000
,
1001
0000
0010
0010
0101
0000
0011
0100
0011
1000
0100
1000
0011
0100
0011
0100
,
1001
0000
1001
0000
1001
0000
0010
0100
1001
0000
0010
0000
0010
0000
0100
0000
,
0101
0000
0000
1000
0000
0000
0101
0000
0000
1000
0000
0000
0101
0000
0000
0000
0000
0000
0010
0000
0000
0000
0100
0000
2002
0000
0000
0000
0000
0000
3003
0000
0000
0000
0000
0000
2002
0000
0000
0000
0000
0000
3003
0000
0000
0000
0000
0000
,
2002
0000
3003
0000
0101
0000
0000
0000
1100
0000
0010
0000
1100
0000
0001
0010
,
0001
0010
1100
0000
0010
0001
0010
0001
1100
0020
1130
0000
0101
0000
0010
0010
,
0101
0000
1010
0000
0100
0001
1100
0000
1100
0000
1100
0000
1001
0000
0010
0100
,
2002
0000
0000
0000
3023
0030
0000
0000
2002
0000
0000
0000
3023
0030
0000
0000
2002
0000
0000
0000
3013
0000
0000
0000
0010
0000
0000
0000
0100
0000
0000
0000
,
0011
0000
1000
0000
0011
0000
0100
0010
0100
0010
0100
0000
1000
0001
1000
0001
,
0110
0000
0000
0000
0000
0000
1001
0000
0000
0000
0000
0000
0110
0000
0000
0000
0000
0000
0001
0000
0000
1000
0000
0000
0110
0000
0000
0000
0000
0000
0001
0000
0010
0000
0100
0000
0001
0000
0000
0010
0000
0000
1000
0000
0000
0100
0000
0000
,
0011
0000
0000
0000
0000
0000
0000
0000
0000
0000
0000
0000
0000
0000
0000
0000
0000
0000
0000
0000
0000
0000
0000
0000
1100
0000
0000
0000
0000
0000
0000
0000
0000
0000
0000
0000
0000
0000
0000
0000
0000
0000
0000
0000
0000
0000
0000
0000
0011
0000
0000
0000
0000
0000
0000
0000
1000
0000
0000
0000
0000
0000
0000
0000
0100
0000
0000
0000
0000
0000
0000
0000
0010
0000
0000
0000
0000
0000
0001
0000
0000
0000
0000
0000
0010
0000
0000
0000
0000
0000
0100
0000
0000
0000
0000
0000
2002
0000
0000
0000
0000
0000
0000
0000
0000
0000
0000
0000
0000
0000
0000
0000
0000
0000
0000
0000
0000
0000
0000
0000
3003
0000
0000
0000
0000
0000
0000
0000
0000
0000
0000
0000
0000
0000
0000
0000
0000
0000
0000
0000
0000
0000
0000
0000
2002
0000
0000
0000
0000
0000
0000
0000
0000
0000
0000
0000
0000
0000
0000
0000
0000
0000
0000
0000
0000
0000
0000
0000
3003
0000
0000
0000
0000
0000
0000
0000
0000
0000
0000
0000
0000
0000
0000
0000
0000
0000
0000
0000
0000
0000
0000
0000
,
2002
0000
0000
0000
0000
0000
3003
0000
0000
0000
0000
0000
0110
0000
0000
0000
0000
0000
0001
0000
0010
0000
0100
0000
1001
0000
0000
0000
0000
0000
0110
0000
0000
0000
0000
0000
1001
0000
0000
0000
0000
0000
0010
0000
0000
1000
0000
0000
,
0010
0000
0000
0000
0010
0000
0000
0000
0101
0000
0000
0000
0000
0000
0000
0000
1000
0000
0000
0000
1000
0000
0000
0000
0101
0000
0000
0000
0000
0000
0000
0000
1001
0000
0000
0000
0110
0000
0000
0000
1001
0010
0100
1000
0100
0010
0001
0010
0100
0000
0000
0000
0000
0000
0000
0000
0010
0000
0000
0000
0010
0000
0000
0000
,
0100
0000
0000
0100
0000
0000
1100
0000
0000
0000
0000
0000
0020
0000
0000
0230
0000
0000
0320
0000
0000
0230
0000
0000
0310
0000
0000
0000
0000
0000
0100
0000
0000
0000
0000
0000
0010
0000
0000
0000
0000
0000
1000
0000
0100
0000
0010
0000
,
2002
0000
3103
0000
2002
0000
3103
0000
2002
0010
3103
0000
0020
0000
0000
0030
,
1100
0000
0011
0000
1100
0000
0010
0001
1100
0000
0010
0001
0010
0001
1100
0000
,
0110
0000
0110
0000
1001
0000
0010
0100
1001
0000
0010
0100
0010
0100
1001
0000
,
0202
0303
0020
0000
0030
0000
0000
0000
2002
0000
3003
0000
2002
0000
3003
0000
,
2002
0000
3003
0000
0110
0000
0001
0000
0110
0000
1000
0000
0011
0000
0010
0001
,
0010
0001
1010
0000
0010
0001
0010
0001
2200
0000
3310
0000
0101
0000
0010
0100
,
0010
0100
0011
0000
1100
0011
1100
0000
1001
0000
0100
0000
1001
0000
0010
0010
,
0101
0000
0000
0000
0000
0000
0000
0000
0000
0000
0000
0000
0000
0000
0000
0000
0000
0000
0000
0000
0000
0000
0000
0000
0010
0000
0000
0000
0000
0000
0000
0000
1000
0000
0000
0000
0000
0000
0000
0000
0010
0000
0000
0000
0000
0000
0000
0000
1001
0000
0000
0000
0000
0000
0000
0000
0000
0000
0000
0000
0000
0000
0000
0000
0000
0000
0000
0000
0000
0000
0000
0000
1000
0000
0000
0100
0000
0000
0010
0000
0000
0001
0000
0000
1000
0000
0000
0100
0000
0000
0010
0000
0000
0001
0000
0000
2020
0000
0000
0000
0000
0000
0000
0000
0000
0000
0000
0000
0000
0000
0000
0000
0000
0000
0000
0000
0000
0000
0000
0000
3030
0000
0000
0000
0000
0000
0000
0000
0000
0000
0000
0000
0000
0000
0000
0000
0000
0000
0000
0000
0000
0000
0000
0000
2020
0000
0000
0000
0000
0000
0000
0000
0000
0000
0000
0000
0000
0000
0000
0000
0000
0000
0000
0000
0000
0000
0000
0000
3030
0000
0000
0000
0000
0000
0000
0000
0000
0000
0000
0000
0000
0000
0000
0000
0000
0000
0000
0000
0000
0000
0000
0000
,
2020
0000
3030
0000
0101
0000
0110
0000
0022
0000
0133
0000
1100
0000
0010
0100
,
0010
0000
0000
0100
0000
0000
1000
0000
0000
0100
0000
0000
0010
0000
0001
0000
0010
0000
0100
0000
1000
0000
0100
0000
0011
0000
0000
0000
0000
0000
0001
0000
0000
0100
0000
0000
1010
0000
0000
0000
0000
0000
0001
0000
0000
0010
0000
0000
,
1100
0001
1100
0001
0220
2330
3220
0330
2002
0000
3013
0000
0110
0000
1000
0100
,
1000
0100
0011
0000
1001
0000
0000
0000
2002
0000
3013
0000
2002
0000
3103
0000
,
2002
0000
0000
0000
0000
0000
3013
0000
0000
0010
0000
0000
1000
0001
1000
0001
1000
0001
1000
0001
1000
0001
0000
0000
1010
0000
0000
0000
0000
0000
0100
0000
0000
0000
0000
0000
1010
0000
0000
0000
0000
0000
0001
0000
0000
0100
0000
0000
,
0001
0100
1001
0000
0100
0001
0100
0001
1010
0000
1010
0000
0101
0000
0010
1000
,
0101
0000
0010
0000
0010
0010
0101
0000
0001
0000
0000
0000
1000
0000
0000
0000
,
0022
0000
0000
0000
0000
0000
1033
0000
0000
0000
0000
0000
0001
0000
0010
0000
0100
0000
1000
0000
0000
0010
0000
0000
2002
0000
0000
0000
0000
0000
3013
0000
0000
0000
0000
0000
2002
0000
0000
0000
0000
0000
3103
0000
0000
0000
0000
0000
,
2002
0000
3013
0000
1000
0000
0100
0000
0011
0000
0100
0000
1010
0000
0001
0100
,
0001
0000
0000
0100
0000
0000
0010
0000
0001
0000
0010
0000
0100
0000
0000
1000
0000
0000
0100
0000
0000
1000
0000
0000
0101
0000
0000
0000
0000
0000
0101
0000
0000
0000
0000
0000
1001
0000
0000
0000
0000
0000
0010
0000
0000
1000
0000
0000
,
0010
1000
0010
1000
0100
0000
0200
0000
0311
0011
1100
1100
1100
0000
0001
0110
,
0001
0000
0110
0000
0001
0000
0000
0000
0110
0000
0000
0000
0000
0000
0000
0000
2002
0000
0000
0000
3003
0000
0000
0000
1000
0100
0010
0001
1000
0100
0000
0000
,
1000
0100
0010
0001
1000
0100
0010
0001
1000
0000
0000
0000
0020
0000
0000
0000
0000
0000
0000
0000
0000
0000
0030
0000
1001
0000
0000
0000
0000
0000
0100
0000
0000
0000
0000
0000
1001
0000
0000
0000
0000
0000
0010
0000
0000
1000
0000
0000
,
0010
1000
0011
0000
1000
0100
0011
0011
0022
0233
1310
0000
1010
0000
0100
0100
,
0011
0000
0000
0011
0000
0000
1000
0000
0100
0000
0010
0000
0001
0000
0000
1000
0000
0000
0100
0000
0000
0010
0000
0000
0101
0000
0000
0101
0000
0000
1010
0000
0000
1010
0000
0000
0001
0000
0010
0000
0100
0000
1000
0000
0100
0000
0010
0000
,
2002
3013
2002
3013
2002
3103
2002
3013
,
2002
0000
3013
0000
0110
0000
0001
1000
0001
1000
0110
0000
0202
0000
0000
0303
,
2002
0000
0000
3023
0000
0000
0030
0000
0000
0000
0000
0000
0000
0000
0000
0000
0000
0000
0110
0000
0000
0110
0000
0000
1001
0000
0000
0000
0000
0000
0101
0000
0000
0000
0000
0000
0010
0000
1000
0000
0010
0000
1000
0000
0010
0000
1000
0000
,
0022
0000
0000
0000
0000
0000
0000
0000
0000
0000
0000
0000
0233
0000
0000
0000
0000
0000
0000
0000
0000
0000
0000
0000
0300
0000
0000
0000
0000
0000
0000
0000
0000
0000
0000
0000
0000
0000
0000
0000
0000
0000
0000
0000
0000
0000
0000
0000
0001
0000
0000
0000
0000
0000
0000
0000
0000
0000
0000
0000
0001
0000
0000
0000
0000
0000
0000
0000
0000
0000
0000
0000
1000
0000
0000
0000
0000
0000
0000
0000
0100
0000
0000
0000
0000
0000
0000
0000
0010
0000
0000
0000
0000
0000
0000
0000
2002
0000
0000
0000
0000
0000
0000
0000
0000
0000
0000
0000
0000
0000
0000
0000
0000
0000
0000
0000
0000
0110
0000
0000
3003
0000
0000
0000
0000
0000
0000
0000
0000
0000
0000
0000
0000
0000
0000
0000
0000
0000
0000
0000
0000
0000
0000
0000
2002
0000
0000
0000
0000
0000
0000
0000
0000
0000
0000
0000
0000
0000
0000
0000
0000
0000
0000
0000
0000
0110
0000
0000
3003
0000
0000
0000
0000
0000
0000
0000
0000
0000
0000
0000
0000
0000
0000
0000
0000
0000
0000
0000
0000
0000
0000
0000
,
2002
0000
0000
0000
0000
0000
0000
0110
3003
0000
0000
0000
0000
0000
0000
0000
1011
0000
0000
0000
0000
0000
0000
0000
1011
0000
0000
0000
0000
0000
0000
0000
1001
0000
0000
0000
0000
0000
0000
0000
1001
0000
0000
0000
1001
0000
0000
0000
1001
0000
0000
0000
0000
0000
0000
0000
0100
0000
0000
0000
0000
0000
0000
0000
,
0000
0000
0000
0000
0000
0000
0000
0000
0000
0100
0000
0000
0011
0000
0000
0000
0011
0000
0000
0000
0000
1000
0000
0000
0101
0000
0000
0000
0000
0000
0101
0000
0000
0000
0000
0000
2002
0000
0000
0000
0000
0000
0000
0000
0000
3013
0000
0000
,
0100
0000
0000
0100
0000
0000
1001
0000
0000
0000
0000
0000
0001
0000
0000
1000
0000
0000
0001
0000
0000
1000
0000
0000
0110
0000
0000
0000
0110
0000
0000
0000
0000
1001
0000
0000
0010
0000
0000
0000
0010
0000
0000
0000
0010
0000
0000
0000
,
0202
0303
0010
0100
0022
0033
0010
0100
0022
0033
0010
0100
1011
0000
0000
0000
,
1001
0000
0110
0000
1001
0000
0100
1000
0110
0000
0110
0000
0001
0010
1100
0000
,
0011
0000
0011
0000
1100
0000
0010
0100
0011
0000
0010
0100
0010
0100
0011
0000
,
2002
0000
3003
0000
2002
3003
2002
3003
,
2002
0000
3003
0000
0110
0000
0001
0000
0110
0000
1000
0000
0011
0000
1000
0011
,
1000
0100
0011
0000
0100
0010
0100
0010
1001
0000
0010
0000
1001
0000
0010
0100
,
0010
0000
0000
0000
0000
0000
0000
0000
0000
0000
0000
0000
0100
0000
0000
0000
0000
0000
0000
0000
0000
0000
0000
0000
1001
0000
0000
0000
0000
0000
0000
0000
0000
0000
0000
0000
0000
0000
0000
0000
0000
0000
0000
0000
0000
0000
0000
0000
0011
0000
0000
0000
0000
0000
0000
0000
0000
0000
0000
0000
0110
0000
0000
0000
0000
0000
0000
0000
0000
0000
0000
0000
1100
0000
0000
0000
0000
0000
0000
0000
0000
0000
0000
0000
0110
0000
0000
0000
0000
0000
0000
0000
0000
0000
0000
0000
1001
0000
0000
0000
0000
0000
0000
0000
0000
0000
0000
0000
0000
0000
0000
0000
0000
0000
0000
0000
0000
0000
0000
0000
0010
0000
0000
0000
0000
0000
0000
0000
0100
0000
0000
0000
0000
0000
0000
0000
0010
0000
0000
0000
0000
0000
0000
0000
0100
0000
0000
0000
0000
0000
0001
0000
0000
0000
0000
0000
0100
0000
0000
0000
0000
0000
0001
0000
0000
0000
0000
0000
0100
0000
0000
0000
0000
0000
0000
0000
0000
0000
0000
0000
0010
0000
0000
0000
0000
0000
0000
0000
0000
0000
0000
0000
,
0010
0000
0000
0000
0100
0000
0000
0000
1000
0000
0000
0000
0100
0000
0000
0000
0000
0000
0000
0000
0000
0000
0000
0000
0010
0000
0000
0000
0000
0000
0000
0000
0000
0000
0000
0000
0010
0000
0000
0000
0000
0000
0000
0000
0000
0000
0000
0000
0100
0000
0000
0000
0001
0000
0000
0000
0100
0000
0000
0000
0001
0000
0000
0000
0100
0000
0000
0000
0001
0000
0000
0000
0020
0000
0000
0000
0000
0000
0000
0000
0000
0000
0000
0000
0000
0000
0000
0000
0000
0000
0000
0000
0000
0030
0000
0000
0022
0000
0000
0000
0000
0000
0000
0000
0000
0000
0000
0000
0000
0000
0000
0000
0000
0000
0000
0000
0000
0000
0000
0000
1033
0000
0000
0000
0000
0000
0000
0000
0000
0000
0000
0000
0100
0000
0000
0000
0000
0000
0000
0000
0000
0000
0000
0000
2200
0000
0000
0000
0000
0000
0000
0000
0000
0000
0000
0000
0000
0000
0000
0000
0000
0000
0000
0000
0000
0000
0000
0000
3310
0000
0000
0000
0000
0000
0000
0000
0000
0000
0000
0000
0001
0000
0000
0000
0000
0000
0000
0000
0000
0000
0000
0000
,
0022
0000
0000
0000
0000
0000
0000
0000
0133
0000
0000
0000
1000
0000
0000
0000
2200
0000
0000
0000
0000
0000
0000
3300
1100
0000
0000
0000
0000
0000
0000
0000
0101
0000
0000
0000
0000
0000
0000
0000
0010
0000
0000
0000
0000
0000
0000
0000
0101
0000
0000
0000
0000
0000
0000
0000
0010
0000
0000
0000
1000
0000
0000
0000
,
0010
0000
0000
1000
0000
0000
0010
0000
0000
1000
0000
0000
0100
0000
0001
0000
0100
0000
0010
0000
1000
0000
0010
0000
0101
0000
0000
0000
0000
0000
0011
0000
0000
0000
0000
0000
1100
0000
0000
0000
0000
0000
0110
0000
0000
0000
0000
0000
,
0001
0000
0000
0010
0000
0000
0100
0000
1000
0000
0100
0000
0022
0000
0033
0000
0000
0000
1100
0000
0000
0000
0000
0000
0011
0000
0000
0000
0000
0000
0100
0000
0000
0000
0000
0000
0011
0000
0000
0000
0000
0000
0100
0000
0000
1000
0000
0000
,
0100
0000
0000
1000
0000
0000
0100
0000
1000
0000
0100
0000
1001
0000
0000
0000
0000
0000
0000
0000
0000
0000
0000
0000
2002
0000
0000
0000
0000
0000
3113
0000
0000
0000
0000
0000
2002
0000
0000
0000
0000
0000
3113
0000
0000
0000
0000
0000
,
2002
0000
0000
0000
0000
0000
0000
0000
3113
0000
0000
0000
0110
0000
0000
0000
1000
0100
0010
0001
1000
0100
0010
0001
1000
0100
0010
0001
1000
0100
0010
0001
1010
0000
0000
0000
0000
0000
0000
0000
0100
0000
0000
0000
0000
0000
0000
0000
1001
0000
0000
0000
0000
0000
0000
0000
0010
0000
0000
0000
0100
0000
0000
0000
,
0010
0000
0000
0100
0000
0000
1001
0000
0000
0000
0000
0000
0010
0000
0000
0100
0000
0000
1001
0000
0000
0000
0000
0000
0110
0000
0000
0000
0000
0000
0110
0000
0000
0000
0000
0000
1001
0000
0000
0000
0000
0000
0010
0000
0100
0000
0010
0000
,
1100
0000
0202
0000
0313
1000
0010
0010
0101
0000
0000
0101
0000
0000
1010
0000
,
0101
0000
0000
0000
0000
0000
0000
0000
0000
0000
0000
0000
0010
0000
0000
0000
0000
0000
0000
0000
0000
0000
0000
0000
0010
0000
0000
0000
0000
0000
0000
0000
0000
0000
0000
0000
0000
0000
0000
0000
0000
0000
0000
0000
0000
0000
0000
0000
1000
0000
0000
0000
0000
0000
0000
0000
0100
0000
0000
0000
0000
0000
0000
0000
0010
0000
0000
0000
0000
0000
0000
0000
0001
0000
0000
0000
0000
0000
0010
0000
0000
0000
0000
0000
0100
0000
0000
0000
0000
0000
1000
0000
0000
0000
0000
0000
0101
0000
0000
0000
0000
0000
0000
0000
0000
0000
0000
0000
0000
0000
0000
0000
0000
0000
0000
0000
0000
0000
0000
0000
0101
0000
0000
0000
0000
0000
0000
0000
0000
0000
0000
0000
1010
0000
0000
0000
0000
0000
0000
0000
0000
0000
0000
0000
0101
0000
0000
0000
0000
0000
0000
0000
0000
0000
0000
0000
0000
0000
0000
0000
0000
0000
0000
0000
0000
0000
0000
0000
0011
0000
0000
0000
0000
0000
0000
0000
0000
0000
0000
0000
0000
0000
0000
0000
0000
0000
0000
0000
0000
0000
0000
0000
,
0011
0000
0011
0000
1100
0000
0010
0000
1001
0000
0010
0000
1001
0000
0010
0100
,
0010
0000
0100
0000
0010
0100
0010
0000
0001
0000
1000
0000
0001
0000
1000
0000
0110
0000
0000
0000
0110
0000
0000
0000
1001
0000
0000
0000
0001
0000
1000
0000
,
0001
0000
0000
1000
0000
0000
0001
0000
0000
1000
0000
0000
0011
0000
0000
0000
0000
0000
1000
0000
0100
0000
0010
0000
0101
0000
0000
0000
0000
0000
0101
0000
0000
0000
0000
0000
1010
0000
0000
0000
0000
0000
0100
0000
0000
0011
0000
0000
,
0100
0000
0011
0000
0100
0000
0000
0000
2002
3003
0000
0000
0000
0000
0000
0000
0000
0000
0000
0000
0000
0000
0000
0000
0000
0000
0000
0000
0000
0000
0000
0000
,
0000
0000
0000
0000
,
0000
0000
0000
0000
0000
0000
0000
0000
1000
0100
0000
0000
0000
0000
0000
0000
,
0000
0000
0000
0000
,
0000
0000
0000
0000
,
2002
3113
2002
3113
2002
3103
2002
3003
,
0110
0110
0110
0110
0110
0110
0110
0000
,
0110
0000
0001
1000
0110
0000
0001
0000
0110
0000
0010
0000
1001
0000
1001
0000
,
1001
1001
1001
0000
0110
0110
0110
0110
1001
0000
0010
0000
1001
0000
0010
0000
,
1001
0000
0010
0000
1001
0000
0010
0000
1011
0000
0000
1011
0000
0000
1011
0000
,
0000
1011
0000
0000
1001
0000
1001
0000
0110
0000
0001
0010
1100
0000
0010
0000
,
0001
0000
0000
1000
0000
0000
0001
0000
0000
1000
0000
0000
0010
0000
0100
0000
0010
0000
0100
0000
0000
0100
0000
0000
1001
0000
0100
0000
0010
0000
0100
0000
0000
1000
0000
0000
0011
0000
0000
1100
0000
0000
0011
0000
0000
1100
0000
0000
,
0022
0000
0033
0000
0010
0000
0010
0000
0022
0000
0033
0000
0010
0000
0000
0000
0022
0000
0033
0000
0010
0000
0010
0000
1000
0100
0010
0001
0000
0000
1000
0000
,
0011
0000
0000
0011
0000
0000
1001
0000
0000
1001
0000
0000
0110
0000
0110
0000
0110
0000
1001
0010
0100
0010
0100
0010
,
1001
0000
0010
0010
1001
0000
0010
0000
1001
0000
0010
0000
1001
0000
0110
0000
,
1001
0110
1001
0000
0011
1100
0011
1100
0011
0000
1000
0000
0011
0000
1000
0000
,
0011
0000
1000
0000
0011
0000
1000
0000
0011
0000
0000
0011
0000
0000
0101
0000
,
0000
0101
0000
0000
1001
0000
0010
0000
1001
0000
0100
0100
1001
0000
0110
0000
,
1001
0000
0000
0000
0000
0000
0000
0000
0000
0000
0000
0000
0010
0000
0000
0000
0000
0000
0000
0000
0000
0000
0000
0000
0100
0000
0000
0000
0000
0000
0000
0000
0000
0000
0000
0000
0010
0000
0000
0000
0000
0000
0000
0000
0000
0000
0000
0000
1001
0000
0000
0000
0000
0000
0000
0000
0010
0000
0000
0000
0000
0000
0000
0000
0100
0000
0000
0000
0000
0000
0000
0000
0010
0000
0000
0000
0000
0000
0000
0000
0000
0000
0000
0000
0010
0000
0000
0000
0000
0000
0000
0000
0000
0000
0000
0000
0010
0000
0000
0000
0000
0000
1000
0000
0000
0000
0000
0000
0010
0000
0000
0000
0000
0000
1000
0000
0000
0000
0000
0000
0010
0000
0000
0000
0000
0000
0000
0000
1000
0000
0000
0000
0000
0000
0000
0000
0010
0000
0000
0000
0000
0000
0000
0000
1001
0000
0000
0000
0000
0000
0000
0000
0000
0000
0000
0000
0110
0000
0000
0000
0000
0000
0000
0000
0000
0000
0000
0000
1001
0000
0000
0000
0000
0000
0000
0000
0000
0000
0000
0000
0110
0000
0000
0000
0000
0000
0000
0000
0000
0000
0000
0000
,
1001
0000
0100
0000
0010
0000
0000
0000
0100
0000
0000
0000
0000
0000
0010
0000
0000
0000
0000
0000
0000
0002
0000
0000
0000
0000
0000
0000
0000
0000
0000
0000
0000
0000
0000
0000
0000
0000
0000
0000
0000
0000
0000
0000
0000
0000
0000
0000
,
1103
0000
0100
0000
1001
0000
0000
0000
1001
0000
0010
0010
0110
0000
0000
0000
,
1001
0000
0010
0000
1010
0000
0000
0000
1001
0000
0100
0100
1100
0000
0000
0000
,
0101
0000
0010
0000
1001
0000
0000
0000
0110
0000
0010
0010
0110
0000
0000
0000
,
1001
0000
0110
0000
1001
0000
0010
0000
1001
0000
0001
0001
0101
0000
0000
0000
,
1001
0000
0100
0000
1001
0000
0000
0000
0011
0000
0100
0100
0110
0000
0000
0000
,
0101
0000
0001
0000
1010
0000
0000
0000
0101
0000
0010
0010
1010
0000
0000
0000
,
0101
0000
1000
0000
0110
0000
0000
0000
1001
0000
0010
0010
0110
0000
0000
0000
,
0101
0000
0010
0000
2002
3003
0000
0000
0110
0000
0001
0001
1001
0000
0000
0000
,
0110
0000
1000
0100
0011
0100
0010
1000
0101
0010
0010
0010
1010
0000
0110
0000
,
1001
0000
0001
0001
2002
3003
0010
0000
0110
0000
0110
0000
0011
1100
0000
1010
,
0101
0000
0010
0010
0110
0000
0100
0100
0101
0010
0100
0010
1001
0000
0101
0000
,
0110
0000
1000
0000
0011
0000
0000
0000
0110
0110
1001
1001
2002
3203
0320
0030
,
0011
0000
0100
0100
0110
0000
0100
0100
0101
0010
0100
0001
1100
0000
0020
0000
,
1031
0000
0000
0000
0000
0000
0000
0000
0010
0000
0000
0000
0100
0000
0000
0000
0011
0000
0000
0000
0110
0000
0000
0000
0000
0000
0000
0000
0000
0000
0000
0000
0110
0000
0000
0000
0000
0000
0000
0000
0010
0000
0000
0000
0010
0000
0000
0000
0101
0000
0000
0000
0010
0000
0000
0000
1000
0001
1000
0001
1000
0001
1000
0001
,
0110
0000
0100
0010
1001
0000
0010
1000
0101
0010
0100
0010
1001
0000
0000
0000
,
0110
0000
0000
0000
0000
0000
0000
0000
0001
0000
0000
0000
0110
0000
0000
0000
1001
0000
0000
0000
0110
0000
0000
0000
0001
0010
0001
0010
0020
0000
0000
0000
1100
0030
0000
0000
0000
0000
0000
0000
1000
0000
0000
0000
0100
0000
0000
0000
0011
0000
0000
0000
0000
0000
0000
0000
0001
0000
0000
0000
0001
0000
0000
0000
,
2002
0000
0000
0000
0000
3003
0000
0000
0000
0000
0000
0000
0000
0000
0000
0000
;
