#TITLE:Chronicle of the Wicked Fallen Angel Sariel;
#SUBTITLE:;
#ARTIST:Unlucky Morpheus;
#TITLETRANSLIT:;
#SUBTITLETRANSLIT:;
#ARTISTTRANSLIT:;
#CREDIT:Kurosan;
#BANNER:chronicle of the wicked fallen angel sariel bn.png;
#BACKGROUND:chronicle of the wicked fallen angel sariel bg.png;
#LYRICSPATH:;
#CDTITLE:cdtitlekurosan.png;
#MUSIC:Chronicle of the Wicked Fallen Angel Sariel.ogg;
#OFFSET:-0.027;
#SAMPLESTART:70.948;
#SAMPLELENGTH:21.817;
#SELECTABLE:YES;
#BPMS:0.000=176.000;
#STOPS:;
#BGCHANGES:;
// cache tags:
#FIRSTBEAT:0.000;
#LASTBEAT:368.500;
#SONGFILENAME:Songs/Index Tournament 1/Chronicle of the Wicked Fallen Angel Sariel [Kurosan]/Chronicle of the Wicked Fallen Angel Sariel.sm;
#HASMUSIC:1;
#HASBANNER:1;
#MUSICLENGTH:130.250;
// end cache tags

//---------------dance-single - Blank----------------
#NOTES:
     dance-single:
     Blank:
     Challenge:
     13:
     1.000,1.000,0.223,0.292,1.000,930.000,29.000,38.000,17.000,0.000:

M000
0000
0000
0000
,
0000
0000
0000
0000
,
0000
0000
0000
0000
,
1001
1000
0100
0110
0010
0001
1001
1000
,
0110
0110
0000
0000
0000
0000
0000
0000
,
0000
0000
0000
0000
,
1001
1001
0000
0000
0000
0000
0000
0000
,
0101
0000
0000
0100
0010
1000
0001
0000
0000
0010
0100
1000
0001
1000
0010
0000
,
0100
0001
1000
0010
1000
0010
0100
0001
1000
0010
1000
0010
0100
0001
1000
0010
,
1000
0100
0010
0001
0010
0001
1000
0100
0010
0001
0010
0001
1000
0100
0010
0001
,
1000
0001
0100
0010
0100
0010
1000
0001
0100
0010
0100
0010
1000
0001
0100
0010
,
1000
0100
0010
0001
1000
0001
1000
0100
0010
0001
1000
0001
1000
0100
0010
0001
,
1000
0010
0100
0001
1000
0001
1000
0010
0100
0001
1000
0001
1000
0010
0100
0001
,
1000
0001
0010
0100
0010
0100
1000
0001
0010
0100
0010
0100
1000
0001
0100
0001
,
1000
0010
0100
0001
0100
0001
1000
0010
0100
0001
0100
0001
1000
0010
0100
0001
,
1000
0100
0010
0001
0010
0001
1000
0100
0010
0001
0010
0001
1000
0010
0100
0001
,
1000
0001
0010
M00M
0010
0000
1000
0001
0010
M00M
0010
0000
1001
0000
0000
0000
,
1000
0001
0100
M00M
0100
0000
1000
0001
0100
M00M
0100
0000
1001
0000
0000
0000
,
1000
0100
0010
M00M
0010
0000
1000
0100
0010
M00M
0010
0000
1001
0000
0000
0000
,
0001
0100
0010
M00M
0010
0000
0001
0100
0010
M00M
0010
0000
1001
0000
1000
0001
,
0100
0000
0010
0000
1000
0001
0010
0000
0100
0000
1000
0001
0000
0001
1000
0000
,
0100
0000
0010
0000
0001
1000
0010
0000
0100
0000
0001
1000
0000
1000
0001
0000
,
0010
0000
0001
0000
1000
0010
0100
0000
0001
0000
1000
0100
0000
0100
1000
0000
,
0010
0000
1000
0000
0001
0010
0100
0000
1000
0000
0001
0100
0000
0100
0001
0000
,
1000
0000
0100
0000
0010
0001
1000
0000
0010
0000
0100
0001
0000
0001
0100
0000
,
0001
0000
0100
0000
0010
1000
0001
0000
0010
0000
0100
1000
0000
1000
0100
0000
,
0010
0000
0001
0000
1000
0001
0100
0000
0010
0000
0100
0001
0000
0001
1000
0000
,
0010
0000
1000
0000
0001
1000
0100
0000
0010
0000
0100
1000
0000
1000
0001
0100
,
0010
0000
0100
0001
1000
0000
0010
0100
0001
0000
1000
0000
0001
0010
0100
0000
,
1000
0000
0010
0000
1000
0001
0100
0000
0010
0000
1000
0001
0000
0001
1000
0000
,
0100
1000
0001
1000
0010
0000
0100
0001
1000
0000
0001
0000
0010
0100
1000
0000
,
0001
0000
1000
0000
0010
0100
0001
0000
1000
0000
0001
0010
0000
0010
0001
0000
,
1000
0000
0010
0100
0001
0000
1000
0010
0100
0000
0001
0000
1000
0100
0010
0000
,
0001
0000
1000
0000
0001
1000
0010
0000
0100
0000
0001
1000
0000
1000
0100
0000
,
0010
0001
1000
0001
0100
0000
0010
1000
0001
0000
0010
0000
0100
1000
0001
0000
,
1000
0010
1000
0001
0010
0100
0010
0001
1000
0100
1000
0001
0100
0010
0100
0001
,
1000
0000
1100
0000
,
0011
0000
0000
0000
0001
0010
0000
0010
0100
0000
0100
1000
0000
1000
0001
0000
,
0101
0000
1010
0000
,
0010
0100
0001
0100
0001
0100
0010
1000
0001
1000
0001
1000
0100
0010
0001
0010
0001
0010
0100
1000
0001
1000
0010
0100
,
0001
0000
0000
0000
0001
0000
1000
0001
0100
0000
0000
0000
0001
0000
1000
0000
,
0100
0000
1000
0000
0010
0000
0100
0001
1000
0000
1000
0000
0001
0000
1000
0000
,
0100
0000
0000
0000
0010
0000
0001
0010
0100
0000
0000
0000
1000
0000
0001
0000
,
0100
0000
0100
0000
0010
0000
0010
1000
0001
0010
0001
0010
0100
1000
0001
0000
,
1000
0000
0001
0010
0001
0000
1000
0100
1000
0000
0001
0010
0001
0000
1000
0100
,
1000
0000
0010
1000
0010
0000
0100
0001
0100
0000
0010
1000
0010
0000
0100
0001
,
0100
0000
0001
1000
0001
0000
0010
0100
0010
0000
0001
1000
0001
0000
0010
0100
,
0010
0000
0001
1000
0001
0000
0100
0010
0100
0001
1000
0000
0100
0000
0010
0001
,
1000
0000
0001
0100
0010
0000
1000
0001
0100
0000
0001
1000
0100
0000
0010
0001
,
1000
0000
0010
0100
0001
0000
1000
0100
0010
0000
0001
0010
0100
0000
1000
0001
,
0100
0000
0010
1000
0001
0000
1000
0010
0100
0000
0001
0100
0010
1000
0010
0100
,
0001
1000
0001
0010
0100
0010
0001
1000
0010
0000
0100
0001
0100
0001
0100
0001
,
1000
0010
0100
0010
1000
0010
0100
0010
1000
0010
0100
0010
1000
0010
0100
0010
,
1000
0001
0010
0001
1000
0001
0010
0001
1000
0001
0010
0001
1000
0001
0010
0001
,
1000
0100
0010
0100
1000
0100
0010
0100
1000
0100
0010
0100
1000
0100
0010
0100
,
1000
0001
1000
0001
0100
0010
0100
0010
1000
0001
1000
0001
0010
0100
0010
0100
,
1000
0001
0100
0001
1000
0010
0100
0010
1000
0001
0100
0001
1000
0010
0100
0010
,
1000
0001
0010
0001
1000
0100
0010
0100
1000
0001
0010
0001
1000
0100
0010
0100
,
1000
0001
1000
0010
1000
0001
0010
0100
0010
0001
1000
0010
1000
0001
0010
0100
,
0010
0001
1000
0010
0100
0010
1000
0001
0010
0001
0100
0001
1000
0001
0100
0001
,
1000
0100
0010
0100
1000
0100
0010
0100
1000
0100
0010
0100
1000
0100
0010
0100
,
1000
0001
0100
0001
1000
0001
0100
0001
1000
0001
0100
0001
1000
0001
0100
0001
,
1000
0010
0100
0010
1000
0010
0100
0010
1000
0010
0100
0010
1000
0010
0100
0010
,
1000
0001
1000
0001
0010
0100
0010
0100
1000
0001
1000
0001
0100
0010
0100
0010
,
1000
0001
0010
0001
1000
0100
0010
0100
1000
0001
0010
0001
1000
0100
0010
0100
,
1000
0001
0100
0001
1000
0010
0100
0010
1000
0001
0100
0001
1000
0010
0100
0010
,
1000
0001
1000
0100
1000
0001
0100
0010
0100
0001
1000
0100
1000
0001
0100
0010
,
0100
0001
1000
0100
0010
0100
1000
0001
0100
0001
0010
0001
1000
0001
0010
0100
,
2000
3002
0000
0203
0302
0023
0230
2300
,
3002
0000
0000
0000
0000
0000
0000
0000
0203
0000
0320
2030
3002
0000
0000
0000
,
0023
0000
0000
0230
0000
0000
2300
0000
3002
0000
0000
0000
0203
0000
0000
0000
,
0320
0000
2030
0000
,
3002
0000
0000
0023
0000
0000
2030
0000
3020
0000
0000
0230
0000
0000
2300
0000
,
3002
0000
0000
0203
0000
0000
2300
0000
3200
0000
0320
0000
0000
0000
2030
0000
,
3002
0000
0000
0000
0000
0000
0203
0000
0320
0000
0000
2030
0000
0000
3002
0000
,
0023
0000
0230
0000
,
1300
0000
0000
0000
0001
0000
0010
0100
1000
0000
0000
0000
0010
0000
1000
0000
,
0100
0000
1000
0000
0001
0000
0100
0010
1000
0000
0001
0000
0010
0000
0001
0000
,
1000
0000
0000
0000
0100
0000
0010
0001
1000
0000
0000
0000
0010
0000
0100
0000
,
0001
0000
0100
0000
0010
0000
1000
0001
0010
0000
0100
0000
1000
0001
1000
0000
,
0001
0000
0000
0000
0100
0000
0010
1000
0001
0000
0000
0000
0010
0000
0001
0000
,
1000
0000
0001
0000
0100
0000
0010
1000
0001
0000
1000
0100
1000
0100
0010
0001
,
1000
0000
1001
1000
,
0001
0000
0000
0100
0000
0000
0010
0000
0000
1000
0000
0000
0010
0000
0000
1000
0000
0000
0001
0000
0000
0100
0000
0000
0010
0000
1000
0000
0001
0000
1000
0000
0001
0000
1000
0000
0100
0000
0000
0000
0000
0000
0010
0000
0000
0001
0000
0000
,
1000
1001
0000
0000
0000
0000
0000
0000
,
0000
0000
0000
0000
,
0110
0110
0000
0000
0000
0000
0000
0000
,
1001
0001
0100
0110
0010
1000
1001
0001
,
0110
0110
0000
0000
0000
0000
0000
0000
,
0000
0000
0000
0000
,
1001
1001
0000
0000
0000
0000
0000
0000
,
1100
0000
0000
0100
0010
0001
1000
0000
0000
0010
0100
0001
1000
0100
1000
0100
,
0010
1001
0000
0000
0000
0000
0000
0000
;

//---------------pump-single - ----------------
#NOTES:
     pump-single:
     :
     Edit:
     1:
     0.071,0.088,0.046,0.000,0.088,53.000,6.000,0.000,0.000,6.000:
00000
00000
00000
00000
,
00000
00000
00000
00000
,
10110
01101
00000
00000
00000
00000
00000
00000
,
10000
00100
10000
00100
10000
00000
00001
00100
00001
00100
00001
00000
01000
00000
00010
00000
,
01110
10101
00000
00000
00000
00000
00000
00000
,
00000
00000
00000
00000
,
11100
00111
00000
00000
00000
00000
00000
00000
,
10000
00000
00000
00010
00000
00000
10000
00000
00000
00010
00000
00000
01000
00000
00000
00001
00000
00000
01000
00000
00000
00001
00000
00000
10000
00000
00010
00000
10000
00000
00100
00000
01000
00000
00001
00000
01000
00000
00100
00000
10000
00000
00010
00000
10000
00000
00000
00000
,
00000
00000
00000
00000
10000
00100
10000
00010
10000
00100
10000
00010
10000
00100
10000
00010
,
10000
00100
10000
00010
00000
00000
00000
00000
00000
00000
00000
00000
00000
00000
00000
00000
;

//---------------pump-single - ----------------
#NOTES:
     pump-single:
     :
     Challenge:
     1:
     0.140,0.165,0.054,0.000,0.203,115.000,7.000,0.000,0.000,6.000:
00000
00000
00000
00000
,
00000
00000
00000
00000
,
10110
01101
00000
00000
00000
00000
00000
00000
,
10000
00100
10000
00001
10000
00000
00001
00100
00001
10000
00001
00000
01000
00000
00010
00000
,
01110
10101
00000
00000
00000
00000
00000
00000
,
00000
00000
00000
00000
,
11100
00111
00000
00000
00000
00000
00000
00000
,
10000
00000
00000
00010
00000
00000
10000
00000
00000
00010
00000
00000
01000
00000
00000
00001
00000
00000
01000
00000
00000
00001
00000
00000
10000
00000
00010
00000
10000
00000
00100
00000
01000
00000
00001
00000
01000
00000
00100
00000
10000
00000
00010
00000
10000
00000
00000
00000
,
10001
00000
00000
00000
10000
00100
10000
00010
10000
00100
10000
00010
10000
00100
10000
00010
,
10000
00100
10000
00010
10000
00100
10000
00010
10000
00100
10000
00010
10000
00100
10000
00010
,
01000
00100
01000
00010
01000
00100
01000
00010
01000
00100
01000
00010
01000
00100
01000
00010
,
01000
00100
01000
00010
01000
00100
01000
00010
01000
00100
01000
00010
01000
00100
01000
00010
,
01000
00001
00100
00001
01000
00001
00100
00001
01000
00001
00100
00001
01000
00001
00100
00001
,
01000
00000
00000
00000
;
