#TITLE:Boom Boom Boom;
#SUBTITLE:[Techno Dance Trance Mix];
#ARTIST:Vengaboyz;
#TITLETRANSLIT:;
#SUBTITLETRANSLIT:;
#ARTISTTRANSLIT:;
#CREDIT:;
#BANNER:BBB-bn.jpg;
#BACKGROUND:BBB-bg.jpg;
#LYRICSPATH:;
#CDTITLE:dx.png;
#MUSIC:Vengaboys - Boom Boom Boom (Techno Trance Dance Mix).ogg;
#OFFSET:-0.400;
#SAMPLESTART:43.724;
#SAMPLELENGTH:12.000;
#SELECTABLE:YES;
#BPMS:0.000=138.490;
#STOPS:;
#BGCHANGES:;
// cache tags:
#FIRSTBEAT:16.000;
#LASTBEAT:461.000;
#SONGFILENAME:Songs/lvsb tourney pack/Vengaboys - Boom Boom Boom (Techno Trance Dance Mix)-ITGREADY/Vengaboys - Boom Boom Boom (Techno Trance Dance Mix).sm;
#HASMUSIC:1;
#HASBANNER:0;
#MUSICLENGTH:105.000;
// end cache tags

//---------------dance-single - ----------------
#NOTES:
     dance-single:
     :
     Challenge:
     9:
     1.000,1.000,0.962,1.000,0.357,726.000,101.000,126.000,10.000,17.000:


0000
0000
0000
0000
,
0000
0000
0000
0000
,
0000
0000
0000
0000
,
0000
0000
0000
0000
,
2000
0000
3100
0010
0002
0000
0103
0020
,
0030
0000
0000
0000
0000
0000
0000
1000
0001
0000
1000
0000
0001
0000
0000
0000
,
2000
0000
3010
0100
0002
0000
0013
0100
,
2000
3200
0302
0203
2300
3020
0230
0300
,
1001
0100
0001
0100
1000
0010
0100
0001
,
1000
0100
0010
0100
1000
0001
0010
0100
,
0010
0001
1000
0010
0100
0010
1000
0100
,
0001
0100
1000
0010
0100
0001
1000
0100
,
2000
0000
3010
0100
2000
0000
3100
0001
,
0000
0000
0000
0000
0000
0000
0000
1000
0001
0000
1000
0000
0100
0000
0000
0000
,
2000
0000
3100
1000
0020
0000
0130
0001
,
1000
0000
0100
0000
0010
0000
0001
0010
0100
0000
1000
0000
2002
0000
3003
0000
,
1000
0010
0100
0010
0100
0001
1000
0100
,
1000
0010
0100
0001
0010
0001
0100
0010
,
1000
0100
0001
0100
1000
0001
0100
0010
,
0100
0001
1000
0100
0010
0100
1000
0010
,
1000
0020
0230
0302
2003
0000
3200
0320
,
0032
2003
3020
0000
0030
0000
0000
0000
,
0000
0002
0203
0320
2030
3020
0230
0302
,
1003
0000
0100
0000
0010
0000
0001
1000
0100
0000
1000
0000
2002
0000
3003
0000
,
2200
0000
0010
0001
0020
3300
0001
0100
,
0030
0000
0000
0000
0000
0000
0000
0002
0200
0000
1000
0000
0010
0000
0303
0000
,
2000
0000
3200
0320
0230
0000
2300
3020
,
0030
0000
0000
0000
0000
0000
0000
0000
0000
0000
0000
0000
0000
0000
0000
0000
0000
0000
0000
0000
0000
0000
0000
0000
0101
0000
0000
0000
0000
0000
0000
0000
0000
0000
0000
0000
0000
0000
0000
0000
0000
0000
0000
0000
0000
0000
0000
0000
1001
0000
0000
0000
0000
0000
0000
0000
0000
0000
0000
0000
0000
0000
0000
0000
0000
0000
0000
0000
0000
0000
0000
0000
1100
0000
0000
0000
0000
0000
0000
0000
0000
0000
0000
0000
0000
0000
0000
0000
0000
0000
0000
0000
0000
0000
0000
0000
1000
0002
0000
0000
0000
0000
0000
0000
0000
0000
0000
0000
0000
0000
0000
0003
0000
0000
0000
0000
0000
0000
0000
0000
0000
0000
0000
0000
0000
0000
0000
0000
0000
0000
0000
0000
0000
0000
0000
0000
0000
0000
0000
0000
0000
0000
0000
0000
0000
0000
0000
0000
0000
0000
0000
0000
0000
0000
0000
0000
0000
0000
0000
0000
0000
0000
0000
0000
0000
0000
0000
0000
0000
0000
0000
0000
0000
0000
0000
0000
0000
0000
0000
0000
0000
0000
0000
0000
0000
0000
0000
0000
0000
0000
0000
0000
,
0002
0000
0013
0100
0002
0000
0103
1000
,
0010
0100
0001
1000
0100
0010
0001
0000
,
2002
0000
0010
0010
0020
0003
0100
0100
,
3030
1110
1101
1011
,
1001
0000
0000
0010
0100
0001
1000
0100
,
0020
0000
0000
0000
0030
0000
0001
0100
0010
0000
0100
0000
0001
0000
1000
0000
,
1100
0000
0000
1001
0000
0000
0010
0000
0100
0000
0001
0000
1000
0000
0100
0000
,
0010
0000
0000
0001
0011
0000
0000
0000
0110
0000
0000
0000
1100
0000
0000
0000
,
1001
0000
0000
1000
0010
0100
0001
1000
,
0200
0000
0000
0000
0300
0000
0010
0001
1000
0000
0010
0000
0100
0000
0001
0000
,
1000
0000
0000
0011
0000
0000
1000
0000
0010
0000
0100
0000
0001
0000
1000
0000
,
0200
0000
0000
0000
0000
0000
1300
0010
0100
0000
0001
0000
1000
0000
0100
0000
,
0010
0000
0000
0001
0000
0000
1000
0000
0010
0000
1000
0000
0100
0000
0001
0000
,
0100
0000
0000
1000
0000
0000
0010
0100
0001
0000
1000
0000
0100
0000
0010
0000
,
0100
0000
0000
1000
0000
0000
0010
0100
0001
0000
0001
0000
1000
0000
0100
0000
,
2002
0000
0000
0010
3003
0000
1000
0001
0010
0000
0100
0000
1000
0000
0010
0000
,
0100
0000
0000
0101
0000
0000
0001
0000
0010
0000
0100
0000
1000
0000
0100
0000
,
0010
0000
0000
0001
0000
0000
1000
0001
0100
0000
1000
0000
0100
0000
0001
0000
,
0010
0000
0000
0100
0000
0000
1000
0100
0010
0000
0001
0000
0010
0000
0100
0000
,
2200
0000
0000
0022
0000
0000
0000
0000
3333
0000
0000
0000
MMMM
0000
0000
0000
,
2000
0000
3010
0100
0002
0000
1003
0100
,
2000
3020
0032
0023
2030
3200
2300
3000
,
0020
0000
0130
0001
0020
0000
0130
1000
,
0020
0230
0302
2003
0200
0020
0002
3333
,
2000
0000
3100
0010
0200
0000
1300
0010
,
1001
1100
0110
0011
0110
1100
1001
0000
,
2001
0000
3100
1000
2100
0000
0001
3100
,
MM00
2000
3020
0230
2300
3200
0320
0030
,
2000
0000
3100
0010
0012
0000
0100
0013
,
0011
0110
1100
0110
0011
1001
0110
0000
,
1020
0000
0130
0001
0021
0000
0100
0031
,
MMMM
0011
0110
1100
,
1001
0000
0000
0000
0000
0000
0100
0010
0001
0000
1000
0000
0010
0000
0100
0000
,
0002
0000
1003
0100
0010
0100
1000
0001
,
0100
0000
0000
1010
0000
0000
0100
0001
0010
0000
0100
0000
1000
0000
0010
0000
,
0100
0000
0000
0001
0101
0000
0000
0000
0110
0000
0000
0000
1010
0000
0000
0000
,
1001
0000
0000
0000
0000
0000
1000
0100
1000
0000
0010
0000
0100
0000
0001
0000
,
1000
0000
0000
0000
0000
0000
0100
0010
0001
0000
1000
0000
0010
0000
0100
0000
,
0001
0000
0000
1100
0000
0000
0010
0001
0010
0000
0100
0000
1000
0000
0010
0000
,
0100
0000
0000
0001
0011
0000
0000
0000
0110
0000
0000
0000
1100
0000
0000
0000
,
0011
0000
1000
0000
0100
0000
1000
0010
0100
0000
0001
0000
1000
0000
0100
0000
,
0010
0000
0000
0001
0100
0010
0100
0001
,
1000
0000
0000
1100
0000
0000
0100
0000
0010
0000
0001
0000
0010
0000
0100
0000
,
1000
0000
0000
0010
0110
0000
0000
0000
0101
0000
0000
0000
0011
0000
0000
0000
,
0110
0000
0000
1000
0010
0100
0001
1000
,
0100
0000
0000
0000
0000
0000
1000
0010
0100
0000
0001
0000
1000
0000
0100
0000
,
1000
0000
0000
1010
0000
0000
0010
0000
0100
0000
0001
0000
1000
0000
0100
0000
,
0022
0000
0033
0000
,
1001
0000
0100
1000
0010
0000
0100
0001
0010
0000
0010
0000
1100
0000
1000
0010
,
0100
0000
0001
0010
0100
0010
0001
1000
0002
0000
0003
0000
0200
0000
0300
0000
,
1010
0000
0100
0001
1000
0000
0100
1000
0001
0000
1000
0000
1100
0000
0010
0100
,
0001
0000
1000
0100
0010
0001
1000
0100
0020
0000
0030
0000
0002
0000
0003
0000
,
1000
0010
0100
0001
1000
0100
2200
3300
,
1000
0100
1000
0010
2002
3003
0220
0330
,
1000
0100
0010
0001
0010
0100
2200
3300
,
0001
0100
0010
1000
2002
3003
2200
3300
,
2000
0000
3100
1000
0020
0000
0130
0001
,
0000
0000
0000
0000
,
0002
0000
0103
0010
2000
0000
3100
0001
,
0100
0000
1000
0000
0010
0000
0100
0001
0010
0000
0100
0000
2200
0000
3300
0000
,
2000
0000
3010
0100
2000
0000
3100
0001
,
0000
0000
0000
0000
,
0200
0000
0310
1000
0200
0000
0310
0001
,
1001
0000
0000
0000
0000
0000
0010
0100
0001
0000
1000
0000
0100
0000
0010
0000
,
0100
0000
0000
1100
0000
0000
1000
0000
0010
0000
0100
0000
0001
0000
1000
0000
,
0100
0000
0000
0110
0000
0000
0010
0001
1000
0000
0010
0000
0100
0000
0001
0000
,
1000
0000
0000
1100
0000
0000
0100
0000
0001
0000
0100
0000
1000
0000
0010
0000
,
0100
0000
0000
0101
0000
0000
0001
0010
0100
0000
0010
0000
0001
0000
1000
0000
,
0010
0000
0000
0101
0000
0000
0010
0000
1000
0000
0100
0000
0001
0000
0100
0000
,
1000
0000
0000
1010
0000
0000
0010
0100
0001
0000
1000
0000
0100
0000
0010
0000
,
0100
0000
0000
1100
0000
0000
0010
0000
0100
0000
0001
0000
1000
0000
0100
0000
,
1000
0000
0000
0001
0011
0000
0000
0000
0110
0000
0000
0000
1100
0000
0000
0000
,
1001
0000
0000
0010
0100
0001
1000
0100
,
0020
0000
0000
0000
0030
0000
0001
0010
0100
0000
1000
0000
0010
0000
0100
0000
,
0001
0000
0000
1100
0000
0000
0010
0100
0001
0000
1000
0000
0100
0000
0010
0000
,
0100
0000
0000
1000
1010
0000
0000
0000
0110
0000
0000
0000
0101
0000
0000
0000
,
1001
0000
0000
1000
0100
1000
0010
0100
,
2000
0000
0000
0000
3000
0000
0100
0001
0010
0000
0100
0000
1000
0000
0010
0000
,
0100
0000
0000
0101
0000
0000
0001
0000
0010
0000
0100
0000
0010
0000
0001
0000
,
1000
0000
0000
0010
0110
0000
0000
0000
0101
0000
0000
0000
1001
0000
0000
0000
,
1100
0000
0000
0000
0000
0000
1000
0100
0010
0000
0001
0000
0010
0000
0100
0000
,
1000
0000
0000
0010
0001
0010
1000
0100
,
0010
0000
0000
0011
0000
0000
0001
0100
0010
0000
0100
0000
0001
0000
1000
0000
,
0100
0000
0000
0010
0011
0000
0000
0000
1001
0000
0000
0000
1100
0000
0000
0000
,
0110
0001
0100
1000
0100
0001
1000
0100
,
0010
0100
1000
0001
0100
0010
0100
0001
,
1000
0010
0100
0001
1000
0100
0010
0100
,
2000
3000
0000
0000
;
