#TITLE:Solstice Intro;
#SUBTITLE:Solstice;
#ARTIST:Tom Follin;
#TITLETRANSLIT:;
#SUBTITLETRANSLIT:;
#ARTISTTRANSLIT:;
#CREDIT:;
#BANNER:Solstice Intro.png;
#BACKGROUND:Solstice Intro-bg.png;
#LYRICSPATH:;
#CDTITLE:!macTitle.png;
#MUSIC:Solstice Intro.mp3;
#OFFSET:-0.100;
#SAMPLESTART:16.066;
#SAMPLELENGTH:12.000;
#SELECTABLE:YES;
#BPMS:0.000=75.145,20.000=150.290,134.000=75.145,146.000=150.290;
#STOPS:131.333=0.033
;
#BGCHANGES:;
// cache tags:
#FIRSTBEAT:0.000;
#LASTBEAT:197.000;
#SONGFILENAME:Songs/VGMP 2/Solstice Intro (MacGravel)/Solstice Intro.sm;
#HASMUSIC:1;
#HASBANNER:1;
#MUSICLENGTH:94.936;
// end cache tags

//---------------dance-single - Blank----------------
#NOTES:
     dance-single:
     Blank:
     Hard:
     11:
     1.000,1.000,1.000,0.558,1.000,574.000,159.000,53.000,0.000,13.000:

2001
0000
0000
0000
0000
0000
0000
0000
0000
3000
0000
0000
1002
0000
0000
0000
0000
0000
0000
0000
0000
0003
0000
0000
0100
0000
0010
0000
1000
0000
0001
0000
1000
0000
0010
0000
0100
0000
0010
0000
1000
0000
0001
0000
1000
0000
0010
0000
,
0201
0000
0000
0000
0000
0000
0000
0000
0000
0300
0000
0000
1020
0000
0000
0000
0000
0000
0000
0000
0000
0030
0000
0000
1000
0000
0000
0100
0010
0100
0010
0000
0000
0001
0000
0000
0010
0100
0010
0100
0000
0000
1000
0000
0000
0001
0000
0000
,
0210
0000
0000
0000
0000
0000
0000
0000
0000
0300
0000
0000
0120
0000
0000
0000
0000
0000
0000
0000
0000
0030
0000
0000
1000
0000
0100
0000
0010
0000
0001
0000
0010
0000
0100
0000
1000
0000
0100
0000
0010
0000
0001
0000
0010
0000
0100
0000
,
2001
0000
0000
0000
0000
0000
0000
0000
0000
3000
0000
0000
1002
0000
0000
0000
0000
0000
0000
0000
0000
0003
0000
0000
0100
0000
0000
0001
1000
0001
1000
0000
0000
0010
0000
0000
0100
0001
0100
0001
0000
0000
1000
0000
0000
0100
0000
0000
,
0011
0000
0000
1000
0000
0000
0100
0010
0100
0010
0000
0000
0001
0000
0000
1000
0010
1000
0010
0000
0000
0100
0000
0000
0001
1000
0001
1000
0000
0000
0100
0000
0000
0010
0001
0010
0001
0000
0000
0100
0000
0000
0010
1000
0010
1000
0000
0000
,
0101
0000
0000
0000
0000
0000
0000
0000
0000
0000
0000
0000
0000
0000
0000
0000
0010
0000
0000
0000
0000
0000
0000
0000
0000
0000
0000
0000
0000
0000
0000
0000
0100
0000
0000
0000
0000
0000
0000
0000
0000
0000
0000
0000
0000
0000
0000
0000
1001
0000
0000
0000
0000
0000
0000
0000
0000
0000
0000
0000
0000
0000
0000
0000
0010
0000
0000
0000
0000
0000
0000
0000
0000
0000
0000
0000
0000
0000
0000
0000
0100
0000
0000
0000
0000
0000
0000
0000
0000
0000
0000
0000
0000
0000
0000
0000
0011
0000
0000
0000
0000
0000
0000
0000
0000
0000
0000
0000
0000
0000
0000
0000
0100
0000
0000
0000
0000
0000
0010
0000
0000
0000
0000
0000
0100
0000
0000
0000
0000
0000
0010
0000
0000
0000
0000
0000
0000
0000
0000
0000
0000
0000
0000
0000
1001
0000
0000
0000
0000
0000
0000
0000
0000
0000
0000
0000
0000
0000
0000
0000
0010
0000
0000
0000
0000
0000
0100
0000
0000
0000
0000
0000
0010
0000
0000
0000
0000
0000
0100
0000
0000
0000
0000
0000
0000
0000
0000
0000
0000
0000
0000
0000
,
1001
0010
1000
0110
0001
0100
1010
0100
0001
1100
0010
0101
,
0011
0000
0000
0000
0000
0000
0000
0000
0000
0000
0000
0000
0000
0000
0000
0000
1000
0000
0000
0000
0000
0000
0000
0000
0000
0000
0000
0000
0000
0000
0000
0000
0100
0000
0000
0000
0000
0000
0000
0000
0000
0000
0000
0000
0000
0000
0000
0000
1010
0000
0000
0000
0000
0000
0000
0000
0000
0000
0000
0000
0000
0000
0000
0000
0001
0000
0000
0000
0000
0000
0000
0000
0000
0000
0000
0000
0000
0000
0000
0000
0010
0000
0000
0000
0000
0000
0000
0000
0000
0000
0000
0000
0000
0000
0000
0000
1100
0000
0000
0000
0000
0000
0000
0000
0000
0000
0000
0000
0000
0000
0000
0000
0001
0000
0000
0000
0000
0000
0010
0000
0000
0000
0000
0000
0001
0000
0000
0000
0000
0000
0010
0000
0000
0000
0000
0000
0000
0000
0000
0000
0000
0000
0000
0000
0101
0000
0000
0000
0000
0000
0000
0000
0000
0000
0000
0000
0000
0000
0000
0000
1000
0000
0000
0000
0000
0000
0010
0000
0000
0000
0000
0000
1000
0000
0000
0000
0000
0000
0010
0000
0000
0000
0000
0000
0000
0000
0000
0000
0000
0000
0000
0000
,
0101
1000
0100
0011
1000
0001
0110
1000
0010
0101
0010
0101
,
2001
3010
1000
0210
0301
0020
0132
2003
3020
0231
0310
0002
,
2003
3001
2000
3021
0130
0020
0231
0320
2030
3102
1003
0012
,
1203
0310
1000
0021
0130
2000
3210
2300
3002
0123
1030
0020
,
0231
0301
0200
2301
3010
2000
3210
0302
0203
2310
3001
2010
,
3101
0000
0001
1010
0000
1000
0011
0100
1001
0000
1001
0000
,
0101
0000
0001
0110
0000
0010
0101
1000
0010
1100
0001
0100
,
0011
0000
0010
1100
0000
0100
1001
0010
0101
0000
0101
0000
,
1010
0000
1000
0110
0000
0010
0101
0010
0100
1001
0100
0010
,
1010
0000
1000
0101
0000
0001
1100
0010
1001
0000
1001
0000
,
1010
0000
1000
0110
0000
0100
1010
0001
0100
0011
1000
0010
,
1100
0000
0100
0011
0000
0010
1001
0100
1010
0000
1010
0000
,
0101
0000
0001
0110
0000
0100
1010
0100
0010
1001
0010
0100
,
0002
0000
0000
0000
0000
0000
0000
0000
0000
0000
0000
0000
1000
0000
0000
0000
0000
0000
0000
0000
0000
0003
0000
0000
1000
0000
0000
0000
0110
0000
0000
0000
0110
0000
0000
0000
0001
0000
0000
0000
0110
0000
0000
0000
0110
0000
0000
0000
,
1000
0001
1000
0001
1000
0001
1000
0001
1000
0001
1000
0001
0110
0000
0001
0000
0110
0000
1000
0000
0110
0000
0001
0000
,
2010
0000
0000
0000
0000
0000
0000
0000
0000
0000
0000
0000
0010
0000
0000
0000
0000
0000
0000
0000
0000
3000
0000
0000
0010
0000
0000
0000
0101
0000
0000
0000
0101
0000
0000
0000
1000
0000
0000
0000
0101
0000
0000
0000
0101
0000
0000
0000
,
0010
1000
0010
1000
0010
1000
0010
1000
0010
1000
0010
1000
0101
0000
0010
0000
0101
0000
1000
0000
0101
0000
0010
0000
,
0101
0001
0001
0110
0100
0100
1010
1001
1001
0100
1001
1001
,
0110
0010
0010
1001
1000
1000
0101
0010
0101
1000
0101
0010
,
0101
0001
0001
1010
1000
1000
0100
0011
0011
1000
0011
0011
,
1100
0100
0100
0011
0010
0010
1001
0100
1001
0010
1001
0100
,
1001
0100
0010
1001
0100
0010
0101
0101
0101
0000
0101
0000
,
1001
0010
0100
1001
0010
0100
1010
1010
1010
0000
1010
0000
,
0101
0010
1000
0101
0010
1000
0011
0011
0011
0000
0011
0000
,
1010
0100
0001
1010
0100
0001
1100
1100
1100
0000
1100
0000
,
0000
0000
0000
0000
0000
0000
0000
0000
1100
0000
0000
0000
1100
0000
0000
0000
1100
0000
0000
0000
0000
0000
0000
0000
1001
0000
0000
0010
0100
0010
0100
0000
0000
0001
0000
0000
0100
0000
0000
0010
0000
0000
1000
0000
0000
0010
0000
0000
,
0100
0000
0001
0000
1000
0000
0000
0000
0001
0010
0001
0000
0010
0100
0010
0000
0100
1000
0100
0000
1000
0000
0001
0000
0100
0000
0010
0000
1000
0000
0010
0000
,
0100
0000
0000
0000
0000
0000
0000
0000
0000
0000
0000
0000
0001
0000
0000
0000
1000
0000
0000
0000
0001
0000
0000
0000
1000
0000
0000
0000
0000
0000
0000
0000
0000
0000
0000
0000
0100
0000
0000
0000
0000
0000
0000
0000
0000
0000
0000
0000
0010
0000
0000
0000
0000
0000
0000
0000
0000
0000
0000
0000
0001
0000
0000
0000
0000
0000
0000
0000
0000
0000
0000
0000
1000
0000
0000
0000
0000
0000
0000
0000
0000
0000
0000
0000
0100
0000
0000
0000
0000
0000
0000
0000
0000
0000
0000
0000
0010
0000
0000
0000
0000
0000
0000
0000
0000
0000
0000
0000
0100
0000
0000
0000
0000
0000
0000
0000
0000
0000
0000
0000
1000
0000
0000
0000
0000
0000
0000
0000
0000
0000
0000
0000
0000
0000
0000
0000
0000
0000
0000
0000
0000
0000
0000
0000
1000
0000
0000
0000
0000
0000
0100
0000
0000
0000
0000
0000
1000
0000
0000
0000
0000
0000
0000
0000
0000
0000
0000
0000
0100
0000
0000
0000
0000
0000
0010
0000
0000
0000
0000
0000
0100
0000
0000
0000
0000
0000
0000
0000
0000
0000
0000
0000
,
0010
0001
0010
0000
0001
0000
1000
0000
0010
0000
0100
0000
0001
0000
0100
0000
2010
0000
0000
0000
0000
0000
0000
0000
0000
0000
0000
0000
3002
0000
0000
0000
,
0000
0000
0000
0000
0203
0000
0000
0000
0000
0000
0320
0000
0000
0000
1030
0100
,
1002
0000
0000
2003
0000
0000
3200
0000
,
0000
0000
0000
0000
0000
0000
0310
0000
0000
0001
0000
0000
0110
0000
0000
0000
0000
0000
0000
0000
0000
0000
0000
0000
0011
0000
0000
0000
0000
0000
1000
0000
0100
0000
1000
0000
0100
0000
0000
0000
0000
0000
1000
0000
0000
0000
0000
0000
,
0010
0000
1000
0000
0100
0000
0010
0000
0001
0000
0100
0000
0010
0000
0001
1000
,
0110
0001
0010
0000
0100
0010
0100
0000
1000
0100
1000
0000
0001
0000
0100
0000
,
0010
0000
1000
0001
0110
0000
1000
0000
0101
1000
0100
0000
0010
0100
0010
0000
,
0001
0000
0000
0010
0000
0000
0001
0000
0000
0000
0000
0000
1000
0000
0000
0000
0000
0000
0010
0000
0100
0000
0010
0000
0100
0000
0000
0000
0000
0000
0001
0000
0000
0000
0000
0000
1000
0000
0000
0000
0000
0000
0010
0000
0000
0100
0000
0000
,
1001
0000
0000
0100
0010
0100
0010
0000
0000
1000
0000
0000
0001
0010
0001
0010
0000
0000
0100
0000
0000
1000
0000
0000
,
0001
0000
0010
0100
1010
0000
0100
0000
1001
0100
0010
1000
0001
0000
1000
0010
,
0100
0001
1000
0000
0100
0000
0010
0000
0001
0000
0100
0000
0010
0000
1000
0100
,
0011
0100
1000
0000
0001
0010
0100
0000
0010
0100
1000
0000
0001
0010
0100
1000
,
0001
1000
0100
0010
1001
0010
0100
0010
2002
0000
0000
0000
0000
0000
0000
0000
,
0000
3003
0000
0000
;
