#TITLE:The World Of LSD User;
#SUBTITLE:EXoduz Violation II;
#ARTIST:Kurwastyle Project;
#TITLETRANSLIT:;
#SUBTITLETRANSLIT:;
#ARTISTTRANSLIT:;
#CREDIT:;
#BANNER:../banner.png;
#BACKGROUND:../background.png;
#LYRICSPATH:;
#CDTITLE:;
#MUSIC:The World Of LSD User.ogg;
#OFFSET:0.790;
#SAMPLESTART:97.083;
#SAMPLELENGTH:11.700;
#SELECTABLE:YES;
#DISPLAYBPM:250.000;
#BPMS:0.000=250.000,36.000=249.000,48.000=250.000,52.000=249.000,60.000=250.000,64.000=249.000,96.000=260.000,100.000=249.000,104.000=250.000,116.000=249.000,120.000=250.000,144.000=249.000,148.000=250.000,160.000=249.000,164.000=250.000,172.000=249.000,176.000=251.000,180.000=250.000,213.000=249.000,221.000=250.000,249.000=249.000,258.000=250.000,371.000=280.000,373.000=250.000,429.000=249.000,465.000=375.000,498.000=750.000,562.000=125.000,766.000=2400.000,822.000=300.000;
#STOPS:164.000=7.440
,497.000=3.040
;
#BGCHANGES:;
// cache tags:
#FIRSTBEAT:4.000;
#LASTBEAT:578.000;
#SONGFILENAME:Songs/EXoduz Violation II/The World Of LSD User - [Ov3rHell3XoduZ]/sm.sm;
#HASMUSIC:1;
#HASBANNER:1;
#MUSICLENGTH:141.568;
// end cache tags

//---------------dance-single - ----------------
#NOTES:
     dance-single:
     :
     Beginner:
     16:
     0.974,1.000,0.021,0.339,1.000,913.000,3.000,48.000,206.000,0.000:
0000
0000
0000
0000
,
2000
3002
0203
0300
0010
0000
1000
0000
,
0100
0010
0001
1000
,
0002
0203
0302
0023
0032
0003
1000
0000
,
0100
0000
0020
0032
2003
3000
0000
0000
,
0002
0203
0320
0030
1000
0000
0100
0000
,
0010
0001
1000
0001
,
2000
3200
0320
0032
2003
3000
0001
0000
,
1000
0000
0200
0320
0030
0000
0002
2003
,
3200
0320
0032
0003
1000
0000
0001
0000
,
0100
0010
1000
0001
,
0020
0230
2300
3200
0320
0030
0001
0000
,
1000
0000
0002
0203
0302
0003
0000
0000
,
2000
3200
0320
0030
0001
0000
0100
0000
,
0010
1000
0001
0010
,
0000
0100
0000
M0MM
0000
0000
0000
0000
0000
0000
0000
0000
0000
0000
0000
0000
0000
0000
0000
0000
0000
0000
0000
0000
0000
0000
0000
0000
0000
0000
0000
0000
0000
0000
0000
0000
0000
0000
0000
0000
0000
0000
0000
0000
0000
0000
0000
0000
0000
0100
0000
M0MM
0000
0000
0000
0000
0000
0000
0000
0000
0000
0000
0000
0000
0000
0000
0000
0000
0000
0000
0000
0000
0000
0000
0000
0000
0000
0000
0000
0000
0000
0000
0000
0000
0000
0000
0000
0000
0000
0000
0000
0000
0000
0000
0000
0000
0000
0100
0000
M0MM
0000
0000
0000
0000
0000
0000
0000
0000
0000
0000
0000
0000
0000
0000
0000
0000
0000
0000
0000
0000
0000
0000
0000
0000
0000
0000
0000
0000
0000
0000
0000
0000
0000
0000
0000
0000
0000
0000
0000
0000
0000
0000
0000
0000
0000
1000
0000
0MMM
0000
0000
0000
0000
0000
0000
0000
0000
0000
0000
0000
0000
0000
0000
0000
0000
0000
0000
0000
0000
0000
0000
0000
0000
0000
0000
0000
0000
0000
0000
0000
0000
0000
0000
0000
0000
0000
0000
0000
0000
0000
0000
0000
0000
,
0000
1000
0000
0MMM
0000
0000
0000
0000
0000
0000
0000
0000
0000
0000
0000
0000
0000
0000
0000
0000
0000
0000
0000
0000
0001
0000
0000
0000
0000
0000
0000
0000
0000
0000
0000
0000
0000
0000
0000
0000
0000
0000
0000
0000
0000
0000
0000
0000
0100
0000
0000
0000
0000
0000
0000
0000
0000
0000
0000
0000
0000
0000
0000
0000
0000
0000
0000
0000
0000
0000
0000
0000
0001
0000
0000
0000
0000
0000
0000
0000
0000
0000
0000
0000
0000
0000
0000
0000
0000
0000
0000
0000
0000
0000
0000
0000
0010
0000
0000
0000
0000
0000
0000
0000
0000
0000
0000
0000
0000
0000
0000
0000
0000
0000
0000
0000
0000
0000
0000
0000
0001
0000
0000
0000
0000
0000
0000
0000
0000
0000
0000
0000
0000
0000
0000
0000
0000
0000
0000
0000
0000
0000
0000
0000
0100
0000
0000
0000
0000
0000
0000
0000
0000
0000
0000
0000
0000
0000
0000
0000
0000
0000
0000
0000
0000
0000
0000
0000
0001
0000
0000
0000
0000
0000
0000
0000
0000
0000
0000
0000
0000
0000
0000
0000
0000
0000
0000
0000
0000
0000
0000
0000
,
1000
0000
0000
0000
,
0000
0000
0000
0000
,
0000
0000
0000
0000
,
0000
0000
0000
0000
,
0000
0000
0000
0000
,
0000
0000
0000
0000
,
0000
0000
0000
0000
,
0000
0000
0000
0000
,
1000
0001
0100
0001
0010
0100
1000
0001
,
1000
0000
0000
0000
0000
0000
0100
0000
0000
0000
0000
0000
1000
0000
0000
0000
0000
0000
0001
0000
0000
0100
0000
0000
0001
0000
0000
0000
0000
0000
1000
0000
0000
0000
0000
0000
0001
0000
1000
0000
0001
0000
1000
0000
0000
0100
0000
0000
,
0010
0001
0100
0001
0010
0100
1000
0001
,
0100
0000
0001
0000
1000
0000
0010
0000
0200
0000
0000
0000
0301
1000
0001
1000
,
0100
0010
0001
0000
1000
0000
0100
0000
,
0010
0000
0000
0000
0000
0000
0001
0100
0001
0100
0000
0000
0010
0000
0000
0000
0000
0000
1000
0000
0000
0000
0000
0000
,
0001
0010
0100
1000
0001
0000
1000
0000
,
0100
0000
0010
0001
0000
0000
1000
0001
,
1000
0000
0100
0000
1000
0000
0100
0000
1000
0000
0100
0000
1000
0000
0000
0000
0000
0000
0000
0000
0000
0000
0000
0000
0010
0000
0000
0000
0000
0000
0000
0000
0000
0000
0000
0000
1000
0001
1000
0000
0000
0000
0001
0100
0001
0000
0000
0000
,
1000
0000
0000
0000
0000
0000
0000
0000
0000
0000
0000
0000
0010
0000
0000
0000
0000
0000
0000
0000
0000
0000
0000
0000
1000
0000
0000
0000
0000
0000
0000
0000
0000
0000
0000
0000
0001
0100
0001
0000
0000
0000
1000
0100
1000
0000
0000
0000
,
0001
0010
0100
1000
0001
0000
1000
0000
,
0001
0100
0001
0100
0001
0400
0004
0000
0000
0000
0000
0000
0000
0000
0000
0000
0000
0000
0000
0000
0000
0303
0000
0000
,
0010
0000
0000
0000
0000
0000
1000
0000
0000
0000
0000
0000
0100
0000
0000
0000
0000
0000
1000
0000
0000
0000
0000
0000
0001
0000
0000
0000
0000
0000
0100
0000
0000
0000
0000
0000
0001
1000
0001
0000
0000
0000
1000
0100
1000
0000
0000
0000
,
0001
0000
0000
0000
0000
0000
0100
0000
0000
0000
0000
0000
0001
0000
0000
0000
0000
0000
1000
0000
0000
0000
0000
0000
0001
0000
0000
0000
0000
0000
0010
0000
0000
0000
0000
0000
0001
0100
0001
0000
0000
0000
1000
0001
1000
0000
0000
0000
,
0010
0000
1000
0000
0001
0000
0100
0000
0001
0000
1000
0000
0010
0100
0001
1000
,
0001
0000
1000
0100
0000
0000
0010
0001
,
1000
0000
0000
0000
0001
0100
0001
0010
0100
1000
0001
0100
0001
1000
0010
1000
,
0100
0010
0001
1000
0001
0100
0001
0010
0100
1000
0001
0100
0001
1000
0100
0010
,
0001
1000
0100
1000
0010
0100
0001
0010
0001
1000
0100
0010
0001
1000
0001
0100
,
0001
0010
0100
1000
0010
0100
0010
1000
0100
0010
0001
1000
0001
0010
0001
1000
,
0001
0000
0000
0000
0000
0000
1000
0100
1000
0100
1000
0100
1000
0000
0000
0000
0000
0000
0001
0100
0001
0100
0001
0100
,
0001
0000
0000
0000
0000
0000
1000
0010
1000
0010
1000
0010
1000
0000
0000
0000
0000
0000
0001
0010
0001
0010
0001
0010
,
0001
0000
0000
0000
0000
0000
1000
0001
1000
0001
1000
0001
1000
0000
0000
0000
0000
0000
0001
1000
0001
1000
0001
1000
,
0001
0000
0000
0000
0000
0000
1000
0100
1000
0100
1000
0100
1000
0000
0000
0000
0000
0000
0001
1000
0001
1000
0001
1000
,
0001
0000
1000
0100
1000
0001
1000
0001
,
0010
0100
1000
0100
0010
0001
1000
0001
,
0100
0001
1000
0010
0100
0010
1000
0001
,
0010
0000
0100
0000
1000
0100
1000
0100
0010
0001
1000
0001
0100
0001
0010
0001
,
0010
0100
1000
0001
1000
0000
0100
0000
0010
0000
0100
0000
1000
0000
0010
0000
,
0100
0001
1000
0001
0010
0001
1000
0100
,
0010
0001
1000
0000
0001
0100
0001
0010
,
0001
1000
0100
1000
0002
0013
0200
1300
,
0002
0003
0000
0000
0000
0000
0000
0000
,
1000
0100
0000
0000
0010
0000
0000
0000
,
1000
0100
0000
0000
0010
0000
0000
0000
,
0001
0100
0000
0000
0010
0000
0000
0000
,
0001
0100
0001
0000
1000
0000
0000
0000
,
0100
0010
0001
0000
0000
0000
0000
0000
,
0000
2000
0000
3200
,
0000
0000
0000
0000
0000
0000
0310
0001
0010
0001
0000
0000
1000
0000
0000
0100
0000
0000
1000
0000
0000
0010
0000
0000
,
0100
0001
1000
0000
0000
0000
0000
0000
,
0000
0000
0000
0000
,
0000
0000
0000
0000
,
0000
0000
0000
0000
0000
0000
0000
0000
0000
0000
0000
0000
0000
0000
0000
0000
0000
0000
1000
0001
1000
0001
1000
0001
,
4000
0000
0000
3001
0100
0001
0010
0100
1000
0010
0100
0010
,
1000
0100
0010
0001
1000
0001
0100
0001
1000
0010
0100
0010
,
1000
0100
0010
0001
1000
0001
0100
0001
0010
0100
1000
0001
,
0010
0000
0001
0000
1000
0000
0200
0000
0000
0000
0000
0000
0320
0000
0000
0032
0000
0000
0000
0000
0000
2003
0000
0000
,
0000
0000
0000
3200
0000
0000
0310
0000
0001
0000
0100
0000
0001
0000
0010
0000
0100
0000
1000
0000
0001
0000
1000
0000
,
0100
0000
0000
0000
1000
0000
0000
0000
0010
0000
0000
0000
0100
0000
0000
0001
0000
0000
0100
0000
0000
0001
0000
0000
0010
0000
0000
0100
0000
0000
1000
0000
0000
0001
0000
0000
1000
0000
0000
0100
0000
0000
1000
0000
0000
0010
0000
0000
,
1000
0000
0000
0001
0000
0000
0100
0000
0000
0001
0000
0000
1000
0000
0000
0000
0100
0000
0000
0000
0010
0000
0000
0000
0001
0000
0000
0000
1000
0000
0000
0000
0001
0000
0000
0000
0100
0000
0000
0000
0001
0000
0000
0000
1000
0000
0000
0000
,
0010
0000
0000
0000
0100
0000
0000
0000
0001
0000
0000
0000
1000
0100
1000
0000
0000
0000
0000
0000
0000
0000
0000
0000
0001
1000
0001
0000
0000
0000
0000
0000
0000
0000
0000
0000
1000
0010
1000
0000
0000
0000
0000
0000
0000
0000
0000
0000
,
0001
0100
0001
0000
0000
0000
0000
0000
0000
0000
0000
0000
1000
0000
0100
0000
1000
0000
0100
0000
1000
0000
0100
0000
1000
0000
0000
0000
0000
0000
0000
0000
0000
0000
0000
0000
0001
0000
1000
0000
0001
0000
1000
0000
0001
0000
1000
0000
,
0001
0000
0000
0000
0000
0000
1000
0010
1000
0010
1000
0010
1000
0000
0000
0000
0000
0000
0001
0010
0001
0010
0001
0010
,
0001
0000
1000
0001
0100
0001
1000
0010
,
0100
0010
1000
0100
0010
0001
1000
0001
,
0010
0000
0000
0000
0001
0000
0000
0000
1000
0001
1000
0000
0000
0000
0000
0000
0001
0100
0001
0000
0000
0000
0000
0000
1000
0010
1000
0000
0000
0000
0000
0000
,
0001
0010
0001
0000
0000
0000
0000
0000
1000
0100
1000
0000
0000
0000
0000
0000
0001
0100
0001
0000
0000
0000
0000
0000
1000
0010
1000
0000
0000
0000
0000
0000
,
0001
0000
0000
0000
0000
0000
1000
0000
0000
0000
0000
0000
0001
0000
0000
0000
0000
0000
0000
0000
0000
0000
0000
0000
0000
0000
0000
0000
0000
0000
0000
0000
0000
0000
0000
0000
0000
0000
0000
0000
0000
0000
0000
0000
0000
0000
0000
0000
0001
0000
0000
0000
0000
0000
0000
0000
0000
0000
0000
0000
0000
0000
0000
0000
0100
0000
0000
0000
0000
0000
0000
0000
0000
0000
0000
0000
0000
0000
0000
0000
0001
0000
0000
0000
0000
0000
0000
0000
0000
0000
0000
0000
0000
0000
0000
0000
1000
0000
0000
0000
0000
0000
0000
0000
0000
0000
0000
0000
0000
0000
0000
0000
0100
0000
0000
0000
0000
0000
0000
0000
0000
0000
0000
0000
0000
0000
0000
0000
1000
0000
0000
0000
0000
0000
0000
0000
0000
0000
0000
0000
0000
0000
0000
0000
0010
0000
0000
0000
0000
0000
0000
0000
0000
0000
0000
0000
0000
0000
0000
0000
0100
0000
0000
0000
0000
0000
0000
0000
0000
0000
0000
0000
0000
0000
0000
0000
0010
0000
0000
0000
0000
0000
0000
0000
0000
0000
0000
0000
0000
0000
0000
0000
,
1000
0100
0010
0001
1000
0001
0100
0001
0010
0100
1000
0001
,
0100
0001
1000
0100
0000
0000
0000
0000
0000
0000
0000
0000
,
0000
0000
0000
0000
,
0000
0000
0000
0000
,
0000
0000
0000
0000
,
0000
1001
M000
0M00
,
00M0
000M
M000
00M0
,
0M00
0000
0001
1000
0100
0010
0001
0000
,
1000
0000
0001
0000
1000
0010
0100
0000
,
0000
0000
0001
0010
0100
0000
1000
0000
,
0001
0100
0010
1000
,
0001
0000
0010
0100
1000
0001
1000
0000
,
0001
0000
0010
0000
0100
1000
0000
0000
,
0001
0100
0010
1000
0001
0000
0010
0000
,
0100
1000
0001
1000
,
0100
0000
0010
0001
1000
0001
1000
0000
,
0100
0000
0010
0000
0001
1000
0010
0000
,
0000
0000
0100
0001
0010
0000
0100
0000
,
1000
0001
0100
0001
,
1000
0000
0100
0010
0001
1000
0001
0000
,
0100
0000
0000
0000
0010
0000
0000
0000
1000
0000
0100
0000
0010
0001
0100
0001
,
1000
0100
1000
0001
0100
0000
0000
0000
0000
0000
0000
0000
0000
0000
0000
0000
,
0000
0000
0000
0000
,
0000
0000
0000
0010
1000
0100
1000
0001
0100
0001
1000
0010
,
0100
0001
0010
0001
1000
0100
0010
0001
1000
0001
0100
0001
,
1000
0010
0100
0010
1000
0100
0010
0001
1000
0001
0100
0001
,
0010
0000
0000
0000
0100
0000
0000
0000
1000
0000
0000
0000
0001
0000
0000
0100
0000
0000
0001
0000
0000
0100
0000
0000
0010
0000
0000
1000
0000
0000
0100
0000
0000
0010
0000
0000
0001
0000
0000
1000
0000
0000
0001
0000
0000
0100
0000
0000
,
0001
0000
0000
1000
0000
0000
0001
0000
0000
1000
0000
0000
0010
0000
0000
0000
0100
0000
0000
0000
0001
0000
0000
0000
1000
0000
0000
0000
0001
0000
0000
0000
0010
0000
0000
0000
0100
0000
0000
0000
1000
0000
0000
0000
0001
0000
0000
0000
,
1000
0000
0000
0100
0000
0000
0010
0000
0000
0001
0000
0000
1000
0000
0000
0000
0100
0000
0000
0000
1000
0000
0000
0000
0001
0000
0000
0000
0100
0000
0000
0000
0001
0000
0000
0000
1000
0000
0000
0000
0010
0000
0000
0000
0100
0000
0000
0000
,
0001
0000
0000
0100
0000
0000
0001
0000
0000
1000
0000
0000
0010
0000
0000
0000
0100
0000
0000
0000
0001
0000
0000
0000
1000
0000
0000
0000
0001
0000
0000
0000
0010
0000
0000
0000
0100
0000
0000
0000
1000
0000
0000
0000
0001
0000
0000
0000
,
1000
0100
0010
0001
1000
0000
0100
0000
1000
0000
0010
0000
0100
0000
0001
0000
,
1000
0010
1000
0000
0000
0000
0000
0000
,
0000
0000
1000
0001
0100
0000
0010
0000
,
1000
0100
0010
0001
,
1000
0000
0001
0010
0001
0100
0001
0000
,
1000
0000
0100
0000
0010
0001
1000
0000
,
0000
0000
0001
0010
0100
0000
1000
0000
,
0001
0000
0000
1000
0100
1000
0100
1000
0100
1000
0100
1000
,
0100
1000
0100
0010
0001
0010
0001
0010
0001
0010
0001
0010
,
0001
0010
0001
1000
0010
1000
0010
1000
0010
1000
0010
1000
,
0010
0000
0000
0000
1000
0000
0000
0000
0010
0000
0000
0000
1000
0000
0000
0000
0000
0000
0000
0000
0000
0000
0000
0000
0001
0000
0000
0000
0000
0000
M000
0M00
M000
000M
0M00
000M
00M0
0M00
M000
00M0
0M00
000M
M000
000M
00M0
0M00
M000
000M
,
0M00
000M
M000
00M0
0M00
000M
M000
0M00
M000
00M0
0M00
000M
00M0
0M00
M000
000M
0M00
000M
M000
0000
0000
0000
0000
0000
1000
0000
0000
0000
0000
0000
0M00
M000
000M
0M00
000M
00M0
0M00
M000
000M
0M00
000M
M000
00M0
0M00
00M0
M000
0M00
00M0
,
000M
M000
000M
0M00
000M
00M0
0M00
M000
000M
0M00
000M
M000
00M0
0M00
000M
M000
000M
00M0
0M00
0000
0000
0000
0000
0000
1000
0000
0000
0000
0000
0000
000M
0M00
000M
M000
00M0
0M00
00M0
M000
0M00
00M0
000M
M000
0M00
M000
000M
0M00
000M
M000
,
00M0
0M00
00M0
M000
0M00
00M0
000M
M000
000M
0M00
000M
00M0
0M00
M000
000M
M000
00M0
0M00
000M
0000
0000
0000
0000
0000
1000
0000
0000
0000
0000
0000
0M00
00M0
000M
0M00
000M
00M0
0M00
M000
000M
0M00
000M
M000
00M0
0M00
00M0
M000
0M00
00M0
,
000M
M000
000M
0M00
000M
00M0
0M00
M000
000M
0M00
000M
M000
00M0
0M00
000M
M000
000M
00M0
0M00
0000
0000
0000
0000
0000
1000
0000
0000
0000
0000
0000
0000
0000
0000
0000
0000
0000
0100
0000
0000
0000
0000
0000
0000
0000
0000
0000
0000
0000
,
1000
0010
0100
0001
,
1000
0001
0010
0100
,
1000
0001
0100
0001
,
1000
0100
1000
MMMM
,
1000
MMMM
0001
MMMM
,
0001
MMMM
1000
MMMM
,
1000
MMMM
0001
MMMM
,
0001
0000
0000
MMMM
0000
0000
1000
0000
0100
0000
1000
0000
,
0100
0000
0010
0000
0001
0000
1000
0000
0001
0000
0100
0000
,
0001
0000
1000
0000
0010
0000
1000
0000
0100
0000
0010
0000
,
0100
0000
1000
0000
0001
0000
0100
0000
0001
0000
0010
0000
,
0100
0000
1000
0000
0001
0000
1000
0000
0000
0000
0000
0000
,
0000
0000
0000
0000
,
0000
0000
0000
0000
,
0000
0000
0000
0000
,
0000
0000
MMMM
0000
;

//---------------dance-single - ----------------
#NOTES:
     dance-single:
     :
     Easy:
     17:
     1.000,1.000,0.021,0.332,1.000,974.000,3.000,47.000,206.000,0.000:
0000
0000
0000
0000
,
2000
3002
0203
0300
0010
0000
1000
0000
,
0100
0010
0001
1000
,
0002
0203
0302
0023
0032
0003
1000
0000
,
0100
0000
0020
0032
2003
3000
0000
0000
,
0002
0203
0320
0030
1000
0000
0100
0000
,
0010
0001
1000
0001
,
2000
3200
0320
0032
2003
3000
0001
0000
,
1000
0000
0200
0320
0030
0000
0002
2003
,
3200
0320
0032
0003
1000
0000
0001
0000
,
0100
0010
1000
0001
,
0020
0230
2300
3200
0320
0030
0001
0000
,
1000
0000
0002
0203
0302
0003
0000
0000
,
2000
3200
0320
0030
0001
0000
0100
0000
,
0010
1000
0001
0010
,
0000
0100
0000
M0MM
0000
0000
0000
0000
0000
0000
0000
0000
0000
0000
0000
0000
0000
0000
0000
0000
0000
0000
0000
0000
0000
0000
0000
0000
0000
0000
0000
0000
0000
0000
0000
0000
0000
0000
0000
0000
0000
0000
0000
0000
0000
0000
0000
0000
0000
0100
0000
M0MM
0000
0000
0000
0000
0000
0000
0000
0000
0000
0000
0000
0000
0000
0000
0000
0000
0000
0000
0000
0000
0000
0000
0000
0000
0000
0000
0000
0000
0000
0000
0000
0000
0000
0000
0000
0000
0000
0000
0000
0000
0000
0000
0000
0000
0000
0100
0000
M0MM
0000
0000
0000
0000
0000
0000
0000
0000
0000
0000
0000
0000
0000
0000
0000
0000
0000
0000
0000
0000
0000
0000
0000
0000
0000
0000
0000
0000
0000
0000
0000
0000
0000
0000
0000
0000
0000
0000
0000
0000
0000
0000
0000
0000
0000
1000
0000
0MMM
0000
0000
0000
0000
0000
0000
0000
0000
0000
0000
0000
0000
0000
0000
0000
0000
0000
0000
0000
0000
0000
0000
0000
0000
0000
0000
0000
0000
0000
0000
0000
0000
0000
0000
0000
0000
0000
0000
0000
0000
0000
0000
0000
0000
,
0000
1000
0000
0MMM
0000
0000
0000
0000
0000
0000
0000
0000
0000
0000
0000
0000
0000
0000
0000
0000
0000
0000
0000
0000
0001
0000
0000
0000
0000
0000
0000
0000
0000
0000
0000
0000
0000
0000
0000
0000
0000
0000
0000
0000
0000
0000
0000
0000
0100
0000
0000
0000
0000
0000
0000
0000
0000
0000
0000
0000
0000
0000
0000
0000
0000
0000
0000
0000
0000
0000
0000
0000
0001
0000
0000
0000
0000
0000
0000
0000
0000
0000
0000
0000
0000
0000
0000
0000
0000
0000
0000
0000
0000
0000
0000
0000
0010
0000
0000
0000
0000
0000
0000
0000
0000
0000
0000
0000
0000
0000
0000
0000
0000
0000
0000
0000
0000
0000
0000
0000
0001
0000
0000
0000
0000
0000
0000
0000
0000
0000
0000
0000
0000
0000
0000
0000
0000
0000
0000
0000
0000
0000
0000
0000
0100
0000
0000
0000
0000
0000
0000
0000
0000
0000
0000
0000
0000
0000
0000
0000
0000
0000
0000
0000
0000
0000
0000
0000
0001
0000
0000
0000
0000
0000
0000
0000
0000
0000
0000
0000
0000
0000
0000
0000
0000
0000
0000
0000
0000
0000
0000
0000
,
1000
0000
0000
0000
,
0000
0000
0000
0000
,
0000
0000
0000
0000
,
0000
0000
0000
0000
,
0000
0000
0000
0000
,
0000
0000
0000
0000
,
0000
0000
0000
0000
,
0000
0000
0000
0000
,
1000
0001
0100
0001
1000
0010
0100
0010
1000
0100
0010
0001
,
1000
0000
0000
0000
0100
0000
0000
0000
1000
0000
0000
0000
0001
0000
0000
0000
1000
0000
0000
0000
0100
0000
0000
0000
0010
0000
0000
0000
0001
0000
0000
0000
0100
0000
0000
0000
0001
0000
0000
0100
0000
0000
0001
0000
0000
0100
0000
0000
,
0010
0100
0001
1000
0001
0010
0001
1000
0100
0010
0001
1000
,
0100
0000
0000
0000
1000
0000
0000
0000
0010
0000
0000
0000
0100
0000
0000
0000
0001
0000
0000
0000
1000
0000
0000
0000
0001
0000
0000
0000
0010
0000
0000
0000
0100
0000
0000
0000
1000
0000
0000
0001
0000
0000
0100
0000
0000
0001
0000
0000
,
1000
0100
0010
0001
0100
0001
0010
0100
1000
0001
0100
0001
,
1000
0000
0000
0000
0100
0000
0000
0000
0010
0000
0000
0000
0001
0000
0000
0100
0000
0000
0001
0000
0000
1000
0000
0000
0010
0000
0000
0000
1000
0000
0000
0000
0100
0000
0000
0000
1000
0000
0000
0000
0001
0000
0000
0000
0010
0000
0000
0000
,
0100
1000
0001
0100
0001
1000
0010
0100
0010
1000
0100
0010
,
0001
0000
0010
0001
0000
0000
1000
0001
,
1000
0100
1000
0100
1000
0100
1000
0000
0000
0000
0000
0000
0010
0000
0000
0000
0000
0000
0100
0001
0100
0001
0100
0001
,
0100
0000
0000
0000
0000
0000
0010
0000
0000
0000
0000
0000
1000
0000
0000
0000
0000
0000
0001
1000
0001
1000
0001
1000
,
0001
0100
0001
1000
0100
0010
0001
1000
0001
0100
0000
0000
,
0001
0100
0001
0100
0001
0400
0004
0000
0000
0000
0000
0000
0000
0000
0000
0000
0000
0000
0000
0000
0000
0303
0000
0000
,
1000
0000
0000
0000
0100
0000
0000
0000
1000
0000
0000
0000
0001
0000
0000
0000
0100
0000
0000
0000
0001
0000
0000
0000
0010
0000
0000
0000
0100
0000
0000
0000
1000
0000
0000
0000
0001
0000
0000
0100
0000
0000
0001
0000
0000
0010
0000
0000
,
0001
0000
0000
0000
0100
0000
0000
0000
0001
0000
0000
0000
0010
0000
0000
0000
0100
0000
0000
0000
1000
0000
0000
0000
0001
0000
0000
0000
1000
0000
0000
0000
0100
0000
0000
0000
1000
0000
0000
0100
0000
0000
1000
0000
0000
0001
0000
0000
,
0010
0000
0000
0000
0100
0000
0000
0000
1000
0000
0000
0000
0001
0000
0000
0000
0100
0000
0000
0000
0001
0000
0000
0000
0010
0000
0000
0000
0100
0000
0000
0000
1000
0000
0000
0000
0010
0000
0000
0100
0000
0000
0001
0000
0000
1000
0000
0000
,
0001
0000
1000
0100
0000
0000
0010
0001
,
1000
0000
0000
0000
0001
0100
0001
0010
0100
1000
0001
0100
0001
1000
0010
1000
,
0100
0010
0001
1000
0001
0100
0001
0010
0100
1000
0001
0100
0001
1000
0100
0010
,
0001
1000
0100
1000
0010
0100
0001
0010
0001
1000
0100
0010
0001
1000
0001
0100
,
0001
0010
0100
1000
0010
0100
0010
1000
0100
0010
0001
1000
0001
0010
0001
1000
,
0001
0000
0000
0000
0000
0000
1000
0100
1000
0100
1000
0001
1000
0000
0000
0000
0000
0000
0001
0010
0001
0100
0001
0100
,
0001
0000
0000
0000
0000
0000
1000
0010
1000
0010
0100
0001
0100
0000
0000
0000
0000
0000
0001
0010
0001
0010
0001
1000
,
0001
0000
0000
0000
0000
0000
1000
0100
1000
0100
0010
0001
1000
0000
0000
0000
0000
0000
0001
0100
0001
0100
0001
0100
,
0010
0000
0000
0000
0000
0000
1000
0100
1000
0100
1000
0001
1000
0000
0000
0000
0000
0000
0001
0100
0001
0100
0010
0100
,
0001
0000
1000
0100
1000
0001
1000
0001
,
0010
0100
1000
0100
0010
0001
1000
0001
,
0100
0001
1000
0010
0100
0010
1000
0001
,
0010
0000
0100
0000
1000
0100
1000
0100
0010
0001
1000
0001
0100
0001
0010
0001
,
0010
0100
1000
0001
1000
0000
0100
0000
0010
0000
0100
0000
1000
0000
0010
0000
,
0100
0001
1000
0001
0010
0001
1000
0100
,
0010
0001
1000
0000
0001
0100
0001
0010
,
0001
1000
0100
1000
0002
0013
0200
1300
,
0002
0003
0000
0000
0000
0000
0000
0000
,
1000
0100
0000
0000
0010
0000
0000
0000
,
1000
0100
0000
0000
0010
0000
0000
0000
,
0001
0100
0000
0000
0010
0000
0000
0000
,
0001
0100
0001
0000
1000
0000
0000
0000
,
0100
0010
0001
0000
0000
0000
0000
0000
,
0000
2000
0000
3200
,
0000
0000
0000
0000
0000
0000
0310
0001
0010
0001
0000
0000
1000
0000
0000
0100
0000
0000
1000
0000
0000
0010
0000
0000
,
0100
0001
1000
0000
0000
0000
0000
0000
,
0000
0000
0000
0000
,
0000
0000
0000
0000
,
0000
0000
0000
0000
0000
0000
0000
0000
0000
0000
0000
0000
0000
0000
0000
0000
0000
0000
1000
0001
1000
0001
1000
0001
,
4000
0000
0000
3001
0100
0001
0010
0100
1000
0010
0100
0010
,
1000
0100
0010
0001
1000
0001
0100
0001
1000
0010
0100
0010
,
1000
0100
0010
0001
1000
0001
0100
0001
0010
0100
1000
0001
,
0010
0000
0001
0000
1000
0000
0200
0000
0000
0000
0000
0000
0320
0000
0000
0032
0000
0000
0000
0000
0000
2003
0000
0000
,
0000
0000
0000
3200
0000
0000
0310
0000
0001
0000
0100
0000
0001
0000
0010
0000
0100
0000
1000
0000
0001
0000
1000
0000
,
0100
0000
0000
0000
1000
0000
0000
0000
0010
0000
0000
0000
0100
0000
0000
0001
0000
0000
0100
0000
0000
0001
0000
0000
0010
0000
0000
0100
0000
0000
1000
0000
0000
0001
0000
0000
1000
0000
0000
0100
0000
0000
1000
0000
0000
0010
0000
0000
,
1000
0000
0000
0001
0000
0000
0100
0000
0000
0001
0000
0000
1000
0000
0000
0000
0100
0000
0000
0000
0010
0000
0000
0000
0001
0000
0000
0000
1000
0000
0000
0000
0001
0000
0000
0000
0100
0000
0000
0000
0001
0000
0000
0000
1000
0000
0000
0000
,
0010
0000
0000
0000
0000
0000
0000
0000
0000
0000
0000
0000
0000
0000
0000
0000
0100
0000
0000
0000
0000
0000
0000
0000
0000
0000
0000
0000
0000
0000
0000
0000
0001
0000
0000
0000
0000
0000
0000
0000
0000
0000
0000
0000
0000
0000
0000
0000
1000
0000
0000
0000
0000
0000
0100
0000
0000
0000
0000
0000
1000
0000
0000
0000
0000
0000
0000
0000
0000
0000
0000
0000
0000
0000
0000
0000
0000
0000
0000
0000
0000
0000
0000
0000
0000
0000
0000
0000
0000
0000
0000
0000
0000
0000
0000
0000
0001
0000
0000
0000
0000
0000
0100
0000
0000
0000
0000
0000
0001
0000
0000
0000
0000
0000
0000
0000
0000
0000
0000
0000
0000
0000
0000
0000
0000
0000
0000
0000
0000
0000
0000
0000
0000
0000
0000
0000
0000
0000
0000
0000
0000
0000
0000
0000
1000
0000
0000
0000
0000
0000
0001
0000
0000
0000
0000
0000
1000
0000
0000
0000
0000
0000
0000
0000
0000
0000
0000
0000
0000
0000
0000
0000
0000
0000
0000
0000
0000
0000
0000
0000
0000
0000
0000
0000
0000
0000
0000
0000
0000
0000
0000
0000
,
0001
0000
0000
0000
0000
0000
1000
0000
0000
0000
0000
0000
0001
0000
0000
0000
0000
0000
0000
0000
0000
0000
0000
0000
0000
0000
0000
0000
0000
0000
0000
0000
0000
0000
0000
0000
0000
0000
0000
0000
0000
0000
0000
0000
0000
0000
0000
0000
1000
0000
0000
0000
0000
0000
0000
0000
0100
0000
0000
0000
0000
0000
0000
0000
1000
0000
0000
0000
0000
0000
0000
0000
0100
0000
0000
0000
0000
0000
0000
0000
1000
0000
0000
0000
0000
0000
0000
0000
0001
0000
0000
0000
0000
0000
0000
0000
1000
0000
0000
0000
0000
0000
0000
0000
0000
0000
0000
0000
0000
0000
0000
0000
0000
0000
0000
0000
0000
0000
0000
0000
0000
0000
0000
0000
0000
0000
0000
0000
0000
0000
0000
0000
0000
0000
0000
0000
0000
0000
0000
0000
0000
0000
0000
0000
0001
0000
0000
0000
0000
0000
0000
0000
0100
0000
0000
0000
0000
0000
0000
0000
0001
0000
0000
0000
0000
0000
0000
0000
0010
0000
0000
0000
0000
0000
0000
0000
0001
0000
0000
0000
0000
0000
0000
0000
0010
0000
0000
0000
0000
0000
0000
0000
,
0001
0000
0000
0000
0000
0000
1000
0100
1000
0010
0100
0010
0100
0000
0000
0000
0000
0000
0001
0100
0001
1000
0001
1000
,
0001
0000
1000
0001
0100
0001
1000
0010
,
0100
0010
1000
0100
0010
0001
1000
0001
,
0010
0000
0000
0000
0001
0000
0000
0000
1000
0001
1000
0000
0000
0000
0000
0000
0001
0100
0001
0000
0000
0000
0000
0000
1000
0100
1000
0000
0000
0000
0000
0000
,
0001
1000
0001
0000
0000
0000
0000
0000
1000
0010
1000
0000
0000
0000
0000
0000
0001
0100
0001
0000
0000
0000
0000
0000
1000
0001
1000
0000
0000
0000
0000
0000
,
0001
0100
0001
0000
0000
0000
0000
0000
0001
0000
0100
0000
0001
0000
1000
0000
0010
0000
0100
0000
0010
0000
1000
0000
0100
0000
0010
0000
0001
0000
1000
0000
,
0001
0100
0001
0010
0100
1000
0010
0100
0010
1000
0100
0010
0001
1000
0001
0100
,
0001
0010
0100
1000
0001
0000
0000
0000
0000
0000
0000
0000
0000
0000
0000
0000
,
0000
0000
0000
0000
,
0000
0000
0000
0000
,
0000
0000
0000
0000
,
0000
1001
M000
0M00
,
00M0
000M
M000
00M0
,
0M00
0000
0001
1000
0100
0010
0001
0000
,
1000
0000
0001
0000
1000
0010
0100
0000
,
0000
0000
0001
0010
0100
0000
1000
0000
,
0001
0100
0010
1000
,
0001
0000
0010
0100
1000
0001
1000
0000
,
0001
0000
0010
0000
0100
1000
0000
0000
,
0001
0100
0010
1000
0001
0000
0010
0000
,
0100
1000
0001
1000
,
0100
0000
0010
0001
1000
0001
1000
0000
,
0100
0000
0010
0000
0001
1000
0010
0000
,
0000
0000
0100
0001
0010
0000
0100
0000
,
1000
0001
0100
0001
,
1000
0000
0100
0010
0001
1000
0001
0000
,
0100
0000
0000
0000
0010
0000
0000
0000
1000
0000
0100
0000
0010
0001
0100
0001
,
1000
0100
1000
0001
0100
0000
0000
0000
0000
0000
0000
0000
0000
0000
0000
0000
,
0000
0000
0000
0000
,
0000
0000
0000
0000
0010
1000
0100
0010
0001
0010
0001
1000
0001
0100
0001
0010
,
0100
1000
0100
1000
0010
0100
0001
0010
0001
1000
0100
0010
0001
1000
0001
0100
,
0001
0100
0010
1000
0100
0010
0001
1000
0001
0010
0001
0010
0100
1000
0010
0100
,
0001
1000
0100
1000
0001
0100
0001
0100
0010
1000
0100
0010
0001
1000
0001
0100
,
0001
0000
0000
1000
0000
0000
0001
0000
0000
1000
0000
0000
0010
0000
0000
0000
0100
0000
0000
0000
0001
0000
0000
0000
1000
0000
0000
0000
0001
0000
0000
0000
0010
0000
0000
0000
0100
0000
0000
0000
1000
0000
0000
0000
0001
0000
0000
0000
,
1000
0000
0000
0100
0000
0000
1000
0000
0000
0001
0000
0000
1000
0000
0000
0000
0100
0000
0000
0000
1000
0000
0000
0000
0001
0000
0000
0000
0100
0000
0000
0000
0001
0000
0000
0000
1000
0000
0000
0000
0010
0000
0000
0000
0100
0000
0000
0000
,
0001
0000
0000
0100
0000
0000
0001
0000
0000
1000
0000
0000
0010
0000
0000
0000
0100
0000
0000
0000
0001
0000
0000
0000
1000
0000
0000
0000
0001
0000
0000
0000
0010
0000
0000
0000
0100
0000
0000
0000
1000
0000
0000
0000
0001
0000
0000
0000
,
1000
0010
0100
0001
1000
0000
0100
0000
1000
0000
0010
0000
0100
0000
0001
0000
,
1000
0010
1000
0000
0000
0000
0000
0000
,
0000
0000
1000
0001
0100
0000
0010
0000
,
1000
0100
0010
0001
,
1000
0000
0001
0010
0001
0100
0001
0000
,
1000
0000
0100
0000
0010
0001
1000
0000
,
0000
0000
0001
0010
0100
0000
1000
0000
,
0001
0000
0000
1000
0100
1000
0100
1000
0100
1000
0100
1000
,
0100
1000
0100
0010
0001
0010
0001
0010
0001
0010
0001
0010
,
0001
0010
0001
1000
0010
1000
0010
1000
0010
1000
0010
1000
,
0010
0000
0000
0000
1000
0000
0000
0000
0010
0000
0000
0000
1000
0000
0000
0000
0000
0000
0000
0000
0000
0000
0000
0000
0001
0000
0000
0000
0000
0000
M000
0M00
M000
000M
0M00
000M
00M0
0M00
M000
00M0
0M00
000M
M000
000M
00M0
0M00
M000
000M
,
0M00
000M
M000
00M0
0M00
000M
M000
0M00
M000
00M0
0M00
000M
00M0
0M00
M000
000M
0M00
000M
M000
0000
0000
0000
0000
0000
1000
0000
0000
0000
0000
0000
0M00
M000
000M
0M00
000M
00M0
0M00
M000
000M
0M00
000M
M000
00M0
0M00
00M0
M000
0M00
00M0
,
000M
M000
000M
0M00
000M
00M0
0M00
M000
000M
0M00
000M
M000
00M0
0M00
000M
M000
000M
00M0
0M00
0000
0000
0000
0000
0000
1000
0000
0000
0000
0000
0000
000M
0M00
000M
M000
00M0
0M00
00M0
M000
0M00
00M0
000M
M000
0M00
M000
000M
0M00
000M
M000
,
00M0
0M00
00M0
M000
0M00
00M0
000M
M000
000M
0M00
000M
00M0
0M00
M000
000M
M000
00M0
0M00
000M
0000
0000
0000
0000
0000
1000
0000
0000
0000
0000
0000
0M00
00M0
000M
0M00
000M
00M0
0M00
M000
000M
0M00
000M
M000
00M0
0M00
00M0
M000
0M00
00M0
,
000M
M000
000M
0M00
000M
00M0
0M00
M000
000M
0M00
000M
M000
00M0
0M00
000M
M000
000M
00M0
0M00
0000
0000
0000
0000
0000
1000
0000
0000
0000
0000
0000
0000
0000
0000
0000
0000
0000
0100
0000
0000
0000
0000
0000
0000
0000
0000
0000
0000
0000
,
1000
0010
0100
0001
,
1000
0001
0010
0100
,
1000
0001
0100
0001
,
1000
0100
1000
MMMM
,
1000
MMMM
0001
MMMM
,
0001
MMMM
1000
MMMM
,
1000
MMMM
0001
MMMM
,
0001
0000
0000
MMMM
0000
0000
1000
0000
0100
0000
1000
0000
,
0100
0000
0010
0000
0001
0000
1000
0000
0001
0000
0100
0000
,
0001
0000
1000
0000
0010
0000
1000
0000
0100
0000
0010
0000
,
0100
0000
1000
0000
0001
0000
0100
0000
0001
0000
0010
0000
,
0100
0000
1000
0000
0001
0000
1000
0000
0000
0000
0000
0000
,
0000
0000
0000
0000
,
0000
0000
0000
0000
,
0000
0000
0000
0000
,
0000
0000
MMMM
0000
;

//---------------dance-single - ----------------
#NOTES:
     dance-single:
     :
     Medium:
     17:
     1.000,1.000,0.021,0.332,1.000,1017.000,3.000,47.000,206.000,0.000:
0000
0000
0000
0000
,
2000
3002
0203
0300
0010
0000
1000
0000
,
0100
0010
0001
1000
,
0002
0203
0302
0023
0032
0003
1000
0000
,
0100
0000
0020
0032
2003
3000
0000
0000
,
0002
0203
0320
0030
1000
0000
0100
0000
,
0010
0001
1000
0001
,
2000
3200
0320
0032
2003
3000
0001
0000
,
1000
0000
0200
0320
0030
0000
0002
2003
,
3200
0320
0032
0003
1000
0000
0001
0000
,
0100
0010
1000
0001
,
0020
0230
2300
3200
0320
0030
0001
0000
,
1000
0000
0002
0203
0302
0003
0000
0000
,
2000
3200
0320
0030
0001
0000
0100
0000
,
0010
1000
0001
0010
,
0000
0100
0000
M0MM
0000
0000
0000
0000
0000
0000
0000
0000
0000
0000
0000
0000
0000
0000
0000
0000
0000
0000
0000
0000
0000
0000
0000
0000
0000
0000
0000
0000
0000
0000
0000
0000
0000
0000
0000
0000
0000
0000
0000
0000
0000
0000
0000
0000
0000
0100
0000
M0MM
0000
0000
0000
0000
0000
0000
0000
0000
0000
0000
0000
0000
0000
0000
0000
0000
0000
0000
0000
0000
0000
0000
0000
0000
0000
0000
0000
0000
0000
0000
0000
0000
0000
0000
0000
0000
0000
0000
0000
0000
0000
0000
0000
0000
0000
0100
0000
M0MM
0000
0000
0000
0000
0000
0000
0000
0000
0000
0000
0000
0000
0000
0000
0000
0000
0000
0000
0000
0000
0000
0000
0000
0000
0000
0000
0000
0000
0000
0000
0000
0000
0000
0000
0000
0000
0000
0000
0000
0000
0000
0000
0000
0000
0000
1000
0000
0MMM
0000
0000
0000
0000
0000
0000
0000
0000
0000
0000
0000
0000
0000
0000
0000
0000
0000
0000
0000
0000
0000
0000
0000
0000
0000
0000
0000
0000
0000
0000
0000
0000
0000
0000
0000
0000
0000
0000
0000
0000
0000
0000
0000
0000
,
0000
1000
0000
0MMM
0000
0000
0000
0000
0000
0000
0000
0000
0000
0000
0000
0000
0000
0000
0000
0000
0000
0000
0000
0000
0001
0000
0000
0000
0000
0000
0000
0000
0000
0000
0000
0000
0000
0000
0000
0000
0000
0000
0000
0000
0000
0000
0000
0000
0100
0000
0000
0000
0000
0000
0000
0000
0000
0000
0000
0000
0000
0000
0000
0000
0000
0000
0000
0000
0000
0000
0000
0000
0001
0000
0000
0000
0000
0000
0000
0000
0000
0000
0000
0000
0000
0000
0000
0000
0000
0000
0000
0000
0000
0000
0000
0000
0010
0000
0000
0000
0000
0000
0000
0000
0000
0000
0000
0000
0000
0000
0000
0000
0000
0000
0000
0000
0000
0000
0000
0000
0001
0000
0000
0000
0000
0000
0000
0000
0000
0000
0000
0000
0000
0000
0000
0000
0000
0000
0000
0000
0000
0000
0000
0000
0100
0000
0000
0000
0000
0000
0000
0000
0000
0000
0000
0000
0000
0000
0000
0000
0000
0000
0000
0000
0000
0000
0000
0000
0001
0000
0000
0000
0000
0000
0000
0000
0000
0000
0000
0000
0000
0000
0000
0000
0000
0000
0000
0000
0000
0000
0000
0000
,
1000
0000
0000
0000
,
0000
0000
0000
0000
,
0000
0000
0000
0000
,
0000
0000
0000
0000
,
0000
0000
0000
0000
,
0000
0000
0000
0000
,
0000
0000
0000
0000
,
0000
0000
0000
0000
,
1000
0100
1000
0001
0100
0001
0010
0100
1000
0010
0100
0010
1000
0100
0010
0001
,
1000
0001
0100
0001
0010
0100
1000
0001
0100
0001
1000
0010
0100
0001
1000
0001
,
0010
0001
1000
0100
0010
0001
1000
0001
0100
0001
0010
0100
1000
0001
0100
0001
,
1000
0100
1000
0010
0100
0001
1000
0001
0010
0100
1000
0010
1000
0001
0100
0001
,
1000
0100
0010
0100
1000
0001
0100
0001
1000
0010
0100
0001
1000
0001
0010
0100
,
1000
0001
0100
0001
1000
0100
0010
0001
1000
0010
0100
0010
1000
0001
0100
0001
,
0010
0100
1000
0001
0100
0001
1000
0100
0010
0001
1000
0001
0100
0001
0010
0100
,
1000
0001
0100
0001
0010
0100
1000
0001
0100
0001
1000
0001
1000
0000
0000
0000
,
0001
0100
0001
0100
0001
0100
0001
0000
0000
0000
0000
0000
1000
0000
0000
0000
0000
0000
0001
0100
0001
1000
0001
1000
,
0001
0000
0000
0000
0000
0000
0000
0000
1000
0000
0000
0000
0000
0000
0000
0000
1000
0000
0000
0000
0000
0000
0000
0000
0001
1000
0001
1000
0000
0000
0000
0000
,
0001
0100
0001
1000
0100
0010
0001
1000
0001
0100
0000
0000
,
0001
0100
0001
0100
0001
0400
0004
0000
0000
0000
0000
0000
0000
0000
0000
0000
0000
0000
0000
0000
0000
0303
0000
0000
,
1000
0000
0000
0000
0100
0000
0000
0000
1000
0000
0000
0000
0001
0000
0000
0000
0100
0000
0000
0000
0001
0000
0000
0000
0010
0000
0000
0000
0100
0000
0000
0000
1000
0000
0000
0000
0001
0000
0000
0100
0000
0000
0001
0000
0000
1000
0000
0000
,
0001
0000
0000
0000
0100
0000
0000
0000
0001
0000
0000
0000
0010
0000
0000
0000
0100
0000
0000
0000
1000
0000
0000
0000
0001
0000
0000
0000
1000
0000
0000
0000
0100
0000
0000
0000
1000
0000
0000
0001
0000
0000
0100
0000
0000
0001
0000
0000
,
1000
0000
0000
0000
0100
0000
0000
0000
1000
0000
0000
0000
0001
0000
0000
0000
0100
0000
0000
0000
0001
0000
0000
0000
0010
0000
0000
0000
0100
0000
0000
0000
1000
0000
0000
0000
0010
0000
0000
0100
0000
0000
0001
0000
0000
1000
0000
0000
,
0001
0000
1000
0100
0000
0000
0010
0001
,
1000
0000
0000
0000
0001
0100
0001
0010
0100
1000
0001
0100
0001
1000
0010
1000
,
0100
0010
0001
1000
0001
0100
0001
0010
0100
1000
0001
0100
0001
1000
0100
0010
,
0001
1000
0100
1000
0010
0100
0001
0010
0001
1000
0100
0010
0001
1000
0001
0100
,
0001
0010
0100
1000
0010
0100
0010
1000
0100
0010
0001
1000
0001
0010
0001
1000
,
0001
0000
0000
0000
0000
0000
1000
0100
1000
0100
1000
0001
1000
0000
0000
0000
0000
0000
0001
0010
0001
0100
0001
0100
,
0001
0000
0000
0000
0000
0000
1000
0010
1000
0010
0100
0001
0100
0000
0000
0000
0000
0000
0001
0010
0001
0010
0001
1000
,
0001
0000
0000
0000
0000
0000
1000
0100
1000
0100
0010
0001
1000
0000
0000
0000
0000
0000
0001
0100
0001
0100
0001
0100
,
0010
0000
0000
0000
0000
0000
1000
0100
1000
0100
1000
0001
1000
0000
0000
0000
0000
0000
0001
0100
0001
0100
0010
0100
,
0001
0000
1000
0100
1000
0001
1000
0001
,
0010
0100
1000
0100
0010
0001
1000
0001
,
0100
0001
1000
0010
0100
0010
1000
0001
,
0010
0000
0100
0000
1000
0100
1000
0100
0010
0001
1000
0001
0100
0001
0010
0001
,
0010
0100
1000
0001
1000
0000
0100
0000
0010
0000
0100
0000
1000
0000
0010
0000
,
0100
0001
1000
0001
0010
0001
1000
0100
,
0010
0001
1000
0000
0001
0100
0001
0010
,
0001
1000
0100
1000
0002
0013
0200
1300
,
0002
0003
0000
0000
0000
0000
0000
0000
,
1000
0100
0000
0000
0010
0000
0000
0000
,
1000
0100
0000
0000
0010
0000
0000
0000
,
0001
0100
0000
0000
0010
0000
0000
0000
,
0001
0100
0001
0000
1000
0000
0000
0000
,
0100
0010
0001
0000
0000
0000
0000
0000
,
0000
2000
0000
3200
,
0000
0000
0000
0000
0000
0000
0310
0001
0010
0001
0000
0000
1000
0000
0000
0100
0000
0000
1000
0000
0000
0010
0000
0000
,
0100
0001
1000
0000
0000
0000
0000
0000
,
0000
0000
0000
0000
,
0000
0000
0000
0000
,
0000
0000
0000
0000
0000
0000
0000
0000
0000
0000
0000
0000
0000
0000
0000
0000
0000
0000
1000
0001
1000
0001
1000
0001
,
4000
0000
0000
0000
3001
0100
0001
0010
0100
1000
0001
0100
0001
1000
0100
0010
,
0001
1000
0010
0100
0001
1000
0100
1000
0001
0010
0100
1000
0001
0100
0001
1000
,
0100
0010
0001
1000
0001
0100
0001
0010
0100
1000
0001
0100
0001
1000
0100
0010
,
0001
1000
0001
1000
0200
0000
0000
0000
0320
0000
0032
0000
0000
0000
2003
0000
,
0000
0000
0000
3200
0000
0000
0310
0000
0001
0000
0100
0000
0001
0000
0010
0000
0100
0000
1000
0000
0001
0000
1000
0000
,
0100
0000
0000
0000
1000
0000
0000
0000
0010
0000
0000
0000
0100
0000
0000
0001
0000
0000
0100
0000
0000
0001
0000
0000
0010
0000
0000
0100
0000
0000
1000
0000
0000
0001
0000
0000
1000
0000
0000
0100
0000
0000
1000
0000
0000
0010
0000
0000
,
1000
0000
0000
0001
0000
0000
0100
0000
0000
0001
0000
0000
1000
0000
0000
0000
0100
0000
0000
0000
0010
0000
0000
0000
0001
0000
0000
0000
1000
0000
0000
0000
0001
0000
0000
0000
0100
0000
0000
0000
0001
0000
0000
0000
1000
0000
0000
0000
,
0010
0000
0000
0000
0000
0000
0000
0000
0000
0000
0000
0000
0000
0000
0000
0000
0100
0000
0000
0000
0000
0000
0000
0000
0000
0000
0000
0000
0000
0000
0000
0000
0001
0000
0000
0000
0000
0000
0000
0000
0000
0000
0000
0000
0000
0000
0000
0000
1000
0000
0000
0000
0000
0000
0001
0000
0000
0000
0000
0000
1000
0000
0000
0000
0000
0000
0000
0000
0000
0000
0000
0000
0000
0000
0000
0000
0000
0000
0000
0000
0000
0000
0000
0000
0000
0000
0000
0000
0000
0000
0000
0000
0000
0000
0000
0000
0001
0000
0000
0000
0000
0000
0010
0000
0000
0000
0000
0000
0001
0000
0000
0000
0000
0000
0000
0000
0000
0000
0000
0000
0000
0000
0000
0000
0000
0000
0000
0000
0000
0000
0000
0000
0000
0000
0000
0000
0000
0000
0000
0000
0000
0000
0000
0000
1000
0000
0000
0000
0000
0000
0100
0000
0000
0000
0000
0000
1000
0000
0000
0000
0000
0000
0000
0000
0000
0000
0000
0000
0000
0000
0000
0000
0000
0000
0000
0000
0000
0000
0000
0000
0000
0000
0000
0000
0000
0000
0000
0000
0000
0000
0000
0000
,
0010
0000
0000
0000
0000
0000
0100
0000
0000
0000
0000
0000
0010
0000
0000
0000
0000
0000
0000
0000
0000
0000
0000
0000
0000
0000
0000
0000
0000
0000
0000
0000
0000
0000
0000
0000
0000
0000
0000
0000
0000
0000
0000
0000
0000
0000
0000
0000
1000
0000
0000
0000
0000
0000
0000
0000
0100
0000
0000
0000
0000
0000
0000
0000
1000
0000
0000
0000
0000
0000
0000
0000
0100
0000
0000
0000
0000
0000
0000
0000
1000
0000
0000
0000
0000
0000
0000
0000
0001
0000
0000
0000
0000
0000
0000
0000
1000
0000
0000
0000
0000
0000
0000
0000
0000
0000
0000
0000
0000
0000
0000
0000
0000
0000
0000
0000
0000
0000
0000
0000
0000
0000
0000
0000
0000
0000
0000
0000
0000
0000
0000
0000
0000
0000
0000
0000
0000
0000
0000
0000
0000
0000
0000
0000
0001
0000
0000
0000
0000
0000
0000
0000
0100
0000
0000
0000
0000
0000
0000
0000
0001
0000
0000
0000
0000
0000
0000
0000
0010
0000
0000
0000
0000
0000
0000
0000
0001
0000
0000
0000
0000
0000
0000
0000
0010
0000
0000
0000
0000
0000
0000
0000
,
0001
0000
0000
0000
0000
0000
1000
0100
1000
0010
0100
0010
0100
0000
0000
0000
0000
0000
0001
0100
0001
1000
0001
1000
,
0001
0000
1000
0001
0100
0001
1000
0010
,
0100
0010
1000
0100
0010
0001
1000
0001
,
0010
0000
0000
0000
0001
0000
0000
0000
1000
0001
1000
0000
0000
0000
0000
0000
0001
0100
0001
0000
0000
0000
0000
0000
1000
0010
1000
0000
0000
0000
0000
0000
,
0001
0010
0001
0000
0000
0000
0000
0000
1000
0100
1000
0000
0000
0000
0000
0000
0001
0100
0001
0000
0000
0000
0000
0000
1000
0010
1000
0000
0000
0000
0000
0000
,
0001
1000
0001
0000
0000
0000
0000
0000
0001
0000
0100
0000
0001
0000
1000
0000
0010
0000
0100
0000
0010
0000
1000
0000
0100
0000
0010
0000
0001
0000
1000
0000
,
0001
0100
0001
0010
0100
1000
0010
0100
0010
1000
0100
0010
0001
1000
0001
0100
,
0001
0010
0100
1000
0001
0000
0000
0000
0000
0000
0000
0000
0000
0000
0000
0000
,
0000
0000
0000
0000
,
0000
0000
0000
0000
,
0000
0000
0000
0000
,
0000
1001
M000
0M00
,
00M0
000M
M000
00M0
,
0M00
0000
0001
1000
0100
0010
0001
0000
,
1000
0000
0001
0000
1000
0010
0100
0000
,
0000
0000
0001
0010
0100
0000
1000
0000
,
0001
0100
0010
1000
,
0001
0000
0010
0100
1000
0001
1000
0000
,
0001
0000
0010
0000
0100
1000
0000
0000
,
0001
0100
0010
1000
0001
0000
0010
0000
,
0100
1000
0001
1000
,
0100
0000
0010
0001
1000
0001
1000
0000
,
0100
0000
0010
0000
0001
1000
0010
0000
,
0000
0000
0100
0001
0010
0000
0100
0000
,
1000
0001
0100
0001
,
1000
0000
0100
0010
0001
1000
0001
0000
,
0100
0000
0000
0000
0010
0000
0000
0000
1000
0000
0100
0000
0010
0001
0100
0001
,
1000
0100
1000
0001
0100
0000
0000
0000
0000
0000
0000
0000
0000
0000
0000
0000
,
0000
0000
0000
0000
,
0000
0000
0000
0000
0010
1000
0100
0010
0001
0010
0001
1000
0001
0100
0001
0010
,
0100
1000
0100
1000
0010
0100
0001
0010
0001
1000
0100
0010
0001
1000
0001
0100
,
0001
0100
0010
1000
0100
0010
0001
1000
0001
0010
0001
0010
0100
1000
0010
0100
,
0001
1000
0100
1000
0001
0100
0001
0100
0010
1000
0100
0010
0001
1000
0001
0100
,
0001
0000
0000
1000
0000
0000
0001
0000
0000
1000
0000
0000
0010
0000
0000
0000
0100
0000
0000
0000
0001
0000
0000
0000
1000
0000
0000
0000
0001
0000
0000
0000
0010
0000
0000
0000
0100
0000
0000
0000
1000
0000
0000
0000
0001
0000
0000
0000
,
1000
0000
0000
0100
0000
0000
0010
0000
0000
0001
0000
0000
1000
0000
0000
0000
0100
0000
0000
0000
1000
0000
0000
0000
0001
0000
0000
0000
0100
0000
0000
0000
0001
0000
0000
0000
1000
0000
0000
0000
0010
0000
0000
0000
0100
0000
0000
0000
,
0001
0000
0000
0100
0000
0000
0001
0000
0000
1000
0000
0000
0010
0000
0000
0000
0100
0000
0000
0000
0001
0000
0000
0000
1000
0000
0000
0000
0001
0000
0000
0000
0010
0000
0000
0000
0100
0000
0000
0000
1000
0000
0000
0000
0001
0000
0000
0000
,
1000
0100
0010
0001
1000
0000
0100
0000
1000
0000
0010
0000
0100
0000
0001
0000
,
1000
0010
1000
0000
0000
0000
0000
0000
,
0000
0000
1000
0001
0100
0000
0010
0000
,
1000
0100
0010
0001
,
1000
0000
0001
0010
0001
0100
0001
0000
,
1000
0000
0100
0000
0010
0001
1000
0000
,
0000
0000
0001
0010
0100
0000
1000
0000
,
0001
0000
0000
1000
0100
1000
0100
1000
0100
1000
0100
1000
,
0100
1000
0100
0010
0001
0010
0001
0010
0001
0010
0001
0010
,
0001
0010
0001
1000
0010
1000
0010
1000
0010
1000
0010
1000
,
0010
0000
0000
0000
1000
0000
0000
0000
0010
0000
0000
0000
1000
0000
0000
0000
0000
0000
0000
0000
0000
0000
0000
0000
0001
0000
0000
0000
0000
0000
M000
0M00
M000
000M
0M00
000M
00M0
0M00
M000
00M0
0M00
000M
M000
000M
00M0
0M00
M000
000M
,
0M00
000M
M000
00M0
0M00
000M
M000
0M00
M000
00M0
0M00
000M
00M0
0M00
M000
000M
0M00
000M
M000
0000
0000
0000
0000
0000
1000
0000
0000
0000
0000
0000
0M00
M000
000M
0M00
000M
00M0
0M00
M000
000M
0M00
000M
M000
00M0
0M00
00M0
M000
0M00
00M0
,
000M
M000
000M
0M00
000M
00M0
0M00
M000
000M
0M00
000M
M000
00M0
0M00
000M
M000
000M
00M0
0M00
0000
0000
0000
0000
0000
1000
0000
0000
0000
0000
0000
000M
0M00
000M
M000
00M0
0M00
00M0
M000
0M00
00M0
000M
M000
0M00
M000
000M
0M00
000M
M000
,
00M0
0M00
00M0
M000
0M00
00M0
000M
M000
000M
0M00
000M
00M0
0M00
M000
000M
M000
00M0
0M00
000M
0000
0000
0000
0000
0000
1000
0000
0000
0000
0000
0000
0M00
00M0
000M
0M00
000M
00M0
0M00
M000
000M
0M00
000M
M000
00M0
0M00
00M0
M000
0M00
00M0
,
000M
M000
000M
0M00
000M
00M0
0M00
M000
000M
0M00
000M
M000
00M0
0M00
000M
M000
000M
00M0
0M00
0000
0000
0000
0000
0000
1000
0000
0000
0000
0000
0000
0000
0000
0000
0000
0000
0000
0100
0000
0000
0000
0000
0000
0000
0000
0000
0000
0000
0000
,
1000
0010
0100
0001
,
1000
0001
0010
0100
,
1000
0001
0100
0001
,
1000
0100
1000
MMMM
,
1000
MMMM
0001
MMMM
,
0001
MMMM
1000
MMMM
,
1000
MMMM
0001
MMMM
,
0001
0000
0000
MMMM
0000
0000
1000
0000
0100
0000
1000
0000
,
0100
0000
0010
0000
0001
0000
1000
0000
0001
0000
0100
0000
,
0001
0000
1000
0000
0010
0000
1000
0000
0100
0000
0010
0000
,
0100
0000
1000
0000
0001
0000
0100
0000
0001
0000
0010
0000
,
0100
0000
1000
0000
0001
0000
1000
0000
0000
0000
0000
0000
,
0000
0000
0000
0000
,
0000
0000
0000
0000
,
0000
0000
0000
0000
,
0000
0000
MMMM
0000
;

//---------------dance-single - ----------------
#NOTES:
     dance-single:
     :
     Hard:
     18:
     1.000,1.000,0.021,0.332,1.000,1056.000,3.000,47.000,206.000,0.000:
0000
0000
0000
0000
,
2000
3002
0203
0300
0010
0000
1000
0000
,
0100
0010
0001
1000
,
0002
0203
0302
0023
0032
0003
1000
0000
,
0100
0000
0020
0032
2003
3000
0000
0000
,
0002
0203
0320
0030
1000
0000
0100
0000
,
0010
0001
1000
0001
,
2000
3200
0320
0032
2003
3000
0001
0000
,
1000
0000
0200
0320
0030
0000
0002
2003
,
3200
0320
0032
0003
1000
0000
0001
0000
,
0100
0010
1000
0001
,
0020
0230
2300
3200
0320
0030
0001
0000
,
1000
0000
0002
0203
0302
0003
0000
0000
,
2000
3200
0320
0030
0001
0000
0100
0000
,
0010
1000
0001
0010
,
0000
0100
0000
M0MM
0000
0000
0000
0000
0000
0000
0000
0000
0000
0000
0000
0000
0000
0000
0000
0000
0000
0000
0000
0000
0000
0000
0000
0000
0000
0000
0000
0000
0000
0000
0000
0000
0000
0000
0000
0000
0000
0000
0000
0000
0000
0000
0000
0000
0000
0100
0000
M0MM
0000
0000
0000
0000
0000
0000
0000
0000
0000
0000
0000
0000
0000
0000
0000
0000
0000
0000
0000
0000
0000
0000
0000
0000
0000
0000
0000
0000
0000
0000
0000
0000
0000
0000
0000
0000
0000
0000
0000
0000
0000
0000
0000
0000
0000
0100
0000
M0MM
0000
0000
0000
0000
0000
0000
0000
0000
0000
0000
0000
0000
0000
0000
0000
0000
0000
0000
0000
0000
0000
0000
0000
0000
0000
0000
0000
0000
0000
0000
0000
0000
0000
0000
0000
0000
0000
0000
0000
0000
0000
0000
0000
0000
0000
1000
0000
0MMM
0000
0000
0000
0000
0000
0000
0000
0000
0000
0000
0000
0000
0000
0000
0000
0000
0000
0000
0000
0000
0000
0000
0000
0000
0000
0000
0000
0000
0000
0000
0000
0000
0000
0000
0000
0000
0000
0000
0000
0000
0000
0000
0000
0000
,
0000
1000
0000
0MMM
0000
0000
0000
0000
0000
0000
0000
0000
0000
0000
0000
0000
0000
0000
0000
0000
0000
0000
0000
0000
0001
0000
0000
0000
0000
0000
0000
0000
0000
0000
0000
0000
0000
0000
0000
0000
0000
0000
0000
0000
0000
0000
0000
0000
0100
0000
0000
0000
0000
0000
0000
0000
0000
0000
0000
0000
0000
0000
0000
0000
0000
0000
0000
0000
0000
0000
0000
0000
0001
0000
0000
0000
0000
0000
0000
0000
0000
0000
0000
0000
0000
0000
0000
0000
0000
0000
0000
0000
0000
0000
0000
0000
0010
0000
0000
0000
0000
0000
0000
0000
0000
0000
0000
0000
0000
0000
0000
0000
0000
0000
0000
0000
0000
0000
0000
0000
0001
0000
0000
0000
0000
0000
0000
0000
0000
0000
0000
0000
0000
0000
0000
0000
0000
0000
0000
0000
0000
0000
0000
0000
0100
0000
0000
0000
0000
0000
0000
0000
0000
0000
0000
0000
0000
0000
0000
0000
0000
0000
0000
0000
0000
0000
0000
0000
0001
0000
0000
0000
0000
0000
0000
0000
0000
0000
0000
0000
0000
0000
0000
0000
0000
0000
0000
0000
0000
0000
0000
0000
,
1000
0000
0000
0000
,
0000
0000
0000
0000
,
0000
0000
0000
0000
,
0000
0000
0000
0000
,
0000
0000
0000
0000
,
0000
0000
0000
0000
,
0000
0000
0000
0000
,
0000
0000
0000
0000
,
1000
0100
1000
0001
0100
0001
0010
0100
1000
0010
0100
0010
1000
0100
0010
0001
,
1000
0001
0100
0001
0010
0100
1000
0001
0100
0001
1000
0010
0100
0001
1000
0001
,
0010
0001
1000
0100
0010
0001
1000
0001
0100
0001
0010
0100
1000
0001
0100
0001
,
1000
0100
1000
0010
0100
0001
1000
0001
0010
0100
1000
0010
1000
0001
0100
0001
,
1000
0100
0010
0100
1000
0001
0100
0001
1000
0010
0100
0001
1000
0001
0010
0100
,
1000
0001
0100
0001
1000
0100
0010
0001
1000
0010
0100
0010
1000
0001
0100
0001
,
0010
0100
1000
0001
0100
0001
1000
0100
0010
0001
1000
0001
0100
0001
0010
0100
,
1000
0001
0100
0001
0010
0100
1000
0001
0100
0001
1000
0001
1000
0001
0100
0001
,
1000
0100
1000
0100
1000
0100
1000
0000
0000
0001
0000
0000
1000
0000
0000
0000
0000
0000
0000
0000
0000
0000
0000
0000
,
1000
0000
0000
0000
0000
0000
0000
0000
0010
0000
0000
0000
0000
0000
0000
0000
1000
0000
0000
0000
0000
0000
0000
0000
0001
0100
0001
0100
0000
0000
0000
0000
,
0001
0100
0001
0010
0100
1000
0001
0100
0001
1000
0100
0010
0001
1000
0001
0000
,
1000
0100
1000
0100
0010
0004
4000
0000
0000
0000
0000
0000
0000
0000
0000
0000
0000
0000
0000
0000
0000
3003
0000
0000
,
1000
0001
0100
0001
0010
0100
1000
0001
0100
0001
1000
0100
0010
0001
1000
0010
,
0100
0001
0010
0100
1000
0001
0100
0001
1000
0100
0010
0001
1000
0010
0100
0001
,
1000
0001
0100
0010
1000
0001
0010
0100
1000
0001
1000
0100
1000
0100
0010
0001
,
1000
0001
0100
0001
1000
0010
0100
0010
1000
0100
0010
0001
1000
0001
0100
0001
,
1000
0000
0000
0000
0001
0100
0001
0010
0100
1000
0001
0100
0001
1000
0010
1000
,
0100
0010
0001
1000
0001
0100
0001
0010
0100
1000
0001
0100
0001
1000
0100
0010
,
0001
1000
0100
1000
0010
0100
0001
0010
0001
1000
0100
0010
0001
1000
0001
0100
,
0001
0010
0100
1000
0010
0100
0010
1000
0100
0010
0001
1000
0001
0010
0001
1000
,
0001
0000
0000
0000
0000
0000
1000
0010
1000
0100
1000
0001
1000
0000
0000
0000
0000
0000
0001
0010
0001
0100
0001
0010
,
0001
0000
0000
0000
0000
0000
1000
0010
1000
0010
0100
0001
0100
0000
0000
0000
0000
0000
0001
0010
0100
1000
0001
1000
,
0001
0000
0000
0000
0000
0000
1000
0100
1000
0100
0010
0001
1000
0000
0000
0000
0000
0000
0001
0100
0001
1000
0100
0010
,
0100
0000
0000
0000
0000
0000
1000
0010
1000
0100
1000
0001
1000
0000
0000
0000
0000
0000
0001
1000
0001
0100
0010
0100
,
0001
0000
1000
0100
1000
0001
1000
0001
,
0010
0100
1000
0100
0010
0001
1000
0001
,
0100
0001
1000
0010
0100
0010
1000
0001
,
0010
0000
0100
0000
1000
0100
1000
0100
0010
0001
1000
0001
0100
0001
0010
0001
,
0010
0100
1000
0001
1000
0000
0100
0000
0010
0000
0100
0000
1000
0000
0010
0000
,
0100
0001
1000
0001
0010
0001
1000
0100
,
0010
0001
1000
0000
0001
0100
0001
0010
,
0001
1000
0100
1000
0002
0013
0200
1300
,
0002
0003
0000
0000
0000
0000
0000
0000
,
1000
0100
0000
0000
0010
0000
0000
0000
,
1000
0100
0000
0000
0010
0000
0000
0000
,
0001
0100
0000
0000
0010
0000
0000
0000
,
0001
0100
0001
0000
1000
0000
0000
0000
,
0100
0010
0001
0000
0000
0000
0000
0000
,
0000
2000
0000
3200
,
0000
0000
0000
0000
0000
0000
0310
0001
0010
0001
0000
0000
1000
0000
0000
0100
0000
0000
1000
0000
0000
0010
0000
0000
,
0100
0001
1000
0000
0000
0000
0000
0000
,
0000
0000
0000
0000
,
0000
0000
0000
0000
,
0000
0000
0000
0000
0000
0000
0000
0000
0000
0000
0000
0000
0000
0000
0000
0000
0000
0000
1000
0001
1000
0001
1000
0001
,
4000
0000
0000
0000
3001
0100
0001
0010
0100
1000
0001
0100
0001
1000
0100
0010
,
0001
1000
0010
0100
0001
1000
0100
1000
0001
0010
0100
1000
0001
0100
0001
1000
,
0100
0010
0001
1000
0001
0100
0001
0010
0100
1000
0001
0100
0001
1000
0100
0010
,
0001
1000
0001
1000
0200
0000
0000
0000
0320
0000
0032
0000
0000
0000
2003
0000
,
0000
0000
3200
0000
0310
0001
0100
0001
0010
0100
1000
0001
0100
0001
1000
0100
,
0010
0001
1000
0100
1000
0001
0100
0001
0010
0100
1000
0001
1000
0100
1000
0010
,
1000
0001
0100
0001
1000
0100
1000
0001
0100
0001
0010
0100
1000
0010
0100
0001
,
1000
0000
0000
0100
0000
0000
0010
0000
0000
0000
0000
0000
0001
1000
0001
0000
0000
0000
0000
0000
0000
0000
0000
0000
1000
0100
1000
0000
0000
0000
0000
0000
0000
0000
0000
0000
0010
0100
0010
0000
0000
0000
0000
0000
0000
0000
0000
0000
,
1000
0100
1000
0000
0000
0000
0000
0000
0000
0000
0000
0000
1000
0000
0100
0000
1000
0000
0100
0000
1000
0000
0001
0000
1000
0000
0000
0000
0000
0000
0000
0000
0000
0000
0000
0000
0001
0000
0100
0000
0001
0000
0010
0000
0001
0000
0010
0000
,
0001
0000
0000
0000
0000
0000
1000
0100
1000
0010
0100
0010
0100
0000
0000
0000
0000
0000
0001
0100
0001
1000
0001
1000
,
0001
0000
1000
0001
0100
0001
1000
0010
,
0100
0010
1000
0100
0010
0001
1000
0001
,
0010
0000
0000
0000
0001
0000
0000
0000
1000
0001
0100
0000
0000
0000
0000
0000
0010
1000
0001
0000
0000
0000
0000
0000
1000
0100
0010
0000
0000
0000
0000
0000
,
0001
1000
0100
0000
0000
0000
0000
0000
0010
0001
1000
0000
0000
0000
0000
0000
0010
0100
0001
0000
0000
0000
0000
0000
1000
0100
0010
0000
0000
0000
0000
0000
,
0001
1000
0001
0000
0000
0000
0000
0000
0001
0000
0100
0000
0001
0000
1000
0000
0010
0000
0100
0000
0010
0000
1000
0000
0100
0000
0010
0000
0001
0000
1000
0000
,
0001
0100
0001
0010
0100
1000
0010
0100
0010
1000
0100
0010
0001
1000
0001
0100
,
0001
0010
0100
1000
0001
0000
0000
0000
0000
0000
0000
0000
0000
0000
0000
0000
,
0000
0000
0000
0000
,
0000
0000
0000
0000
,
0000
0000
0000
0000
,
0000
1001
M000
0M00
,
00M0
000M
M000
00M0
,
0M00
0000
0001
1000
0100
0010
0001
0000
,
1000
0000
0001
0000
1000
0010
0100
0000
,
0000
0000
0001
0010
0100
0000
1000
0000
,
0001
0100
0010
1000
,
0001
0000
0010
0100
1000
0001
1000
0000
,
0001
0000
0010
0000
0100
1000
0000
0000
,
0001
0100
0010
1000
0001
0000
0010
0000
,
0100
1000
0001
1000
,
0100
0000
0010
0001
1000
0001
1000
0000
,
0100
0000
0010
0000
0001
1000
0010
0000
,
0000
0000
0100
0001
0010
0000
0100
0000
,
1000
0001
0100
0001
,
1000
0000
0100
0010
0001
1000
0001
0000
,
0100
0000
0000
0000
0010
0000
0000
0000
1000
0000
0100
0000
0010
0001
0100
0001
,
1000
0100
1000
0001
0100
0000
0000
0000
0000
0000
0000
0000
0000
0000
0000
0000
,
0000
0000
0000
0000
,
0000
0000
0000
0000
0010
1000
0100
0010
0001
0100
0001
1000
0001
0100
0001
0010
,
0100
1000
0001
1000
0010
0100
0001
0010
0001
1000
0100
0010
0001
1000
0001
0010
,
0001
0100
0010
1000
0100
0010
0001
1000
0001
0010
0001
1000
0100
1000
0010
0100
,
0001
1000
0100
1000
0010
0100
0001
0100
0010
1000
0100
0010
0001
1000
0001
0100
,
0001
0010
0100
1000
0001
0100
0001
1000
0100
0010
0001
1000
0010
1000
0100
1000
,
0001
0100
0001
0010
0100
1000
0010
0100
0010
1000
0100
0010
0001
1000
0001
0100
,
0001
0010
0100
1000
0010
0100
0001
1000
0100
1000
0001
0100
0010
1000
0001
0010
,
0100
1000
0001
0100
0001
0000
1000
0000
0100
0000
1000
0000
0010
0000
0100
0000
,
0001
0010
0001
0000
0000
0000
0000
0000
,
0000
0000
1000
0001
0100
0000
0010
0000
,
1000
0100
0010
0001
,
1000
0000
0001
0010
0001
0100
0001
0000
,
1000
0000
0100
0000
0010
0001
1000
0000
,
0000
0000
0001
0010
0100
0000
1000
0000
,
0001
0000
0000
1000
0100
1000
0100
1000
0100
1000
0100
1000
,
0100
1000
0100
0010
0001
0010
0001
0010
0001
0010
0001
0010
,
0001
0010
0001
1000
0010
1000
0010
1000
0010
1000
0010
1000
,
0010
0000
0000
0000
1000
0000
0000
0000
0010
0000
0000
0000
1000
0000
0000
0000
0000
0000
0000
0000
0000
0000
0000
0000
0001
0000
0000
0000
0000
0000
M000
0M00
M000
000M
0M00
000M
00M0
0M00
M000
00M0
0M00
000M
M000
000M
00M0
0M00
M000
000M
,
0M00
000M
M000
00M0
0M00
000M
M000
0M00
M000
00M0
0M00
000M
00M0
0M00
M000
000M
0M00
000M
M000
0000
0000
0000
0000
0000
1000
0000
0000
0000
0000
0000
0M00
M000
000M
0M00
000M
00M0
0M00
M000
000M
0M00
000M
M000
00M0
0M00
00M0
M000
0M00
00M0
,
000M
M000
000M
0M00
000M
00M0
0M00
M000
000M
0M00
000M
M000
00M0
0M00
000M
M000
000M
00M0
0M00
0000
0000
0000
0000
0000
1000
0000
0000
0000
0000
0000
000M
0M00
000M
M000
00M0
0M00
00M0
M000
0M00
00M0
000M
M000
0M00
M000
000M
0M00
000M
M000
,
00M0
0M00
00M0
M000
0M00
00M0
000M
M000
000M
0M00
000M
00M0
0M00
M000
000M
M000
00M0
0M00
000M
0000
0000
0000
0000
0000
1000
0000
0000
0000
0000
0000
0M00
00M0
000M
0M00
000M
00M0
0M00
M000
000M
0M00
000M
M000
00M0
0M00
00M0
M000
0M00
00M0
,
000M
M000
000M
0M00
000M
00M0
0M00
M000
000M
0M00
000M
M000
00M0
0M00
000M
M000
000M
00M0
0M00
0000
0000
0000
0000
0000
1000
0000
0000
0000
0000
0000
0000
0000
0000
0000
0000
0000
0100
0000
0000
0000
0000
0000
0000
0000
0000
0000
0000
0000
,
1000
0010
0100
0001
,
1000
0001
0010
0100
,
1000
0001
0100
0001
,
1000
0100
1000
MMMM
,
1000
MMMM
0001
MMMM
,
0001
MMMM
1000
MMMM
,
1000
MMMM
0001
MMMM
,
0001
0000
0000
MMMM
0000
0000
1000
0000
0100
0000
1000
0000
,
0100
0000
0010
0000
0001
0000
1000
0000
0001
0000
0100
0000
,
0001
0000
1000
0000
0010
0000
1000
0000
0100
0000
0010
0000
,
0100
0000
1000
0000
0001
0000
0100
0000
0001
0000
0010
0000
,
0100
0000
1000
0000
0001
0000
1000
0000
0000
0000
0000
0000
,
0000
0000
0000
0000
,
0000
0000
0000
0000
,
0000
0000
0000
0000
,
0000
0000
MMMM
0000
;

//---------------dance-single - ----------------
#NOTES:
     dance-single:
     :
     Challenge:
     18:
     1.000,1.000,0.021,0.332,1.000,1107.000,3.000,47.000,206.000,0.000:

0000
0000
0000
0000
,
2000
3002
0203
0300
0010
0000
1000
0000
,
0100
0010
0001
1000
,
0002
0203
0302
0023
0032
0003
1000
0000
,
0100
0000
0020
0032
2003
3000
0000
0000
,
0002
0203
0320
0030
1000
0000
0100
0000
,
0010
0001
1000
0001
,
2000
3200
0320
0032
2003
3000
0001
0000
,
1000
0000
0200
0320
0030
0000
0002
2003
,
3200
0320
0032
0003
1000
0000
0001
0000
,
0100
0010
1000
0001
,
0020
0230
2300
3200
0320
0030
0001
0000
,
1000
0000
0002
0203
0302
0003
0000
0000
,
2000
3200
0320
0030
0001
0000
0100
0000
,
0010
1000
0001
0010
,
0000
0100
0000
M0MM
0000
0000
0000
0000
0000
0000
0000
0000
0000
0000
0000
0000
0000
0000
0000
0000
0000
0000
0000
0000
0000
0000
0000
0000
0000
0000
0000
0000
0000
0000
0000
0000
0000
0000
0000
0000
0000
0000
0000
0000
0000
0000
0000
0000
0000
0100
0000
M0MM
0000
0000
0000
0000
0000
0000
0000
0000
0000
0000
0000
0000
0000
0000
0000
0000
0000
0000
0000
0000
0000
0000
0000
0000
0000
0000
0000
0000
0000
0000
0000
0000
0000
0000
0000
0000
0000
0000
0000
0000
0000
0000
0000
0000
0000
0100
0000
M0MM
0000
0000
0000
0000
0000
0000
0000
0000
0000
0000
0000
0000
0000
0000
0000
0000
0000
0000
0000
0000
0000
0000
0000
0000
0000
0000
0000
0000
0000
0000
0000
0000
0000
0000
0000
0000
0000
0000
0000
0000
0000
0000
0000
0000
0000
1000
0000
0MMM
0000
0000
0000
0000
0000
0000
0000
0000
0000
0000
0000
0000
0000
0000
0000
0000
0000
0000
0000
0000
0000
0000
0000
0000
0000
0000
0000
0000
0000
0000
0000
0000
0000
0000
0000
0000
0000
0000
0000
0000
0000
0000
0000
0000
,
0000
1000
0000
0MMM
0000
0000
0000
0000
0000
0000
0000
0000
0000
0000
0000
0000
0000
0000
0000
0000
0000
0000
0000
0000
0001
0000
0000
0000
0000
0000
0000
0000
0000
0000
0000
0000
0000
0000
0000
0000
0000
0000
0000
0000
0000
0000
0000
0000
0100
0000
0000
0000
0000
0000
0000
0000
0000
0000
0000
0000
0000
0000
0000
0000
0000
0000
0000
0000
0000
0000
0000
0000
0001
0000
0000
0000
0000
0000
0000
0000
0000
0000
0000
0000
0000
0000
0000
0000
0000
0000
0000
0000
0000
0000
0000
0000
0010
0000
0000
0000
0000
0000
0000
0000
0000
0000
0000
0000
0000
0000
0000
0000
0000
0000
0000
0000
0000
0000
0000
0000
0001
0000
0000
0000
0000
0000
0000
0000
0000
0000
0000
0000
0000
0000
0000
0000
0000
0000
0000
0000
0000
0000
0000
0000
0100
0000
0000
0000
0000
0000
0000
0000
0000
0000
0000
0000
0000
0000
0000
0000
0000
0000
0000
0000
0000
0000
0000
0000
0001
0000
0000
0000
0000
0000
0000
0000
0000
0000
0000
0000
0000
0000
0000
0000
0000
0000
0000
0000
0000
0000
0000
0000
,
1000
0000
0000
0000
,
0000
0000
0000
0000
,
0000
0000
0000
0000
,
0000
0000
0000
0000
,
0000
0000
0000
0000
,
0000
0000
0000
0000
,
0000
0000
0000
0000
,
0000
0000
0000
0000
,
1000
0100
1000
0001
0100
0001
0010
0100
1000
0010
0100
0010
1000
0100
0010
0001
,
1000
0001
0100
0001
0010
0100
1000
0001
0100
0001
1000
0010
0100
0001
1000
0001
,
0010
0001
1000
0100
0010
0001
1000
0001
0100
0001
0010
0100
1000
0001
0100
0001
,
1000
0100
1000
0010
0100
0001
1000
0001
0010
0100
1000
0010
1000
0001
0100
0001
,
1000
0100
0010
0100
1000
0001
0100
0001
1000
0010
0100
0001
1000
0001
0010
0100
,
1000
0001
0100
0001
1000
0100
0010
0001
1000
0010
0100
0010
1000
0001
0100
0001
,
0010
0100
1000
0001
0100
0001
1000
0100
0010
0001
1000
0001
0100
0001
0010
0100
,
1000
0001
0100
0001
0010
0100
1000
0001
0100
0001
1000
0100
0010
0001
1000
0001
,
0100
0001
0010
0100
1000
0010
0100
0010
1000
0100
0010
0001
1000
0001
0010
0100
,
1000
0001
0100
0001
1000
0100
0010
0001
1000
0001
0010
0100
1000
0010
0100
0001
,
1000
0100
1000
0010
0100
0001
1000
0001
0100
0010
1000
0001
0010
0100
1000
0001
,
1000
0100
1000
0100
0010
0004
4000
0000
0000
0000
0000
0000
0000
0000
0000
0000
0000
0000
0000
0000
0000
3003
0000
0000
,
1000
0001
0100
0001
0010
0100
1000
0001
0100
0001
1000
0100
0010
0001
1000
0010
,
0100
0001
0010
0100
1000
0001
0100
0001
1000
0100
0010
0001
1000
0010
0100
0001
,
1000
0001
0100
0010
1000
0001
0010
0100
1000
0001
1000
0010
1000
0100
0010
0001
,
1000
0001
0100
0001
1000
0010
0100
0010
1000
0100
0010
0001
1000
0001
0100
0001
,
1000
0000
0000
0000
0001
0100
0001
0010
0100
1000
0001
0100
0001
1000
0010
1000
,
0100
0010
0001
1000
0001
0100
0001
0010
0100
1000
0001
0100
0001
1000
0100
0010
,
0001
1000
0100
1000
0010
0100
0001
0010
0001
1000
0100
0010
0001
1000
0001
0100
,
0001
0010
0100
1000
0010
0100
0010
1000
0100
0010
0001
1000
0001
0010
0001
1000
,
0001
0000
0000
0000
0000
0000
1000
0100
1000
0100
0010
0001
1000
0000
0000
0000
0000
0000
0001
0010
0001
0010
0100
1000
,
0100
0000
0000
0000
0000
0000
1000
0001
1000
0100
1000
0100
0010
0000
0000
0000
0000
0000
0001
0100
0001
0100
0001
0010
,
0100
0000
0000
0000
0000
0000
1000
0010
0100
0001
1000
0001
1000
0000
0000
0000
0000
0000
0100
1000
0010
0100
0010
0100
,
0010
0000
0000
0000
0000
0000
0100
0001
0010
0001
0010
0100
1000
0000
0000
0000
0000
0000
0001
0100
0001
0100
0001
0100
,
0001
0000
1000
0100
1000
0001
1000
0001
,
0010
0100
1000
0100
0010
0001
1000
0001
,
0100
0001
1000
0010
0100
0010
1000
0001
,
0010
0000
0100
0000
1000
0010
1000
0100
0010
0001
1000
0001
0100
0001
1000
0001
,
0010
0100
1000
0001
1000
0000
0100
0000
0010
0000
0100
0000
1000
0000
0010
0000
,
0100
0001
1000
0001
0010
0001
1000
0100
,
0010
0001
1000
0000
0001
0100
0001
0010
,
0001
1000
0100
1000
0002
0013
0200
1300
,
0002
0003
0000
0000
0000
0000
0000
0000
,
1000
0100
0000
0000
0010
0000
0000
0000
,
1000
0100
0000
0000
0010
0000
0000
0000
,
0001
0100
0000
0000
0010
0000
0000
0000
,
0001
0100
0001
0000
1000
0000
0000
0000
,
0100
0010
0001
0000
0000
0000
0000
0000
,
0000
2000
0000
3200
,
0000
0000
0000
0000
0000
0000
0310
0001
0010
0001
0000
0000
1000
0000
0000
0100
0000
0000
1000
0000
0000
0010
0000
0000
,
0100
0001
1000
0000
0000
0000
0000
0000
,
0000
0000
0000
0000
,
0000
0000
0000
0000
,
0000
0000
0000
0000
0000
0000
0000
0000
0000
0000
0000
0000
0000
0000
0000
0000
0000
0000
1000
0001
1000
0001
1000
0001
,
4000
0000
0000
0000
3001
0100
0001
0010
0100
1000
0001
0100
0001
1000
0100
0010
,
0001
1000
0010
0100
0001
1000
0100
1000
0001
0010
0100
1000
0001
0100
0001
1000
,
0100
0010
0001
1000
0001
0100
0001
0010
0100
1000
0001
0100
0001
1000
0100
0010
,
0001
1000
0001
1000
0200
0000
0000
0000
0320
0000
0032
0000
0000
0000
2003
0000
,
0000
0000
3200
0000
0310
0001
0100
0001
0010
0100
1000
0001
0100
0001
1000
0100
,
0010
0001
1000
0100
1000
0001
0100
0001
0010
0100
1000
0001
1000
0100
1000
0010
,
1000
0001
0100
0001
1000
0100
1000
0001
0100
0001
0010
0100
1000
0010
0100
0001
,
1000
0000
0000
0100
0000
0000
0010
0000
0000
0000
0000
0000
0001
1000
0001
0000
0000
0000
0000
0000
0000
0000
0000
0000
1000
0100
1000
0000
0000
0000
0000
0000
0000
0000
0000
0000
0010
0100
0010
0000
0000
0000
0000
0000
0000
0000
0000
0000
,
1000
0100
1000
0000
0000
0000
0000
0000
0000
0000
0000
0000
0001
0000
0100
0000
0001
0000
1000
0000
0001
0000
1000
0000
0100
0000
0000
0000
0000
0000
0000
0000
0000
0000
0000
0000
0010
0000
0001
0000
0010
0000
0001
0000
1000
0000
0100
0000
,
1000
0000
0000
0000
0000
0000
0001
0100
0010
1000
0001
1000
0001
0000
0000
0000
0000
0000
1000
0100
1000
0100
0010
0001
,
1000
0000
1000
0001
0100
0001
1000
0010
,
0100
0010
1000
0100
0010
0001
1000
0001
,
0010
0000
0001
0000
1000
0100
0010
0001
1000
0100
0010
0001
1000
0010
0100
0001
,
1000
0010
0100
0001
1000
0100
0010
0001
1000
0100
0010
0001
1000
0010
0100
0001
,
1000
0010
0100
0001
1000
0100
1000
0010
0100
0001
1000
0010
0100
0001
0010
0001
,
1000
0100
0010
0001
1000
0100
1000
0010
0100
0001
1000
0001
0010
0100
1000
0001
,
0010
0100
1000
0001
1000
0000
0000
0000
0000
0000
0000
0000
0000
0000
0000
0000
,
0000
0000
0000
0000
,
0000
0000
0000
0000
,
0000
0000
0000
0000
,
0000
1001
M000
0M00
,
00M0
000M
M000
00M0
,
0M00
0000
0001
1000
0100
0010
0001
0000
,
1000
0000
0001
0000
1000
0010
0100
0000
,
0000
0000
0001
0010
0100
0000
1000
0000
,
0001
0100
0010
1000
,
0001
0000
0010
0100
1000
0001
1000
0000
,
0001
0000
0010
0000
0100
1000
0000
0000
,
0001
0100
0010
1000
0001
0000
0010
0000
,
0100
1000
0001
1000
,
0100
0000
0010
0001
1000
0001
1000
0000
,
0100
0000
0010
0000
0001
1000
0010
0000
,
0000
0000
0100
0001
0010
0000
0100
0000
,
1000
0001
0100
0001
,
1000
0000
0100
0010
0001
1000
0001
0000
,
0100
0000
0000
0000
0010
0000
0000
0000
1000
0000
0100
0000
0010
0001
0100
0001
,
1000
0100
1000
0001
0100
0000
0000
0000
0000
0000
0000
0000
0000
0000
0000
0000
,
0000
0000
0000
0000
,
0000
0000
0000
0000
0010
1000
0100
0010
0001
0100
0001
1000
0001
0100
0001
0010
,
0100
1000
0001
1000
0010
0100
0001
0010
0001
1000
0100
0010
0001
1000
0001
0010
,
0001
0100
0010
1000
0100
0010
0001
1000
0001
0010
0001
1000
0100
1000
0010
0100
,
0001
1000
0100
1000
0010
0100
0001
0100
0010
1000
0100
0010
0001
1000
0001
0100
,
0001
0010
0100
1000
0001
0100
0001
1000
0100
0010
0001
1000
0010
1000
0100
1000
,
0001
0100
0001
0010
0100
1000
0010
0100
0010
1000
0100
0010
0001
1000
0001
0100
,
0001
0010
0100
1000
0010
0100
0001
1000
0100
1000
0001
0100
0010
1000
0001
0010
,
0100
1000
0001
0100
0001
0000
1000
0000
0100
0000
1000
0000
0010
0000
0100
0000
,
0001
0010
0001
0000
0000
0000
0000
0000
,
0000
0000
0000
1000
0001
1000
0001
1000
0001
1000
0001
1000
,
0001
0000
0000
1000
0010
1000
0010
1000
0010
1000
0010
1000
,
0010
0000
0000
0100
0001
0100
0001
0100
0001
0100
0001
0100
,
0001
0000
0000
1000
0100
1000
0100
1000
0100
1000
0100
1000
,
0100
0000
0000
0010
0001
0010
0001
0010
0001
0010
0001
0010
,
0001
0000
0000
1000
0100
1000
0100
1000
0100
1000
0100
1000
,
0100
1000
0100
0010
0001
0010
0001
0010
0001
0010
0001
0010
,
0001
0010
0001
1000
0010
1000
0010
1000
0010
1000
0010
1000
,
0010
0000
0000
0000
1000
0000
0000
0000
0010
0000
0000
0000
1000
0000
0000
0000
0000
0000
0000
0000
0000
0000
0000
0000
0001
0000
0000
0000
0000
0000
M000
0M00
M000
000M
0M00
000M
00M0
0M00
M000
00M0
0M00
000M
M000
000M
00M0
0M00
M000
000M
,
0M00
000M
M000
00M0
0M00
000M
M000
0M00
M000
00M0
0M00
000M
00M0
0M00
M000
000M
0M00
000M
M000
0000
0000
0000
0000
0000
1000
0000
0000
0000
0000
0000
0M00
M000
000M
0M00
000M
00M0
0M00
M000
000M
0M00
000M
M000
00M0
0M00
00M0
M000
0M00
00M0
,
000M
M000
000M
0M00
000M
00M0
0M00
M000
000M
0M00
000M
M000
00M0
0M00
000M
M000
000M
00M0
0M00
0000
0000
0000
0000
0000
1000
0000
0000
0000
0000
0000
000M
0M00
000M
M000
00M0
0M00
00M0
M000
0M00
00M0
000M
M000
0M00
M000
000M
0M00
000M
M000
,
00M0
0M00
00M0
M000
0M00
00M0
000M
M000
000M
0M00
000M
00M0
0M00
M000
000M
M000
00M0
0M00
000M
0000
0000
0000
0000
0000
1000
0000
0000
0000
0000
0000
0M00
00M0
000M
0M00
000M
00M0
0M00
M000
000M
0M00
000M
M000
00M0
0M00
00M0
M000
0M00
00M0
,
000M
M000
000M
0M00
000M
00M0
0M00
M000
000M
0M00
000M
M000
00M0
0M00
000M
M000
000M
00M0
0M00
0000
0000
0000
0000
0000
1000
0000
0000
0000
0000
0000
0000
0000
0000
0000
0000
0000
0100
0000
0000
0000
0000
0000
0000
0000
0000
0000
0000
0000
,
1000
0010
0100
0001
,
1000
0001
0010
0100
,
1000
0001
0100
0001
,
1000
0100
1000
MMMM
,
1000
MMMM
0001
MMMM
,
0001
MMMM
1000
MMMM
,
1000
MMMM
0001
MMMM
,
0001
0000
0000
MMMM
0000
0000
1000
0000
0100
0000
1000
0000
,
0100
0000
0010
0000
0001
0000
1000
0000
0001
0000
0100
0000
,
0001
0000
1000
0000
0010
0000
1000
0000
0100
0000
0010
0000
,
0100
0000
1000
0000
0001
0000
0100
0000
0001
0000
0010
0000
,
0100
0000
1000
0000
0001
0000
1000
0000
0000
0000
0000
0000
,
0000
0000
0000
0000
,
0000
0000
0000
0000
,
0000
0000
0000
0000
,
0000
0000
MMMM
0000
;
