#TITLE:Speedcore Vibes;
#SUBTITLE:EXoduz Violation II;
#ARTIST:Imil Ft. VWT;
#TITLETRANSLIT:;
#SUBTITLETRANSLIT:;
#ARTISTTRANSLIT:;
#CREDIT:;
#BANNER:../Banner.png;
#BACKGROUND:../Background.png;
#LYRICSPATH:;
#CDTITLE:;
#MUSIC:Imil Ft. VWT - Speedcore Vibes.ogg;
#OFFSET:0.654;
#SAMPLESTART:96.491;
#SAMPLELENGTH:11.980;
#SELECTABLE:YES;
#DISPLAYBPM:175.000;
#BPMS:0.000=175.000,350.000=350.000,354.000=175.000;
#STOPS:350.000=0.175
,351.000=0.175
,352.000=0.175
,353.000=0.175
;
#BGCHANGES:;
// cache tags:
#FIRSTBEAT:2.000;
#LASTBEAT:518.000;
#SONGFILENAME:Songs/EXoduz Violation II/Speedcore Vibes - [Ov3rHell3XoduZ]/sm.sm;
#HASMUSIC:1;
#HASBANNER:1;
#MUSICLENGTH:178.325;
// end cache tags

//---------------dance-single - ----------------
#NOTES:
     dance-single:
     :
     Beginner:
     13:
     1.000,1.000,0.583,1.000,0.850,937.000,104.000,277.000,71.000,42.000:
0000
0000
2000
3200
,
0320
0032
2003
3020
,
0230
0302
2003
3200
,
0320
0032
2003
3002
,
0203
0000
0000
0310
1000
0000
0100
0000
0020
0000
0000
0000
0032
0000
0000
0000
,
0023
0230
2300
3002
,
0203
0302
2003
3200
,
0320
0032
2003
3020
,
0230
0000
0000
0301
1000
0000
0100
0000
0010
0000
0000
0000
0001
0000
1000
0000
,
0000
0000
0100
0000
0020
0000
0000
0000
0032
0000
0000
0000
0103
0000
0010
1000
,
0100
0010
0001
0000
1000
0000
0010
0000
0200
0000
0000
0000
0301
0000
0010
0000
,
0000
0000
0100
0000
2000
0000
0000
0000
3002
0000
0000
0000
0103
0000
0010
1000
,
0100
0010
0001
0000
1000
0000
0010
0000
0200
0000
0000
0000
0301
0000
0010
0000
,
0000
0000
0100
0000
2000
0000
0000
0000
3002
0000
0000
0000
0103
0000
0010
1000
,
0100
0010
0001
0000
1000
0000
0001
0000
0200
0000
0000
0000
0310
0000
1000
0000
,
0000
0100
0010
0000
0112
0003
2110
3000
,
0001
1000
0010
0100
0001
1000
0001
1000
0002
0000
0000
0000
2003
0000
0000
0000
,
3020
0230
0302
2003
,
3200
0320
0230
2300
,
3002
0203
0302
2003
,
3020
0230
0302
0023
,
0230
2300
3002
2003
,
3200
0000
0000
0000
0320
0000
0000
0000
0031
0100
0001
0000
1000
0010
1000
0000
,
0001
0010
0001
0000
1000
0100
1000
0000
0001
0100
0001
0000
1000
0010
1000
0000
,
0001
0010
0001
0000
1000
0100
1000
0000
0102
0000
1003
0000
0010
0000
0100
0000
,
0002
0013
0100
1000
0002
1003
0010
0200
,
0301
1000
0200
1300
0002
1003
0010
0100
,
0001
2000
3100
0010
0002
1003
0010
0100
,
0001
1000
0100
1000
0002
0013
0100
1000
,
0020
0130
0001
1000
0200
0310
0001
2000
,
3001
0100
0001
0010
0200
1300
0001
0100
,
0001
2000
3100
0010
0002
1003
0010
0100
,
0001
1000
0100
1000
0001
0010
0100
1000
0001
1000
0010
0100
0001
1000
0100
1000
,
0001
0010
0100
1000
0010
0100
0001
1000
0100
1000
0001
0010
0100
0010
0001
1000
,
0010
0100
0001
1000
0100
1000
0001
0100
0001
1000
0001
0010
0100
1000
0001
0100
,
0001
1000
0100
0010
0001
1000
0001
0010
0100
1000
0001
0100
0001
1000
0010
0100
,
0001
1000
0100
1000
0001
0100
0001
0010
0100
1000
0001
0100
0001
1000
0100
0010
,
0001
1000
0010
1000
0100
0010
0001
0100
0001
1000
0001
0010
0100
1000
0001
0100
,
0001
1000
0010
0100
0001
1000
0100
1000
0002
1003
0010
0100
0001
1000
0100
1000
,
0001
0100
0001
0010
0100
1000
0001
1000
0010
0100
0001
0010
0001
1000
0100
0010
,
0001
1000
0001
0010
0100
1000
0001
0100
0002
1003
0010
0100
0001
1000
0100
1000
,
0001
0010
0100
1000
0001
0100
0001
1000
0100
0010
0001
1000
0010
0100
0001
0010
,
0001
0000
0000
1000
0000
0000
0100
0000
0000
1000
0000
0000
0004
0000
0000
0000
0000
0000
0103
0000
0010
0000
1000
0000
0100
0000
0000
0010
0000
0000
0001
0000
0000
1000
0000
0000
0001
0000
0000
0010
0000
0000
0100
0000
0000
1000
0000
0000
,
0001
0100
0001
1000
0010
0100
0001
0010
0001
1000
0100
0010
0001
1000
0001
0010
,
0100
0000
0000
1000
0000
0000
0001
0000
0000
0100
0000
0000
0001
0000
1000
0000
0001
0000
1000
0000
0010
0000
0100
0000
0001
0000
0000
1000
0000
0000
0100
0000
0000
1000
0000
0000
0001
0000
0000
0010
0000
0000
0100
0000
0000
1000
0000
0000
,
0001
0000
0000
0100
0000
0000
0001
0000
0000
1000
0000
0000
0100
0000
0000
0010
0000
0000
0001
0000
1000
0000
0010
0000
0100
0000
0000
0001
0000
0000
1000
0000
0000
0100
0000
0000
1000
0000
0000
0001
0000
0000
0010
0000
0000
0100
0000
0000
,
1000
0001
1000
0000
4111
0000
0000
0000
3001
0100
0001
0010
0100
1000
0001
0100
,
0001
1000
0100
0010
0001
1000
0010
1000
0100
0010
0001
1000
0001
0100
0001
0000
,
2222
0000
3333
0000
2222
0000
3333
0000
1000
0001
0100
0001
1000
0010
0100
0001
,
0040
0000
0000
0000
0430
0000
0000
0000
1300
0001
0100
0001
0010
0100
1000
0010
,
0100
0001
0010
0001
1000
0100
0010
0001
1000
0001
0010
0100
1000
0001
0100
0001
,
1000
0010
0100
0001
1000
0100
1000
0000
2110
3000
0000
0000
MMMM
0000
0000
0000
,
0122
0033
0000
0000
MMMM
0000
0000
0000
2222
3333
2200
3300
2200
3300
0220
0330
,
0220
0330
0022
0033
0022
0033
0002
2003
3020
0030
2020
3030
2020
3030
0202
0303
,
0202
0303
2200
3300
2110
3000
MMMM
0000
0112
0003
MMMM
0000
2110
3000
MMMM
0000
,
0112
0003
MMMM
0000
2110
3000
MMMM
0000
0112
0003
0000
0000
0101
0000
0011
0000
,
0210
4300
3200
0300
,
0000
0000
0020
0030
,
0000
0000
0002
0003
,
0000
0000
0200
0300
,
0020
0030
2000
3000
,
0000
0000
0200
0300
,
0000
0000
0020
0030
,
0000
0000
0002
2003
,
3020
0000
0000
0000
0130
0001
1000
0100
0020
0030
1010
0000
2011
3000
0000
0000
,
0112
0003
0000
0000
2110
3000
0000
0000
0112
0003
0000
0000
2110
3000
0000
0000
,
0112
0003
0000
0000
0100
0001
1000
0100
2000
3000
0000
0000
0112
0003
0000
0000
,
2110
3000
0000
0000
0112
0003
0000
0000
2110
3000
0000
0000
0112
0003
0000
0000
,
0200
0000
0300
0000
0002
0000
0003
0000
0020
0000
0030
0000
0100
1000
0100
1000
0200
0000
0000
0000
0300
0000
0000
0000
2200
0000
0000
0000
3300
0000
0000
0000
,
2020
3030
0202
0303
0022
0033
0220
0330
,
2200
3300
1001
0101
0022
0033
0220
0330
,
2200
3300
2020
3030
0202
0303
0022
0033
,
0200
0000
0000
0000
0000
0000
0000
0000
1300
0001
0100
0001
1000
0100
0010
0001
,
1000
0010
1000
0100
0010
0001
0100
0001
1000
0100
1000
0001
0010
0100
1000
0001
,
0100
0001
1000
0100
0040
0030
0004
0003
1000
0010
0100
0001
1000
0100
1000
0001
,
0100
0001
1000
0100
0010
0001
1000
0001
0020
0030
0200
0300
2000
3000
0100
0010
,
0200
0000
0000
0000
2300
0000
3000
0000
0010
0100
0001
1000
0100
1000
0001
0010
,
0100
1000
0001
0100
0001
1000
0100
0010
0001
1000
0010
1000
0100
0010
0001
0100
,
0004
0000
0000
0000
4003
0000
0000
0000
3010
0100
0001
1000
0100
1000
0001
0010
,
0100
1000
0001
0100
0001
1000
0100
0010
0002
0003
1002
0003
0002
0003
0000
0000
,
1112
0003
0000
0000
2111
3000
0004
0000
0203
0000
0000
0000
0320
0000
0000
0000
,
2030
3200
0320
0032
,
2003
0000
0000
0000
0000
0000
3020
0000
0000
0130
0001
1000
0200
0000
0000
0000
0000
0000
0320
0000
0000
0000
0000
0000
,
0032
0000
0000
0000
0000
0000
0000
0000
0000
0000
0000
0000
2003
0000
0000
3000
0000
0000
2002
0000
0000
3003
0000
0000
1000
0000
0010
0000
0100
0000
0001
0000
0000
0000
0000
0000
0010
0000
0000
0000
0000
0000
0100
0000
1000
0000
0001
0000
,
0010
0000
0000
0100
0000
0000
1000
0010
0100
0001
0000
0000
1000
0000
0000
0100
0000
0000
1000
0000
0000
0010
0000
0000
,
0100
0001
1000
0001
0010
0100
1000
0001
,
0100
0001
1221
0330
2112
3113
1001
1200
,
0340
0000
0000
0000
0034
0000
0000
0003
2110
3000
MMMM
0000
0112
0003
MMMM
0000
,
2110
3000
MMMM
0000
0112
0003
MMMM
0000
1111
0000
0000
0000
0000
0000
0000
0000
,
0000
0000
0000
0000
,
0000
0000
0000
0000
,
0000
0000
0000
0000
,
0000
0000
0000
0000
,
0M00
0000
00M0
0000
,
M000
0000
0M00
0000
,
0000
0000
0000
0000
,
0000
0000
0000
0000
0000
0000
0000
0000
0010
0001
0010
0001
1000
0010
1000
0010
,
0100
0001
0100
0001
0040
0000
0000
0000
0130
1000
0100
1000
0010
1000
0010
0100
,
0001
0100
0001
0010
0001
0010
0400
0000
1300
0001
1000
0001
0010
0001
0010
0100
,
1000
0100
1000
0010
1000
0010
0100
0001
0202
0000
0303
0000
0202
0000
0303
0000
,
0001
0010
0400
0000
2300
0000
0000
0000
,
3020
0430
0302
0000
,
0023
0000
0000
0000
0230
0300
2100
3000
2000
0000
0000
0000
0000
0000
0000
0000
,
3020
0000
0000
0000
0000
0000
0000
0000
0230
0300
0002
0003
0020
0030
0200
0300
,
2000
0000
0000
0000
0000
0000
0000
0000
3001
0100
0001
0100
0001
1000
0010
1000
,
0010
0100
0001
1000
0004
0000
0000
0000
0013
0100
0010
0100
1000
0100
1000
0001
,
0100
0001
1000
0100
4000
0000
0000
0000
3010
0100
0001
0100
0001
0100
0010
0100
,
0001
0000
0000
0010
0000
0000
0100
0000
0000
1000
0000
0000
0001
0000
0000
1000
0000
0000
0001
0000
1000
0000
0001
0000
0200
0000
0000
0000
0000
0000
0000
0000
0000
0000
0000
0000
0320
0000
0000
0000
0000
0000
0000
0000
0000
0000
0000
0000
,
0000
0000
0000
0000
2030
3000
0120
0030
0002
0000
0000
0000
0000
0000
0000
0000
,
0103
0001
1000
0010
0400
0000
0000
0000
0302
0000
0000
0000
0000
0000
0000
0000
,
0043
0430
2300
0000
,
3020
0030
0210
0000
0301
0011
0110
1100
,
1001
MMMM
1111
0000
M4MM
0000
0000
0000
,
0310
1000
0100
0010
0001
1000
0001
0010
0100
1000
0001
0100
0001
1000
0100
0010
,
0001
1000
0010
1000
0200
0300
0020
0030
0002
0000
0000
0000
2003
0000
0000
0000
,
3020
0230
0302
2003
,
3400
0340
0032
2003
,
3020
0230
0302
2003
,
3200
0000
0000
0000
0312
0000
0000
0000
0103
0010
1000
0100
0020
0000
0000
0000
,
0032
0000
0000
0000
0000
0000
0000
0000
2003
0000
0000
0000
0000
0000
0000
0000
3010
0100
0001
0100
0002
0000
0000
0000
0103
0001
0020
0000
0130
1000
0002
0000
,
0000
0000
0000
0000
1003
0010
0200
0000
0301
0010
0200
0000
0300
0000
0000
0000
0200
0000
0000
0000
0000
0000
0000
0000
2300
0000
0000
0000
0000
0000
0000
0000
,
3020
0230
0302
2003
,
3400
0000
0000
0000
0340
0000
0000
0000
0031
1000
0010
0100
0001
1000
0100
1000
,
0001
0010
0100
1000
0010
0100
0001
1000
0200
0000
0000
0000
0310
0000
0011
0000
,
0101
0000
0040
0000
,
0000
0000
0000
4030
3400
0000
0000
0000
,
0000
0000
0340
0000
,
0000
0000
0000
0000
0000
0000
0030
0000
0112
0003
0000
0000
2110
3000
0000
0000
,
0112
0003
0000
0000
2110
3000
0000
0000
0112
0003
0000
0000
MMMM
0000
0000
0000
,
MMMM
MMMM
MMMM
0000
;

//---------------dance-single - ----------------
#NOTES:
     dance-single:
     :
     Easy:
     14:
     1.000,1.000,0.550,1.000,1.000,1038.000,98.000,265.000,71.000,42.000:
0000
0000
2000
3200
,
0320
0032
2003
3020
,
0230
0302
2003
3200
,
0320
0032
2003
3002
,
0203
0000
0000
0310
1000
0000
0100
0000
0020
0000
0000
0000
0032
0000
0000
0000
,
0023
0230
2300
3002
,
0203
0302
2003
3200
,
0320
0032
2003
3020
,
0230
0000
0000
0301
1000
0000
0100
0000
0010
0000
0000
0000
0001
0000
1000
0000
,
0000
0000
0100
0000
0020
0000
0000
0000
0032
0000
0000
0000
0103
0000
0010
1000
,
0100
0010
0001
0000
1000
0000
0010
0000
0200
0000
0000
0000
0301
0000
0010
0000
,
0000
0000
0100
0000
2000
0000
0000
0000
3002
0000
0000
0000
0103
0000
0010
1000
,
0100
0010
0001
0000
1000
0000
0010
0000
0200
0000
0000
0000
0301
0000
0010
0000
,
0000
0000
0100
0000
2000
0000
0000
0000
3002
0000
0000
0000
0103
0000
0010
1000
,
0100
0010
0001
0000
1000
0000
0001
0000
0200
0000
0000
0000
0310
0000
1000
0000
,
0000
0100
0010
0000
0112
0003
2110
3000
,
0001
1000
0010
0100
0001
1000
0001
1000
0002
0000
0000
0000
2003
0000
0000
0000
,
3020
0230
0302
2003
,
3200
0320
0230
2300
,
3002
0203
0302
2003
,
3020
0230
0302
0023
,
0230
2300
3002
2003
,
3200
0000
0000
0000
0320
0000
0000
0000
0031
0100
0001
0000
1000
0010
1000
0000
,
0001
0010
0001
0000
1000
0100
1000
0000
0001
0100
0001
0000
1000
0010
1000
0000
,
0001
0010
0001
0000
1000
0100
1000
0000
0102
0000
1003
0000
0010
0000
0100
0000
,
0002
0013
0100
1000
0002
1003
0010
0200
,
0301
1000
0200
1300
0002
1003
0010
0100
,
0001
2000
3100
0010
0002
1003
0010
0100
,
0001
1000
0100
1000
0002
0013
0100
1000
,
0020
0130
0001
1000
0200
0310
0001
2000
,
3001
0100
0001
0010
0200
1300
0001
0100
,
0001
2000
3100
0010
0002
1003
0010
0100
,
0001
1000
0100
1000
0001
0010
0100
1000
0001
1000
0010
0100
0001
1000
0100
1000
,
0001
0010
0100
1000
0010
0100
0001
1000
0100
1000
0001
0010
0100
0010
0001
1000
,
0010
0100
0001
1000
0100
1000
0001
0100
0001
1000
0001
0010
0100
1000
0001
0100
,
0001
1000
0100
0010
0001
1000
0001
0010
0100
1000
0001
0100
0001
1000
0010
0100
,
0001
1000
0100
1000
0001
0100
0001
0010
0100
1000
0001
0100
0001
1000
0100
0010
,
0001
1000
0010
1000
0100
0010
0001
0100
0001
1000
0001
0010
0100
1000
0001
0100
,
0001
1000
0010
0100
0001
1000
0100
1000
0002
1003
0010
0100
0001
1000
0100
1000
,
0001
0100
0001
0010
0100
1000
0001
1000
0010
0100
0001
0010
0001
1000
0100
0010
,
0001
1000
0001
0010
0100
1000
0001
0100
0002
1003
0010
0100
0001
1000
0100
1000
,
0001
0010
0100
1000
0001
0100
0001
1000
0100
0010
0001
1000
0010
0100
0001
0010
,
0001
0000
0000
1000
0000
0000
0100
0000
0000
1000
0000
0000
0004
0000
0000
0000
0000
0000
0103
0000
0010
0000
1000
0000
0100
0000
0000
0010
0000
0000
0001
0000
0000
1000
0000
0000
0001
0000
0000
0010
0000
0000
0100
0000
0000
1000
0000
0000
,
0001
0100
0001
1000
0010
0100
0001
0010
0001
1000
0100
0010
0001
1000
0001
0010
,
0100
0000
0000
1000
0000
0000
0001
0000
0000
0100
0000
0000
0001
0000
1000
0000
0001
0000
1000
0000
0010
0000
0100
0000
0001
0000
0000
1000
0000
0000
0100
0000
0000
1000
0000
0000
0001
0000
0000
0010
0000
0000
0100
0000
0000
1000
0000
0000
,
0001
0000
0000
0100
0000
0000
0001
0000
0000
1000
0000
0000
0100
0000
0000
0010
0000
0000
0001
0000
1000
0000
0010
0000
0100
0000
0000
0001
0000
0000
1000
0000
0000
0100
0000
0000
1000
0000
0000
0001
0000
0000
0010
0000
0000
0100
0000
0000
,
1000
0001
1000
0000
4111
0000
0000
0000
3001
0100
0001
0010
0100
1000
0001
0100
,
0001
1000
0100
0010
0001
1000
0010
1000
0100
0010
0001
1000
0001
0100
0001
0000
,
2222
0000
3333
0000
2222
0000
3333
0000
1000
0001
0100
0001
1000
0010
0100
0001
,
0010
0000
0100
0000
1000
0000
0100
0000
1000
0000
0001
0000
0100
0000
0001
0000
1000
0000
0100
0000
1000
0000
0001
0000
1000
0000
0000
0001
0000
0000
0100
0000
0000
0001
0000
0000
0010
0000
0000
0100
0000
0000
1000
0000
0000
0010
0000
0000
,
0100
0001
0010
0001
1000
0100
0010
0001
1000
0001
0010
0100
1000
0001
0100
0001
,
1000
0010
0100
0001
1000
0100
1000
0000
2110
3000
0000
0000
MMMM
0000
0000
0000
,
0122
0033
0000
0000
MMMM
0000
0000
0000
2222
3333
2200
3300
2200
3300
0220
0330
,
0220
0330
0022
0033
0022
0033
0002
2003
3020
0030
2020
3030
2020
3030
0202
0303
,
0202
0303
2200
3300
2110
3000
MMMM
0000
0112
0003
MMMM
0000
2110
3000
MMMM
0000
,
0112
0003
MMMM
0000
2110
3000
MMMM
0000
0112
0003
0000
0000
0101
0000
0011
0000
,
0210
4300
3200
0300
,
0000
0000
0020
0030
,
0000
0000
0002
0003
,
0000
0000
0200
0300
,
0020
0030
2000
3000
,
0000
0000
0200
0300
,
0000
0000
0020
0030
,
0000
0000
0002
2003
,
3020
0000
0000
0000
0130
0001
1000
0100
0020
0030
1010
0000
2011
3000
0000
0000
,
0112
0003
0000
0000
2110
3000
0000
0000
0112
0003
0000
0000
2110
3000
0000
0000
,
0112
0003
0000
0000
0100
0001
1000
0100
2000
3000
0000
0000
0112
0003
0000
0000
,
2110
3000
0000
0000
0112
0003
0000
0000
2110
3000
0000
0000
0112
0003
0000
0000
,
0200
0000
0300
0000
0002
0000
0003
0000
0020
0000
0030
0000
0100
1000
0100
1000
0200
0000
0000
0000
0300
0000
0000
0000
2200
0000
0000
0000
3300
0000
0000
0000
,
2020
3030
0202
0303
0022
0033
0220
0330
,
2200
3300
1001
0101
0022
0033
0220
0330
,
2200
3300
2020
3030
0202
0303
0022
0033
,
0200
0000
0000
0000
0000
0000
0000
0000
1300
0001
0100
0001
1000
0100
0010
0001
,
1000
0010
1000
0100
0010
0001
0100
0001
1000
0100
1000
0001
0010
0100
1000
0001
,
0100
0000
0001
0000
1000
0000
0100
0000
0010
0001
1000
0000
0010
0100
0001
0000
1000
0000
0010
0000
0100
0000
0001
0000
1000
0000
0100
0000
1000
0000
0001
0000
,
0100
0001
1000
0100
0010
0001
1000
0001
0020
0030
0200
0300
2000
3000
0100
0010
,
0200
0000
0000
0000
2300
0000
3000
0000
0010
0100
0001
1000
0100
1000
0001
0010
,
0100
1000
0001
0100
0001
1000
0100
0010
0001
1000
0010
1000
0100
0010
0001
0100
,
0004
0000
0000
0000
4003
0000
0000
0000
3010
0100
0001
1000
0100
1000
0001
0010
,
0100
1000
0001
0100
0001
1000
0100
0010
0002
0003
1002
0003
0002
0003
0000
0000
,
1112
0000
0003
0000
0000
0000
0000
0000
2111
0000
3000
0000
0100
0001
0100
0001
0200
0000
0000
0000
0000
0000
0000
0000
0320
0000
0000
0000
0000
0000
0000
0000
,
2030
3200
0320
0032
,
2003
0000
0000
0000
0000
0000
3020
0000
0000
0130
0001
1000
0200
0000
0000
0000
0000
0000
0320
0000
0000
0000
0000
0000
,
0032
0000
0000
0000
0000
0000
0000
0000
0000
0000
0000
0000
2003
0000
0000
3000
0000
0000
2002
0000
0000
3003
0000
0000
1000
0000
0010
0000
0100
0000
0001
0000
0000
0000
0000
0000
0010
0000
0000
0000
0000
0000
0100
0000
1000
0000
0001
0000
,
0010
0000
0000
0000
0000
0000
0100
0000
0000
0000
0000
0000
1000
0000
0010
0000
0100
0000
0001
0000
0000
1000
0000
0000
0010
0000
0000
0100
0000
0000
0001
0000
0000
1000
0000
0000
0100
0000
0000
1000
0000
0000
0001
0000
0000
0010
0000
0000
,
0001
1000
0010
0100
0001
1000
0100
0010
0001
1000
0001
0010
0100
1000
0001
0100
,
0001
1000
0100
0000
1221
0000
0330
0000
2112
0000
3113
0000
1001
0000
1200
0000
,
0340
0000
0000
0000
0034
0000
0000
0003
2110
3000
MMMM
0000
0112
0003
MMMM
0000
,
2110
3000
MMMM
0000
0112
0003
MMMM
0000
1111
0000
0000
0000
0000
0000
0000
0000
,
0000
0000
0000
0000
,
0000
0000
0000
0000
,
0000
0000
0000
0000
,
0000
0000
0000
0000
,
0M00
0000
00M0
0000
,
M000
0000
0M00
0000
,
0000
0000
0000
0000
,
0000
0000
0000
0000
0000
0000
0000
0000
0010
0001
1000
0010
0100
0001
1000
0100
,
0010
0000
0000
0001
0000
0000
1000
0000
0000
0010
0000
0000
0200
0000
0000
0000
0000
0000
0301
0000
0010
0000
0100
0000
1000
0000
0000
0001
0000
0000
0100
0000
0000
0001
0000
0000
1000
0000
0000
0010
0000
0000
0100
0000
0000
0001
0000
0000
,
0010
0000
0000
0100
0000
0000
1000
0000
0000
0001
0000
0000
0100
0000
0000
0001
0000
0000
1000
0000
0010
0000
0100
0000
0001
0000
0000
1000
0000
0000
0010
0000
0000
0100
0000
0000
0001
0000
0000
1000
0000
0000
0100
0000
0000
1000
0000
0000
,
0001
0010
0100
1000
0001
0100
0001
1000
2002
0000
3003
0000
0202
0000
0303
0000
,
0001
0010
0400
0000
2300
0000
0000
0000
,
3020
0430
0302
0000
,
0023
0000
0000
0000
0230
0300
2100
3000
2000
0000
0000
0000
0000
0000
0000
0000
,
3020
0000
0000
0000
0000
0000
0000
0000
0230
0300
0002
0003
0020
0030
0200
0300
,
2000
0000
0000
0000
0000
0000
0000
0000
3001
0010
0100
1000
0001
0100
0001
1000
,
0100
0000
0000
0010
0000
0000
0001
0000
0000
1000
0000
0000
0020
0000
0000
0000
0000
0000
0130
0000
0001
0000
1000
0000
0100
0000
0000
0010
0000
0000
0001
0000
0000
1000
0000
0000
0010
0000
0000
1000
0000
0000
0100
0000
0000
0010
0000
0000
,
0001
0000
0000
0100
0000
0000
0001
0000
0000
0010
0000
0000
0100
0000
1000
0000
0001
0000
0010
0000
0100
0000
1000
0000
0010
0000
0000
0100
0000
0000
0001
0000
0000
1000
0000
0000
0100
0000
0000
1000
0000
0000
0001
0000
0000
0100
0000
0000
,
0010
0000
0000
1000
0000
0000
0100
0000
0000
0010
0000
0000
0001
0000
0000
1000
0000
0000
0010
0000
0100
0000
0001
0000
0010
0000
0000
0100
0000
0000
1000
0000
0000
0001
0000
0000
0100
0000
0000
0001
0000
0000
1000
0000
0000
0100
0000
0000
,
0010
0001
1000
0010
2000
3000
0120
0030
0002
0000
0000
0000
0000
0000
0000
0000
,
0103
0001
1000
0010
0400
0000
0000
0000
0302
0000
0000
0000
0000
0000
0000
0000
,
0043
0430
2300
0000
,
3020
0030
0210
0000
0301
0011
0110
1100
,
1001
MMMM
1111
0000
M4MM
0000
0000
0000
,
0310
1000
0100
0010
0001
1000
0001
0010
0100
1000
0001
0100
0001
1000
0100
0010
,
0001
1000
0010
1000
0200
0300
0020
0030
0001
0010
0001
0010
0001
1000
0010
1000
,
0010
0100
0001
0100
0001
0010
0100
1000
0100
1000
0100
0010
0001
0010
0001
1000
,
0400
0340
0032
2003
,
3020
0230
0302
2003
,
3200
0000
0000
0000
0312
0000
0000
0000
0103
0010
1000
0100
0020
0000
0000
0000
,
0032
0000
0000
0000
0000
0000
0000
0000
2003
0000
0000
0000
0000
0000
0000
0000
3010
0100
0001
0100
0002
0000
0000
0000
0103
0001
0020
0000
0130
1000
0002
0000
,
0000
0000
0000
0000
1003
0010
0200
0000
0301
0010
0200
0000
1300
0000
0001
0000
0100
0000
0001
0000
1000
0000
0010
0000
0100
0000
0001
0000
0010
0000
0001
0000
,
1000
0100
0010
0001
1000
0001
0010
0100
1000
0010
0100
0001
1000
0100
1000
0001
,
0400
0000
0000
0000
0340
0000
0000
0000
1030
0100
1000
0001
0010
0100
1000
0100
,
0010
0001
1000
0010
0100
0001
1000
0100
0020
0000
0000
0000
0031
0000
0011
0000
,
0101
0000
0040
0000
,
0000
0000
0000
4030
3400
0000
0000
0000
,
0000
0000
0340
0000
,
0000
0000
0000
0000
0000
0000
0030
0000
0112
0003
0000
0000
2110
3000
0000
0000
,
0112
0003
0000
0000
2110
3000
0000
0000
0112
0003
0000
0000
MMMM
0000
0000
0000
,
MMMM
MMMM
MMMM
0000
;

//---------------dance-single - ----------------
#NOTES:
     dance-single:
     :
     Medium:
     14:
     1.000,1.000,0.443,1.000,1.000,1207.000,79.000,262.000,71.000,35.000:
0000
0000
2000
3200
,
0320
0032
2003
3020
,
0230
0302
2003
3200
,
0320
0032
2003
3002
,
0203
0000
0000
0310
1000
0000
0100
0000
0020
0000
0000
0000
0032
0000
0000
0000
,
0023
0230
2300
3002
,
0203
0302
2003
3200
,
0320
0032
2003
3020
,
0230
0000
0000
0301
1000
0000
0100
0000
0010
0000
0000
0000
0001
0000
1000
0000
,
0000
0000
0100
0000
0020
0000
0000
0000
0032
0000
0000
0000
0103
0000
0010
1000
,
0100
0010
0001
0000
1000
0000
0010
0000
0200
0000
0000
0000
0301
0000
0010
0000
,
0000
0000
0100
0000
2000
0000
0000
0000
3002
0000
0000
0000
0103
0000
0010
1000
,
0100
0010
0001
0000
1000
0000
0010
0000
0200
0000
0000
0000
0301
0000
0010
0000
,
0000
0000
0100
0000
2000
0000
0000
0000
3002
0000
0000
0000
0103
0000
0010
1000
,
0100
0010
0001
0000
1000
0000
0001
0000
0200
0000
0000
0000
0310
0000
1000
0000
,
0000
0100
0010
0000
0112
0003
2110
3000
,
0001
1000
0010
0100
0001
1000
0001
1000
0002
0000
0000
0000
2003
0000
0000
0000
,
3020
0230
0302
2003
,
3200
0320
0230
2300
,
3002
0203
0302
2003
,
3020
0230
0302
0023
,
0230
2300
3002
2003
,
3200
0000
0000
0000
0320
0000
0000
0000
0031
0100
0001
0000
1000
0010
1000
0000
,
0001
0010
0001
0000
1000
0100
1000
0000
0001
0100
0001
0000
1000
0010
1000
0000
,
0001
0010
0001
0000
1000
0100
1000
0000
0001
1000
0010
0100
0001
1000
0100
1000
,
0020
0130
0001
0010
0100
1000
0001
0100
0002
1003
0010
0100
0001
1000
0200
0310
,
0001
1000
0010
1000
0002
0013
0100
1000
0002
0103
0010
1000
0100
1000
0001
0010
,
0100
1000
0002
1003
0010
0100
0001
1000
0200
0310
0001
1000
0010
1000
0100
0010
,
0001
0100
0001
0010
0100
1000
0001
0100
0002
0013
0100
1000
0001
1000
0010
0100
,
0002
0013
0100
0010
0001
1000
0010
0100
0002
1003
0100
0010
0001
1000
0020
0130
,
0001
0010
0100
1000
0001
0100
0001
1000
0200
0310
0001
1000
0001
0010
0100
1000
,
0001
0100
0002
1003
0010
0100
0001
1000
0200
0310
0001
1000
0010
1000
0100
0010
,
0001
1000
0100
1000
0001
0010
0100
1000
0001
1000
0010
0100
0001
1000
0100
1000
,
0001
0010
0100
1000
0010
0100
0001
1000
0100
1000
0001
0010
0100
0010
0001
1000
,
0010
0100
0001
1000
0100
1000
0001
0100
0001
1000
0001
0010
0100
1000
0001
0100
,
0001
1000
0100
0010
0001
1000
0001
0010
0100
1000
0001
0100
0001
1000
0010
0100
,
0001
1000
0100
1000
0001
0100
0001
0010
0100
1000
0001
0100
0001
1000
0100
0010
,
0001
1000
0010
1000
0100
0010
0001
0100
0001
1000
0001
0010
0100
1000
0001
0100
,
0001
1000
0010
0100
0001
1000
0100
1000
0002
1003
0010
0100
0001
1000
0100
1000
,
0001
0100
0001
0010
0100
1000
0001
1000
0010
0100
0001
0010
0001
1000
0100
0010
,
0001
1000
0001
0010
0100
1000
0001
0100
0002
1003
0010
0100
0001
1000
0100
1000
,
0001
0010
0100
1000
0001
0100
0001
1000
0100
0010
0001
1000
0010
0100
0001
0010
,
0001
0000
0000
1000
0000
0000
0100
0000
0000
1000
0000
0000
0004
0000
0000
0000
0000
0000
0103
0000
0010
0000
1000
0000
0100
0000
0000
0010
0000
0000
0001
0000
0000
1000
0000
0000
0001
0000
0000
0010
0000
0000
0100
0000
0000
1000
0000
0000
,
0001
0100
0001
1000
0010
0100
0001
0010
0001
1000
0100
0010
0001
1000
0001
0010
,
0100
0000
0000
1000
0000
0000
0001
0000
0000
0100
0000
0000
0001
0000
1000
0000
0001
0000
1000
0000
0010
0000
0100
0000
0001
0000
0000
1000
0000
0000
0100
0000
0000
1000
0000
0000
0001
0000
0000
0010
0000
0000
0100
0000
0000
1000
0000
0000
,
0001
0000
0000
0100
0000
0000
0001
0000
0000
1000
0000
0000
0100
0000
0000
0010
0000
0000
0001
0000
1000
0000
0010
0000
0100
0000
0000
0001
0000
0000
1000
0000
0000
0100
0000
0000
1000
0000
0000
0001
0000
0000
0010
0000
0000
0100
0000
0000
,
1000
0001
1000
0000
4111
0000
0000
0000
3001
0100
0001
0010
0100
1000
0001
0100
,
0001
1000
0100
0010
0001
1000
0010
1000
0100
0010
0001
1000
0001
0100
0001
0000
,
2222
0000
3333
0000
2222
0000
3333
0000
1000
0001
0100
0001
1000
0010
0100
0001
,
0010
0000
0100
0000
1000
0000
0100
0000
1000
0000
0001
0000
0100
0000
0001
0000
1000
0000
0100
0000
1000
0000
0001
0000
1000
0000
0000
0001
0000
0000
0100
0000
0000
0001
0000
0000
0010
0000
0000
0100
0000
0000
1000
0000
0000
0010
0000
0000
,
0100
0001
0010
0001
1000
0100
0010
0001
1000
0001
0010
0100
1000
0001
0100
0001
,
1000
0010
0100
0001
1000
0100
1000
0000
2110
3000
0000
0000
MMMM
0000
0000
0000
,
0122
0033
0000
0000
MMMM
0000
0000
0000
2222
3333
2200
3300
2200
3300
0220
0330
,
0220
0330
0022
0033
0022
0033
0002
2003
3020
0030
2020
3030
2020
3030
0202
0303
,
0202
0303
2200
3300
2110
3000
MMMM
0000
0112
0003
MMMM
0000
2110
3000
MMMM
0000
,
0112
0003
MMMM
0000
2110
3000
MMMM
0000
0112
0003
0000
0000
0101
0000
0011
0000
,
0210
0000
0000
0000
0000
0000
0000
0000
1300
0001
1000
0001
0010
0001
0010
0100
2000
0000
0000
0000
0000
0000
0000
0000
3000
0000
0000
0000
0000
0000
0000
0000
,
0000
0000
0020
0030
,
0000
0000
0002
0003
,
0000
0000
0200
0300
,
0020
0030
2000
3000
,
0000
0000
0200
0300
,
0000
0000
0020
0030
,
0000
0000
0000
0000
2222
3333
2222
3333
,
2222
0000
3333
0000
0100
0001
1000
0100
0020
0031
1000
0010
0200
0301
0010
0100
,
2000
3001
0100
0001
0020
0130
1000
0001
0200
0301
1000
0100
0020
0031
1000
0001
,
0020
0130
1000
0001
0100
0001
1000
0100
2000
3001
1000
0010
0200
0301
1000
0100
,
0020
0031
1000
0001
0020
0130
1000
0001
0200
0301
1000
0100
0020
0031
1000
0001
,
0020
0000
0130
0000
2000
0000
3001
0000
0200
0000
0301
0000
0010
0100
1000
0001
2000
0000
3010
0000
0100
0000
0001
0000
2000
0000
3100
0000
0010
0000
0001
0000
,
2000
3010
0100
0001
2000
3100
0010
0001
2000
3001
0010
0100
2000
3001
0100
0001
,
0020
0130
1000
0001
1000
0000
0101
0000
0022
0000
0033
0000
0220
0000
0330
0000
,
2200
3300
2020
3030
0202
0303
0022
0033
,
0200
0000
0000
0000
0000
0000
0000
0000
1300
0001
0100
0001
1000
0100
0010
0001
,
1000
0010
1000
0100
0010
0001
0100
0001
1000
0100
1000
0001
0010
0100
1000
0001
,
0100
0000
0001
0000
1000
0000
0100
0000
0010
0001
1000
0000
0010
0100
0001
0000
1000
0000
0010
0000
0100
0000
0001
0000
1000
0000
0100
0000
1000
0000
0001
0000
,
0100
0001
1000
0100
0010
0001
1000
0001
0020
0030
0200
0300
2000
3000
0100
0010
,
0200
0000
0000
0000
2300
0000
3000
0000
0010
0100
0001
1000
0100
1000
0001
0010
,
0100
1000
0001
0100
0001
1000
0100
0010
0001
1000
0010
1000
0100
0010
0001
0100
,
0004
0000
0000
0000
4003
0000
0000
0000
3010
0100
0001
1000
0100
1000
0001
0010
,
0100
1000
0001
0100
0001
1000
0100
0010
0002
0003
1002
0003
0002
0003
0000
0000
,
1112
0000
0003
0000
0000
0000
0000
0000
2111
0000
3000
0000
0100
0001
0100
0001
0200
0000
0000
0000
0000
0000
0000
0000
0320
0000
0000
0000
0000
0000
0000
0000
,
2030
3200
0320
0032
,
2003
0000
0000
0000
0000
0000
3020
0000
0000
0130
0001
1000
0200
0000
0000
0000
0000
0000
0320
0000
0000
0000
0000
0000
,
0032
0000
0000
0000
0000
0000
0000
0000
0000
0000
0000
0000
2003
0000
0000
3000
0000
0000
2002
0000
0000
3003
0000
0000
1000
0000
0010
0000
0100
0000
0001
0000
0000
0000
0000
0000
0010
0000
0000
0000
0000
0000
0100
0000
1000
0000
0001
0000
,
0010
0000
0000
0000
0000
0000
0100
0000
0000
0000
0000
0000
1000
0000
0010
0000
0100
0000
0001
0000
0000
1000
0000
0000
0010
0000
0000
0100
0000
0000
0001
0000
0000
1000
0000
0000
0100
0000
0000
1000
0000
0000
0001
0000
0000
0010
0000
0000
,
0001
1000
0010
0100
0001
1000
0100
0010
0001
1000
0001
0010
0100
1000
0001
0100
,
0001
1000
0100
0000
1221
0000
0330
0000
2112
0000
3113
0000
1001
0000
1200
0000
,
0340
0000
0000
0000
0034
0000
0000
0003
2110
3000
MMMM
0000
0112
0003
MMMM
0000
,
2110
3000
MMMM
0000
0112
0003
MMMM
0000
1111
0000
0000
0000
0000
0000
0000
0000
,
0000
0000
0000
0000
,
0000
0000
0000
0000
,
0000
0000
0000
0000
,
0000
0000
0000
0000
,
0M00
0000
00M0
0000
,
M000
0000
0M00
0000
,
0000
0000
0000
0000
,
0000
0000
0000
0000
0000
0000
0000
0000
0010
0001
1000
0010
0100
0001
1000
0100
,
0010
0000
0000
0001
0000
0000
1000
0000
0000
0010
0000
0000
0200
0000
0000
0000
0000
0000
0301
0000
0010
0000
0100
0000
1000
0000
0000
0001
0000
0000
0100
0000
0000
0001
0000
0000
1000
0000
0000
0010
0000
0000
0100
0000
0000
0001
0000
0000
,
0010
0000
0000
0100
0000
0000
1000
0000
0000
0001
0000
0000
0100
0000
0000
0001
0000
0000
1000
0000
0010
0000
0100
0000
0001
0000
0000
1000
0000
0000
0010
0000
0000
0100
0000
0000
0001
0000
0000
1000
0000
0000
0100
0000
0000
1000
0000
0000
,
0001
0010
0100
1000
0001
0100
0001
1000
2002
0000
3003
0000
0202
0000
0303
0000
,
0001
0010
0400
0000
2300
0000
0000
0000
,
3020
0430
0302
0000
,
0023
0000
0000
0000
0230
0300
2100
3000
2000
0000
0000
0000
0000
0000
0000
0000
,
3020
0000
0000
0000
0000
0000
0000
0000
0230
0300
0002
0003
0020
0030
0200
0300
,
2000
0000
0000
0000
0000
0000
0000
0000
3001
0010
0100
1000
0001
0100
0001
1000
,
0100
0000
0000
0010
0000
0000
0001
0000
0000
1000
0000
0000
0020
0000
0000
0000
0000
0000
0130
0000
0001
0000
1000
0000
0100
0000
0000
0010
0000
0000
0001
0000
0000
1000
0000
0000
0010
0000
0000
1000
0000
0000
0100
0000
0000
0010
0000
0000
,
0001
0000
0000
0100
0000
0000
0001
0000
0000
0010
0000
0000
0100
0000
1000
0000
0001
0000
0010
0000
0100
0000
1000
0000
0010
0000
0000
0100
0000
0000
0001
0000
0000
1000
0000
0000
0100
0000
0000
1000
0000
0000
0001
0000
0000
0100
0000
0000
,
0010
0000
0000
1000
0000
0000
0100
0000
0000
0010
0000
0000
0001
0000
0000
1000
0000
0000
0010
0000
0100
0000
0001
0000
0010
0000
0000
0100
0000
0000
1000
0000
0000
0001
0000
0000
0100
0000
0000
0001
0000
0000
1000
0000
0000
0100
0000
0000
,
0010
0001
1000
0010
2000
3000
0120
0030
0001
1000
0010
0100
0001
1000
0100
1000
,
0001
0000
0100
0000
0001
0000
0010
0000
0200
0000
0000
0000
1300
0001
0010
0100
1000
0000
0001
0000
0100
0000
0001
0000
1000
0000
0100
0000
0010
0000
0001
0000
,
0040
0000
0000
0000
0430
0000
0000
0000
1300
0010
0100
0001
1000
0100
1000
0010
,
0100
0001
0010
0100
2200
0000
0000
0000
3301
0000
0011
0000
0110
0000
1100
0000
,
1001
MMMM
1111
0000
M4MM
0000
0000
0000
,
0310
1000
0100
0010
0001
1000
0001
0010
0100
1000
0001
0100
0001
1000
0100
0010
,
0001
1000
0010
1000
0200
0300
0020
0030
0001
0010
0001
0010
0001
1000
0010
1000
,
0010
0100
0001
0100
0001
0010
0100
1000
0100
1000
0100
0010
0001
0010
0001
1000
,
0400
0340
0032
2003
,
3020
0230
0302
2003
,
3200
0000
0000
0000
0312
0000
0000
0000
0103
0010
1000
0100
0010
0001
1000
0100
,
0010
0000
0001
0000
1000
0000
0001
0000
0010
0000
0100
0000
1000
0000
0100
0000
1000
0010
0100
0001
2000
0000
0000
0000
3100
0010
0002
0000
1003
0010
0200
0000
,
0000
0000
0000
0000
0301
0010
0200
0000
1300
0001
0200
0000
0310
1000
0100
0000
0010
0000
0001
0000
1000
0000
0010
0000
0100
0000
0001
0000
1000
0000
0100
0000
,
1000
0001
0010
0100
1000
0010
0100
0001
1000
0100
1000
0001
0010
0100
1000
0001
,
0400
0000
0000
0000
0340
0000
0000
0000
1030
0100
1000
0001
0010
0100
1000
0100
,
0010
0001
1000
0010
0100
0001
1000
0100
0020
0000
0000
0000
0031
0000
0011
0000
,
0101
0000
0040
0000
,
0000
0000
0000
4030
3400
0000
0000
0000
,
0000
0000
0340
0000
,
0000
0000
0000
0000
0000
0000
0030
0000
0112
0003
0000
0000
2110
3000
0000
0000
,
0112
0003
0000
0000
2110
3000
0000
0000
0112
0003
0000
0000
MMMM
0000
0000
0000
,
MMMM
MMMM
MMMM
0000
;

//---------------dance-single - ----------------
#NOTES:
     dance-single:
     :
     Hard:
     17:
     1.000,1.000,0.437,1.000,1.000,1521.000,78.000,243.000,70.000,36.000:
0000
0000
2000
3200
,
0320
0032
2003
3020
,
0230
0302
2003
3200
,
0320
0032
2003
3002
,
0203
0000
0000
0310
1000
0000
0100
0000
0020
0000
0000
0000
0032
0000
0000
0000
,
0023
0230
2300
3002
,
0203
0302
2003
3200
,
0320
0032
2003
3020
,
0230
0000
0000
0301
1000
0000
0100
0000
0010
0000
0000
0000
0001
0000
1000
0000
,
1100
0000
0100
0000
0020
0000
0000
0000
0032
0000
0000
0000
0103
0000
0010
1000
,
0100
0010
0001
0000
1000
0000
0010
0000
0200
0000
0000
0000
0301
0000
0010
0000
,
0110
0000
0100
0000
2000
0000
0000
0000
3002
0000
0000
0000
0103
0000
0010
1000
,
0100
0010
0001
0000
1000
0000
0010
0000
0200
0000
0000
0000
0301
0000
0010
0000
,
0110
0000
0100
0000
2000
0000
0000
0000
3002
0000
0000
0000
0103
0000
0010
1000
,
0100
0010
0001
0000
1000
0000
0001
0000
0200
0000
0000
0000
0310
0000
1000
0000
,
1100
0100
0010
0000
0112
0003
2110
3000
,
0001
0000
1000
0000
0010
0000
0100
0000
0001
1000
0100
0010
0001
1000
0100
0010
0002
0000
0000
0000
0000
0000
0000
0000
2003
0000
0000
0000
0000
0000
0000
0000
,
3020
0230
0302
2003
,
3200
0320
0230
2300
,
3002
0203
0302
2003
,
3020
0230
0302
0023
,
0230
2300
3002
2003
,
3200
0000
0000
0000
0320
0000
0000
0000
0031
0100
0001
0000
1000
0010
1000
0000
,
0001
0010
0001
0000
1000
0100
1000
0000
0001
0100
0001
0000
1000
0010
1000
0000
,
0001
0010
0001
0000
1000
0100
1000
0000
0001
1000
0010
0100
0001
1000
0100
1000
,
0020
0130
0001
0010
0100
1000
0001
0100
0002
1003
0010
0100
0001
1000
0200
0310
,
0001
1000
0010
1000
0002
0013
0100
1000
0002
0103
0010
1000
0100
1000
0001
0010
,
0100
1000
0002
1003
0010
0100
0001
1000
0200
0310
0001
1000
0010
1000
0100
0010
,
0001
0100
0001
0010
0100
1000
0001
0100
0002
0013
0100
1000
0001
1000
0010
0100
,
0002
0013
0100
0010
0001
1000
0010
0100
0002
1003
0100
0010
0001
1000
0020
0130
,
0001
0010
0100
1000
0001
0100
0001
1000
0200
0310
0001
1000
0001
0010
0100
1000
,
0001
0100
0002
1003
0010
0100
0001
1000
0200
0310
0001
1000
0010
1000
0100
0010
,
0001
1000
0100
1000
0001
0010
0100
1000
0001
1000
0010
0100
0001
1000
0100
1000
,
0001
0010
0100
1000
0010
0100
0001
1000
0100
1000
0001
0010
0100
0010
0001
1000
,
0010
0100
0001
1000
0100
1000
0001
0100
0001
1000
0001
0010
0100
1000
0001
0100
,
0001
1000
0100
0010
0001
1000
0001
0010
0100
1000
0001
0100
0001
1000
0010
0100
,
0001
1000
0100
1000
0001
0100
0001
0010
0100
1000
0001
0100
0001
1000
0100
0010
,
0001
1000
0010
1000
0100
0010
0001
0100
0001
1000
0001
0010
0100
1000
0001
0100
,
0001
1000
0010
0100
0001
1000
0100
1000
0002
1003
0010
0100
0001
1000
0100
1000
,
0001
0100
0001
0010
0100
1000
0001
1000
0010
0100
0001
0010
0001
1000
0100
0010
,
0001
1000
0001
0010
0100
1000
0001
0100
0002
1003
0010
0100
0001
1000
0100
1000
,
0001
0010
0100
1000
0001
0100
0001
1000
0100
0010
0001
1000
0010
0100
0001
0010
,
0001
0000
0000
1000
0000
0000
0100
0000
0000
1000
0000
0000
0004
0000
0000
0000
0000
0000
0103
0000
0010
0000
1000
0000
0100
0000
0000
0010
0000
0000
0001
0000
0000
1000
0000
0000
0001
0000
0000
0010
0000
0000
0100
0000
0000
1000
0000
0000
,
0001
0100
0001
1000
0010
0100
0001
0010
0001
1000
0100
0010
0001
1000
0001
0010
,
0100
0000
0000
1000
0000
0000
0001
0000
0000
0100
0000
0000
0001
0000
1000
0000
0001
0000
1000
0000
0010
0000
0100
0000
0001
0000
0000
1000
0000
0000
0100
0000
0000
1000
0000
0000
0001
0000
0000
0010
0000
0000
0100
0000
0000
1000
0000
0000
,
0001
0000
0000
0100
0000
0000
0001
0000
0000
1000
0000
0000
0100
0000
0000
0010
0000
0000
0001
0000
1000
0000
0010
0000
0100
0000
0000
0001
0000
0000
1000
0000
0000
0100
0000
0000
1000
0000
0000
0001
0000
0000
0010
0000
0000
0100
0000
0000
,
1000
0001
1000
0000
4111
0000
0000
0000
3001
0100
0001
0010
0100
1000
0001
0100
,
0001
1000
0100
0010
0001
1000
0010
1000
0100
0010
0001
1000
0001
0100
0001
0000
,
2222
0000
3333
0000
2222
0000
3333
0000
1000
0001
0100
0001
1000
0010
0100
0001
,
0010
0000
0100
0000
1000
0000
0100
0000
1000
0000
0001
0000
0100
0000
0001
0000
1000
0000
0100
0000
1000
0000
0001
0000
1000
0000
0000
0001
0000
0000
0100
0000
0000
0001
0000
0000
0010
0000
0000
0100
0000
0000
1000
0000
0000
0010
0000
0000
,
0100
0001
0010
0001
1000
0100
0010
0001
1000
0001
0010
0100
1000
0001
0100
0001
,
1000
0010
0100
0001
1000
0100
1000
0000
2110
3000
0000
0000
MMMM
0000
0000
0000
,
0122
0033
0000
0000
MMMM
0000
0000
0000
2222
3333
2200
3300
2200
3300
0220
0330
,
0220
0330
0022
0033
0022
0033
0002
2003
3020
0030
2020
3030
2020
3030
0202
0303
,
0202
0303
2200
3300
2110
3000
MMMM
0000
0112
0003
MMMM
0000
2110
3000
MMMM
0000
,
0112
0003
MMMM
0000
2110
3000
MMMM
0000
0112
0003
0000
0000
0101
0000
0011
0000
,
0210
0000
0000
0000
0000
0000
0000
0000
1300
0001
1000
0001
0010
0001
0010
0100
2000
0000
0000
0000
0000
0000
0000
0000
3000
0000
0000
0000
0000
0000
0000
0000
,
0000
0000
0020
0030
,
0000
0000
0002
0003
,
0000
0000
0200
0300
,
0020
0030
2000
3000
,
0000
0000
0200
0300
,
0000
0000
0020
0030
,
0000
0000
0000
0000
2222
3333
2222
3333
,
2222
0000
3333
0000
0100
0001
1000
0100
0020
0031
1000
0010
0200
0301
0010
0100
,
2000
3001
0100
0001
0020
0130
1000
0001
0200
0301
1000
0100
0020
0031
1000
0001
,
0020
0130
1000
0001
0100
0001
1000
0100
2000
3001
1000
0010
0200
0301
1000
0100
,
0020
0031
1000
0001
0020
0130
1000
0001
0200
0301
1000
0100
0020
0031
1000
0001
,
0020
0000
0130
0000
2000
0000
3001
0000
0200
0000
0301
0000
0010
0100
1000
0001
2000
0000
3010
0000
0100
0000
0001
0000
2000
0000
3100
0000
0010
0000
0001
0000
,
2000
3010
0100
0001
2000
3100
0010
0001
2000
3001
0010
0100
2000
3001
0100
0001
,
0020
0130
1000
0001
1000
0000
0101
0000
0022
0000
0033
0000
0220
0000
0330
0000
,
2200
3300
2020
3030
0202
0303
0022
0033
,
0200
0000
0000
0000
0000
0000
0000
0000
1300
0001
0100
0001
1000
0100
0010
0001
,
1000
0010
1000
0100
0010
0001
0100
0001
1000
0100
1000
0001
0010
0100
1000
0001
,
0100
0000
0001
0000
1000
0000
0100
0000
0010
0001
1000
0000
0010
0100
0001
0000
1000
0000
0010
0000
0100
0000
0001
0000
1000
0000
0100
0000
1000
0000
0001
0000
,
0100
0001
1000
0100
0010
0001
1000
0001
0020
0030
0200
0300
2000
3000
0100
0010
,
0200
0000
0000
0000
2300
0000
3000
0000
0010
0100
0001
1000
0100
1000
0001
0010
,
0100
1000
0001
0100
0001
1000
0100
0010
0001
1000
0010
1000
0100
0010
0001
0100
,
0001
0100
0001
0100
0001
0100
0001
0100
0001
1000
0010
1000
0010
1000
0010
1000
0010
0000
0100
0000
0001
0000
1000
0000
0100
0000
1000
0000
0001
0000
0010
0000
,
0100
1000
0001
0100
0001
1000
0100
0010
0002
0003
1002
0003
0002
0003
0000
0000
,
1112
0000
0000
0000
0000
0000
0000
0000
0000
0000
0000
0000
0003
0000
0000
0000
0000
0000
0000
0000
0000
0000
0000
0000
0000
0000
0000
0000
0000
0000
0000
0000
0000
0000
0000
0000
0000
0000
0000
0000
0000
0000
0000
0000
0000
0000
0000
0000
2111
0000
0000
0000
0000
0000
0000
0000
0000
0000
0000
0000
3000
0000
0000
0000
0000
0000
0000
0000
0000
0000
0000
0000
0100
0000
0000
0000
0000
0000
0001
0000
0000
0000
0000
0000
0100
0000
0000
0000
0000
0000
0001
0000
0000
0000
0000
0000
1000
0000
0000
0000
0000
0000
0000
0000
0100
0000
0000
0000
0000
0000
0000
0000
1000
0000
0000
0000
0000
0000
0000
0000
0100
0000
0000
0000
0000
0000
0000
0000
0010
0000
0000
0000
0000
0000
0000
0000
0001
0000
0000
0000
0000
0000
0000
0000
1000
0000
0000
0000
0000
0000
0000
0000
0001
0000
0000
0000
0000
0000
0000
0000
0100
0000
0000
0000
0000
0000
0000
0000
0001
0000
0000
0000
0000
0000
0000
0000
0010
0000
0000
0000
0000
0000
0000
0000
0001
0000
0000
0000
0000
0000
0000
0000
,
1000
0001
1000
0100
1000
0100
0010
0001
0010
0001
1000
0010
1000
0010
0100
0001
0100
0001
1000
0100
0010
0001
1000
0001
,
0010
0001
1000
0010
1000
0010
0100
0001
1000
0100
1000
0001
0010
0100
1000
0001
0100
0001
0010
0100
1000
0100
1000
0001
,
0100
0000
0000
0000
0000
0000
0000
0000
0001
0000
0000
0000
0000
0000
0000
0000
1000
0000
0000
0000
0000
0000
0000
0000
0001
0000
0000
0000
0000
0000
0000
0000
1000
0000
0000
0000
0000
0000
0000
0000
0100
0000
0000
0000
0000
0000
0000
0000
2000
0000
0000
0000
0000
0000
0000
0000
0000
0000
0000
0000
3000
0000
0000
0000
0000
0000
0000
0000
0000
0000
0000
0000
2002
0000
0000
0000
0000
0000
0000
0000
0000
0000
0000
0000
3003
0000
0000
0000
0000
0000
0000
0000
0000
0000
0000
0000
1000
0000
0000
0000
0000
0000
0010
0000
0000
0000
0000
0000
0100
0000
0000
0000
0000
0000
0001
0000
0000
0000
0000
0000
1000
0000
0000
0000
0000
0000
0000
0000
0100
0000
0000
0000
0000
0000
0000
0000
0010
0000
0000
0000
0000
0000
0000
0000
0001
0000
0000
0000
0000
0000
0000
0000
1000
0000
0000
0000
0000
0000
0000
0000
0010
0000
0000
0000
0000
0000
0000
0000
0100
0000
0000
0000
0000
0000
0001
0000
0000
0000
0000
0000
0010
0000
0000
0000
0000
0000
0001
0000
0000
0000
0000
0000
,
0010
0000
0000
0000
0000
0000
0000
0000
0100
0000
0000
0000
0000
0000
0000
0000
1000
0000
0000
0000
0000
0000
0000
0000
0001
0000
0000
0000
0000
0000
0000
0000
1000
0000
0000
0000
0000
0000
0000
0000
0010
0000
0000
0000
0000
0000
0000
0000
0100
0000
0000
0000
0000
0000
0001
0000
0000
0000
0000
0000
1000
0000
0000
0000
0000
0000
0100
0000
0000
0000
0000
0000
0010
0000
0000
0000
0000
0000
0000
0000
0000
0000
0000
0000
0001
0000
0000
0000
0000
0000
0000
0000
0000
0000
0000
0000
1000
0000
0000
0000
0000
0000
0000
0000
0000
0000
0000
0000
0010
0000
0000
0000
0000
0000
0000
0000
0000
0000
0000
0000
0100
0000
0000
0000
0000
0000
0000
0000
0000
0000
0000
0000
0001
0000
0000
0000
0000
0000
0000
0000
0000
0000
0000
0000
1000
0000
0000
0000
0000
0000
0000
0000
0000
0000
0000
0000
0100
0000
0000
0000
0000
0000
0000
0000
0000
0000
0000
0000
1000
0000
0000
0000
0000
0000
0000
0000
0000
0000
0000
0000
0001
0000
0000
0000
0000
0000
0000
0000
0000
0000
0000
0000
,
0010
0100
1000
0001
0100
0001
1000
0100
1000
0001
0010
0100
1000
0001
0100
0001
,
1000
0100
0010
0000
1221
0000
0330
0000
2112
0000
3113
0000
1001
0000
1200
0000
,
0310
0000
0000
0000
0000
0000
0000
0000
0001
0000
0000
0000
0000
0000
0000
0000
1000
0000
0000
0000
0000
0000
0000
0000
0010
0000
0000
0000
0000
0000
0000
0000
0100
0000
0000
0000
0000
0000
0000
0000
0001
0000
0000
0000
0000
0000
0000
0000
1000
0000
0000
0000
0000
0000
0100
0000
0000
0000
0000
0000
1000
0000
0000
0000
0000
0000
0001
0000
0000
0000
0000
0000
0010
0000
0000
0000
0000
0000
0100
0000
0000
0000
0000
0000
1000
0000
0000
0000
0000
0000
0000
0000
0000
0000
0000
0000
2110
0000
0000
0000
0000
0000
0000
0000
0000
0000
0000
0000
3000
0000
0000
0000
0000
0000
0000
0000
0000
0000
0000
0000
MMMM
0000
0000
0000
0000
0000
0000
0000
0000
0000
0000
0000
0000
0000
0000
0000
0000
0000
0000
0000
0000
0000
0000
0000
0112
0000
0000
0000
0000
0000
0000
0000
0000
0000
0000
0000
0003
0000
0000
0000
0000
0000
0000
0000
0000
0000
0000
0000
MMMM
0000
0000
0000
0000
0000
0000
0000
0000
0000
0000
0000
0000
0000
0000
0000
0000
0000
0000
0000
0000
0000
0000
0000
,
2110
3000
MMMM
0000
0112
0003
MMMM
0000
1111
0000
0000
0000
0000
0000
0000
0000
,
0000
0000
0000
0000
,
0000
0000
0000
0000
,
0000
0000
0000
0000
,
0000
0000
0000
0000
,
0M00
0000
00M0
0000
,
M000
0000
0M00
0000
,
0000
0000
0000
0000
,
0000
0000
0000
0000
0000
0000
0000
0000
0010
0001
1000
0010
0100
0001
1000
0100
,
0010
0000
0000
0001
0000
0000
1000
0000
0000
0010
0000
0000
0200
0000
0000
0000
0000
0000
0301
0000
0010
0000
0100
0000
1000
0000
0000
0001
0000
0000
0100
0000
0000
0001
0000
0000
1000
0000
0000
0010
0000
0000
0100
0000
0000
0001
0000
0000
,
0010
0000
0000
0100
0000
0000
1000
0000
0000
0001
0000
0000
0100
0000
0000
0001
0000
0000
1000
0000
0010
0000
0100
0000
0001
0000
0000
1000
0000
0000
0010
0000
0000
0100
0000
0000
0001
0000
0000
1000
0000
0000
0100
0000
0000
1000
0000
0000
,
0001
0010
0100
1000
0001
0100
0001
1000
2002
0000
3003
0000
0202
0000
0303
0000
,
0001
0000
0000
0000
0000
0000
0000
0000
0000
0000
0000
0000
0000
0000
0000
0000
0000
0000
0000
0000
0000
0000
0000
0000
0010
0000
0000
0000
0000
0000
0000
0000
0000
0000
0000
0000
0000
0000
0000
0000
0000
0000
0000
0000
0000
0000
0000
0000
0100
0000
0000
0000
0000
0000
1000
0000
0000
0000
0000
0000
0001
0000
0000
0000
0000
0000
0100
0000
0000
0000
0000
0000
0001
0000
0000
0000
0000
0000
1000
0000
0000
0000
0000
0000
0100
0000
0000
0000
0000
0000
1000
0000
0000
0000
0000
0000
0001
0000
0000
0000
0000
0000
0000
0000
1000
0000
0000
0000
0000
0000
0000
0000
0010
0000
0000
0000
0000
0000
0000
0000
1000
0000
0000
0000
0000
0000
0000
0000
0100
0000
0000
0000
0000
0000
0000
0000
0010
0000
0000
0000
0000
0000
0000
0000
0001
0000
0000
0000
0000
0000
0000
0000
0010
0000
0000
0000
0000
0000
0000
0000
0001
0000
0000
0000
0000
0000
0000
0000
1000
0000
0000
0000
0000
0000
0000
0000
0100
0000
0000
0000
0000
0000
0000
0000
1000
0000
0000
0000
0000
0000
0000
0000
,
0001
0000
0000
0100
0000
0000
0001
0000
0000
1000
0000
0000
0100
0000
0010
0000
0001
0000
1000
0000
0010
0000
1000
0000
0010
0000
0000
0100
0000
0000
0001
0000
0000
1000
0000
0000
0100
0000
0000
1000
0000
0000
0001
0000
0000
0010
0000
0000
,
0100
1000
0001
0100
0001
1000
0200
0310
0001
1000
0010
1000
0100
0010
0001
1000
,
0001
0100
0001
0010
0100
1000
0001
1000
0200
0300
0220
0330
0222
0333
2222
3333
,
2000
0000
0000
0000
0000
0000
0000
0000
3001
0010
0100
1000
0001
0100
0001
1000
,
0100
0000
0000
0010
0000
0000
0001
0000
0000
1000
0000
0000
0020
0000
0000
0000
0000
0000
0130
0000
0001
0000
1000
0000
0100
0000
0000
0010
0000
0000
0001
0000
0000
1000
0000
0000
0010
0000
0000
1000
0000
0000
0100
0000
0000
0010
0000
0000
,
0001
0000
0000
0100
0000
0000
0001
0000
0000
0010
0000
0000
0100
0000
1000
0000
0001
0000
0010
0000
0100
0000
1000
0000
0010
0000
0000
0100
0000
0000
0001
0000
0000
1000
0000
0000
0100
0000
0000
1000
0000
0000
0001
0000
0000
0100
0000
0000
,
0010
0000
0000
1000
0000
0000
0100
0000
0000
0010
0000
0000
0001
0000
0000
1000
0000
0000
0010
0000
0100
0000
0001
0000
0010
0000
0000
0100
0000
0000
1000
0000
0000
0001
0000
0000
0100
0000
0000
0001
0000
0000
1000
0000
0000
0100
0000
0000
,
0010
0001
1000
0010
2000
3000
0120
0030
0001
1000
0010
0100
0001
1000
0100
1000
,
0001
0000
0100
0000
0001
0000
0010
0000
0200
0000
0000
0000
1300
0001
0010
0100
1000
0000
0001
0000
0100
0000
0001
0000
1000
0000
0100
0000
0010
0000
0001
0000
,
0010
0000
0100
0000
1000
0000
0001
0000
0100
0000
0001
0000
1000
0000
0100
0000
1000
0000
0100
0000
1000
0000
0001
0000
1000
0000
0000
0010
0000
0000
0100
0000
0000
0001
0000
0000
1000
0000
0000
0100
0000
0000
1000
0000
0000
0010
0000
0000
,
0100
0001
0010
0100
2200
0000
0000
0000
3301
0000
0011
0000
0110
0000
1100
0000
,
1001
0000
0000
0000
MMMM
0000
0000
0000
1111
0000
0000
0000
0000
0000
0000
0000
M1M0
0001
0100
0001
0100
0001
0100
0001
1000
0001
1000
0001
1000
0001
1000
0001
,
0100
0010
1000
0100
0010
0001
1000
0001
0010
0001
1000
0100
0010
0001
1000
0010
,
1000
0100
0010
0001
2000
3010
0200
0301
1000
0100
1000
0001
0010
0100
1000
0001
,
0100
0001
1000
0100
0010
0001
1000
0010
1000
0001
0100
0001
1000
0100
0010
0001
,
1000
0000
0010
0000
0100
0000
0001
0000
1000
0000
0100
0000
0010
0000
0001
0000
1000
0000
0001
0000
0010
0000
0100
0000
1000
0000
0000
0001
0000
0000
0100
0000
0000
0001
0000
0000
1000
0000
0000
0010
0000
0000
0100
0000
0000
0001
0000
0000
,
1000
0100
0010
0001
1000
0100
1000
0001
0100
0001
0010
0100
1000
0001
0010
0100
,
1000
0001
1000
0100
0012
0000
0000
0000
0103
0010
1000
0100
0010
0001
1000
0100
,
0010
0000
0001
0000
1000
0000
0001
0000
0010
0000
0100
0000
1000
0000
0100
0000
1000
0010
0100
0001
2000
0000
0000
0000
3100
0010
0002
0000
1003
0010
0200
0000
,
0000
0000
0000
0000
0301
0010
0200
0000
1300
0001
0200
0000
0310
1000
0100
0000
0010
0000
0001
0000
1000
0000
0010
0000
0100
0000
0001
0000
1000
0000
0100
0000
,
1000
0001
0010
0100
1000
0010
0100
0001
1000
0100
1000
0001
0010
0100
1000
0001
,
0100
0010
0100
0010
0100
0010
0100
0010
1000
0100
1000
0100
1000
0100
1000
0100
1000
0000
0100
0000
1000
0000
0001
0000
0010
0000
0100
0000
1000
0000
0100
0000
,
0010
0001
1000
0010
0100
0001
1000
0100
0020
0031
1000
0001
1000
0000
0011
0000
,
0101
0000
0000
0100
0000
0000
0010
0000
0000
1000
0000
0000
0100
0000
0000
0010
0000
0000
0001
0000
0000
1000
0000
0000
0010
0000
0100
0000
0010
0000
0100
0000
0001
0000
0100
0000
0001
0000
1000
0000
0100
0000
0010
0000
0001
0000
0010
0000
,
0001
0000
0000
0000
0000
0000
0000
0000
1000
0000
0000
0000
0000
0000
0000
0000
0010
0000
0000
0000
0000
0000
0000
0000
1000
0000
0000
0000
0000
0000
0000
0000
0010
0000
0000
0000
0000
0000
0000
0000
0100
0000
0000
0000
0000
0000
0000
0000
0001
0000
0000
0000
0000
0000
0000
0000
1000
0000
0000
0000
0000
0000
0000
0000
0001
0000
0000
0000
0000
0000
0000
0000
0100
0000
0000
0000
0000
0000
0010
0000
0000
0000
0000
0000
0100
0000
0000
0000
0000
0000
0010
0000
0000
0000
0000
0000
1000
0000
0000
0000
0000
0000
0000
0000
0100
0000
0000
0000
0000
0000
0000
0000
1000
0000
0000
0000
0000
0000
0000
0000
0100
0000
0000
0000
0000
0000
0000
0000
1000
0000
0000
0000
0000
0000
0000
0000
0100
0000
0000
0000
0000
0000
0000
0000
0010
0000
0000
0000
0000
0000
0000
0000
0001
0000
0000
0000
0000
0000
0000
0000
0010
0000
0000
0000
0000
0000
0000
0000
0001
0000
0000
0000
0000
0000
0000
0000
1000
0000
0000
0000
0000
0000
0000
0000
0010
0000
0000
0000
0000
0000
0000
0000
,
1000
0010
0100
0001
1000
0100
1000
0100
1000
0001
0010
0100
1000
0001
0100
0001
1000
0001
1000
0100
1000
0001
0010
0001
,
1000
0000
0010
0000
0100
0000
0001
0000
1000
0000
0100
0000
1000
0000
0001
0000
0100
0000
0001
0000
0000
0000
0000
0000
0112
0000
0000
0003
0000
0000
0000
0000
0000
0000
0000
0000
2110
0000
0000
3000
0000
0000
0000
0000
0000
0000
0000
0000
,
0112
0003
0000
0000
2110
3000
0000
0000
0112
0003
0000
0000
MMMM
0000
0000
0000
,
MMMM
MMMM
MMMM
0000
;

//---------------dance-single - ----------------
#NOTES:
     dance-single:
     :
     Challenge:
     19:
     1.000,1.000,0.454,1.000,1.000,1515.000,81.000,261.000,70.000,42.000:

0000
0000
2000
3200
,
0320
0032
2003
3020
,
0230
0302
2003
3200
,
0320
0032
2003
3002
,
0203
0000
0000
0310
1000
0000
0100
0000
0020
0000
0000
0000
0032
0000
0000
0000
,
0023
0230
2300
3002
,
0203
0302
2003
3200
,
0320
0032
2003
3020
,
0230
0000
0000
0301
1000
0000
0100
0000
0010
0000
0000
0000
0001
0000
1000
0000
,
1100
0000
0100
0000
0020
0000
0000
0000
0032
0000
0000
0000
0103
0000
0010
1000
,
0100
0010
0001
0000
1000
0000
0010
0000
0200
0000
0000
0000
0301
0000
0010
0000
,
0110
0000
0100
0000
2000
0000
0000
0000
3002
0000
0000
0000
0103
0000
0010
1000
,
0100
0010
0001
0000
1000
0000
0010
0000
0200
0000
0000
0000
0301
0000
0010
0000
,
0110
0000
0100
0000
2000
0000
0000
0000
3002
0000
0000
0000
0103
0000
0010
1000
,
0100
0010
0001
0000
1000
0000
0001
0000
0200
0000
0000
0000
0310
0000
1000
0000
,
1100
0100
0010
0000
0112
0003
2110
3000
,
0001
0000
1000
0000
0010
0000
0100
0000
0001
1000
0100
0010
0001
1000
0100
0010
0002
0000
0000
0000
0000
0000
0000
0000
2003
0000
0000
0000
0000
0000
0000
0000
,
3020
0230
0302
2003
,
3200
0320
0230
2300
,
3002
0203
0302
2003
,
3020
0230
0302
0023
,
0230
2300
3002
2003
,
3200
0000
0000
0000
0320
0000
0000
0000
0031
0100
0010
0000
1000
0100
0010
0000
,
0001
0100
0010
0000
1000
0100
0010
0000
0001
0100
0010
0000
1000
0100
0010
0000
,
0001
0100
0010
0000
1000
0100
0010
0000
0001
1000
0010
0100
0001
1000
0100
1000
,
0020
0130
0001
0010
0100
1000
0001
0100
0002
1003
0010
0100
0001
1000
0200
0310
,
0001
1000
0010
1000
0002
0013
0100
1000
0002
0103
0010
1000
0100
1000
0001
0010
,
0100
1000
0002
1003
0010
0100
0001
1000
0200
0310
0001
1000
0010
1000
0100
0010
,
0001
0100
0001
0010
0100
1000
0001
0100
0002
0013
0100
1000
0001
1000
0010
0100
,
0002
0013
0100
0010
0001
1000
0010
0100
0002
1003
0100
0010
0001
1000
0020
0130
,
0001
0010
0100
1000
0001
0100
0001
1000
0200
0310
0001
1000
0001
0010
0100
1000
,
0001
0100
0002
1003
0010
0100
0001
1000
0200
0310
0001
1000
0010
1000
0100
0010
,
0001
1000
0100
1000
0001
0010
0100
1000
0001
1000
0010
0100
0001
1000
0100
1000
,
0001
0010
0100
1000
0010
0100
0001
1000
0100
1000
0001
0010
0100
0010
0001
1000
,
0010
0100
0001
1000
0100
1000
0001
0100
0001
1000
0001
0010
0100
1000
0001
0100
,
0001
1000
0100
0010
0001
1000
0001
0010
0100
1000
0001
0100
0001
1000
0010
0100
,
0001
1000
0100
1000
0001
0100
0001
0010
0100
1000
0001
0100
0001
1000
0100
0010
,
0001
1000
0010
1000
0100
0010
0001
0100
0001
1000
0001
0010
0100
1000
0001
0100
,
0001
1000
0010
0100
0001
1000
0100
1000
0002
1003
0010
0100
0001
1000
0100
1000
,
0001
0100
0001
0010
0100
1000
0001
1000
0010
0100
0001
0010
0001
1000
0100
0010
,
0001
1000
0001
0010
0100
1000
0001
0100
0002
1003
0010
0100
0001
1000
0100
1000
,
0001
0010
0100
1000
0001
0100
0001
1000
0100
0010
0001
1000
0010
0100
0001
0010
,
0001
0000
0000
1000
0000
0000
0100
0000
0000
1000
0000
0000
0004
0000
0000
0000
0000
0000
0103
0000
0010
0000
1000
0000
0100
0000
0000
0010
0000
0000
0001
0000
0000
1000
0000
0000
0001
0000
0000
0010
0000
0000
0100
0000
0000
1000
0000
0000
,
0001
0100
0001
1000
0010
0100
0001
0010
0001
1000
0100
0010
0001
1000
0001
0010
,
0100
0000
0000
1000
0000
0000
0001
0000
0000
0100
0000
0000
0001
0000
1000
0000
0001
0000
1000
0000
0010
0000
0100
0000
0001
0000
0000
1000
0000
0000
0100
0000
0000
1000
0000
0000
0001
0000
0000
0010
0000
0000
0100
0000
0000
1000
0000
0000
,
0001
0000
0000
0100
0000
0000
0001
0000
0000
1000
0000
0000
0100
0000
0000
0010
0000
0000
0001
0000
1000
0000
0010
0000
0100
0000
0000
0001
0000
0000
1000
0000
0000
0100
0000
0000
1000
0000
0000
0001
0000
0000
0010
0000
0000
0100
0000
0000
,
1000
0001
1000
0000
4111
0000
0000
0000
3001
0100
0001
0010
0100
1000
0001
0100
,
0001
1000
0100
0010
0001
1000
0010
1000
0100
0010
0001
1000
0001
0100
0001
0000
,
2222
0000
3333
0000
2222
0000
3333
0000
1000
0001
0100
0001
1000
0010
0100
0001
,
0010
0000
0100
0000
1000
0000
0001
0000
0100
0000
0010
0000
1000
0000
0100
0000
0010
0000
0001
0000
1000
0000
0010
0000
1000
0000
0000
0001
0000
0000
0100
0000
0000
0001
0000
0000
0010
0000
0000
0100
0000
0000
1000
0000
0000
0010
0000
0000
,
0100
0001
0010
0001
1000
0100
0010
0001
1000
0001
0010
0100
1000
0001
0100
0001
,
1000
0010
0100
0001
1000
0100
1000
0000
2110
3000
0000
0000
MMMM
0000
0000
0000
,
0122
0033
0000
0000
MMMM
0000
0000
0000
2222
3333
2200
3300
2200
3300
0220
0330
,
0220
0330
0022
0033
0022
0033
0002
2003
3020
0030
2020
3030
2020
3030
0202
0303
,
0202
0303
2200
3300
2110
3000
MMMM
0000
0112
0003
MMMM
0000
2110
3000
MMMM
0000
,
0112
0003
MMMM
0000
2110
3000
MMMM
0000
0112
0003
0000
0000
0101
0000
0011
0000
,
0210
0000
0000
0000
0000
0000
0000
0000
1300
0001
0100
0001
1000
0001
0100
0001
2000
0000
0000
0000
0000
0000
0000
0000
3000
0000
0000
0000
0000
0000
0000
0000
,
0000
0000
2222
3333
,
0000
0000
2222
3333
,
0000
0000
2222
3333
,
2222
3333
2222
3333
,
0000
0000
2222
3333
,
0000
0000
2222
3333
,
0000
0000
0000
0000
2222
3333
2222
3333
,
2222
0000
3333
0000
0100
0001
1000
0100
0020
0031
1000
0010
0200
0301
0010
0100
,
2000
3001
0100
0001
0020
0130
1000
0001
0200
0301
1000
0100
0020
0031
1000
0001
,
0020
0130
1000
0001
0100
0001
1000
0100
2000
3001
1000
0010
0200
0301
1000
0100
,
0020
0031
1000
0001
0020
0130
1000
0001
0200
0301
1000
0100
0020
0031
1000
0001
,
0020
0000
0130
0000
2000
0000
3001
0000
0200
0000
0301
0000
0010
0100
1000
0001
2000
0000
3010
0000
0100
0000
0001
0000
2000
0000
3100
0000
0010
0000
0001
0000
,
2000
3010
0100
0001
2000
3100
0010
0001
2000
3001
0010
0100
2000
3001
0100
0001
,
0020
0130
1000
0001
1000
0000
0101
0000
0022
0000
0033
0000
0220
0000
0330
0000
,
2200
3300
2020
3030
0202
0303
0022
0033
,
0200
0000
0000
0000
0000
0000
0000
0000
1300
0001
0100
0001
1000
0100
0010
0001
,
1000
0010
1000
0100
0010
0001
0100
0001
1000
0100
1000
0001
0010
0100
1000
0001
,
0100
0000
0001
0000
1000
0000
0100
0000
0010
0001
1000
0000
0010
0100
0001
0000
1000
0000
0010
0000
0100
0000
0001
0000
1000
0000
0100
0000
1000
0000
0001
0000
,
0100
0001
1000
0100
0010
0001
1000
0001
0020
0030
0200
0300
2000
3000
0100
0010
,
0200
0000
0000
0000
2300
0000
3000
0000
0010
0100
0001
1000
0100
1000
0001
0010
,
0100
1000
0001
0100
0001
1000
0100
0010
0001
1000
0010
1000
0100
0010
0001
0100
,
0010
0000
0000
0000
0000
0000
0000
0000
1000
0000
0000
0000
0000
0000
0000
0000
0001
0000
0000
0000
0000
0000
0000
0000
1000
0000
0000
0000
0000
0000
0000
0000
0100
0000
0000
0000
0000
0000
0000
0000
0010
0000
0000
0000
0000
0000
0000
0000
0001
0000
0000
0000
0000
0000
0000
0000
1000
0000
0000
0000
0000
0000
0000
0000
0010
0000
0000
0000
0000
0000
0000
0000
0100
0000
0000
0000
0000
0000
0001
0000
0000
0000
0000
0000
1000
0000
0000
0000
0000
0000
0001
0000
0000
0000
0000
0000
0010
0000
0000
0000
0000
0000
0000
0000
0000
0000
0000
0000
0100
0000
0000
0000
0000
0000
0000
0000
0000
0000
0000
0000
1000
0000
0000
0000
0000
0000
0000
0000
0000
0000
0000
0000
0001
0000
0000
0000
0000
0000
0000
0000
0000
0000
0000
0000
0100
0000
0000
0000
0000
0000
0000
0000
0000
0000
0000
0000
0001
0000
0000
0000
0000
0000
0000
0000
0000
0000
0000
0000
1000
0000
0000
0000
0000
0000
0000
0000
0000
0000
0000
0000
0100
0000
0000
0000
0000
0000
0000
0000
0000
0000
0000
0000
,
0010
0001
1000
0010
0100
0001
1000
0100
2000
3000
1002
0003
0002
0003
0000
0000
,
1112
0000
0000
0000
0000
0000
0000
0000
0000
0000
0000
0000
0003
0000
0000
0000
0000
0000
0000
0000
0000
0000
0000
0000
0000
0000
0000
0000
0000
0000
0000
0000
0000
0000
0000
0000
0000
0000
0000
0000
0000
0000
0000
0000
0000
0000
0000
0000
2111
0000
0000
0000
0000
0000
0000
0000
0000
0000
0000
0000
3000
0000
0000
0000
0000
0000
0000
0000
0000
0000
0000
0000
0100
0000
0000
0000
0000
0000
0001
0000
0000
0000
0000
0000
0100
0000
0000
0000
0000
0000
0001
0000
0000
0000
0000
0000
1000
0000
0000
0000
0000
0000
0000
0000
0100
0000
0000
0000
0000
0000
0000
0000
0010
0000
0000
0000
0000
0000
0000
0000
0001
0000
0000
0000
0000
0000
0000
0000
1000
0000
0000
0000
0000
0000
0000
0000
0001
0000
0000
0000
0000
0000
0000
0000
0010
0000
0000
0000
0000
0000
0000
0000
0001
0000
0000
0000
0000
0000
0000
0000
1000
0000
0000
0000
0000
0000
0000
0000
0010
0000
0000
0000
0000
0000
0000
0000
0100
0000
0000
0000
0000
0000
0000
0000
0001
0000
0000
0000
0000
0000
0000
0000
,
1000
0100
1000
0010
0100
0001
0010
0100
1000
0010
0100
0001
1000
0100
0010
0001
1000
0010
0100
0001
1000
0100
1000
0001
,
0010
0100
1000
0010
0100
0001
1000
0100
1000
0001
0010
0100
1000
0010
0100
0001
0010
0001
1000
0010
1000
0001
0010
0100
,
1000
0000
0000
0000
0000
0000
0000
0000
0001
0000
0000
0000
0000
0000
0000
0000
0100
0000
0000
0000
0000
0000
0000
0000
0001
0000
0000
0000
0000
0000
0000
0000
1000
0000
0000
0000
0000
0000
0000
0000
0001
0000
0000
0000
0000
0000
0000
0000
2000
0000
0000
0000
0000
0000
0000
0000
0000
0000
0000
0000
3000
0000
0000
0000
0000
0000
0000
0000
0000
0000
0000
0000
2002
0000
0000
0000
0000
0000
0000
0000
0000
0000
0000
0000
3003
0000
0000
0000
0000
0000
0000
0000
0000
0000
0000
0000
1000
0000
0000
0000
0000
0000
0010
0000
0000
0000
0000
0000
0100
0000
0000
0000
0000
0000
0001
0000
0000
0000
0000
0000
1000
0000
0000
0000
0000
0000
0000
0000
0100
0000
0000
0000
0000
0000
0000
0000
0010
0000
0000
0000
0000
0000
0000
0000
0001
0000
0000
0000
0000
0000
0000
0000
1000
0000
0000
0000
0000
0000
0000
0000
0010
0000
0000
0000
0000
0000
0000
0000
0100
0000
0000
0000
0000
0000
0001
0000
0000
0000
0000
0000
0010
0000
0000
0000
0000
0000
0001
0000
0000
0000
0000
0000
,
0010
0000
0000
0000
0000
0000
0000
0000
0100
0000
0000
0000
0000
0000
0000
0000
1000
0000
0000
0000
0000
0000
0000
0000
0001
0000
0000
0000
0000
0000
0000
0000
1000
0000
0000
0000
0000
0000
0000
0000
0010
0000
0000
0000
0000
0000
0000
0000
0100
0000
0000
0000
0000
0000
0001
0000
0000
0000
0000
0000
1000
0000
0000
0000
0000
0000
0100
0000
0000
0000
0000
0000
0010
0000
0000
0000
0000
0000
0000
0000
0000
0000
0000
0000
0001
0000
0000
0000
0000
0000
0000
0000
0000
0000
0000
0000
1000
0000
0000
0000
0000
0000
0000
0000
0000
0000
0000
0000
0010
0000
0000
0000
0000
0000
0000
0000
0000
0000
0000
0000
0100
0000
0000
0000
0000
0000
0000
0000
0000
0000
0000
0000
0001
0000
0000
0000
0000
0000
0000
0000
0000
0000
0000
0000
1000
0000
0000
0000
0000
0000
0000
0000
0000
0000
0000
0000
0100
0000
0000
0000
0000
0000
0000
0000
0000
0000
0000
0000
1000
0000
0000
0000
0000
0000
0000
0000
0000
0000
0000
0000
0001
0000
0000
0000
0000
0000
0000
0000
0000
0000
0000
0000
,
0010
0100
1000
0001
0100
0001
1000
0100
1000
0001
0010
0100
1000
0001
0100
0001
,
1000
0100
0010
0000
1221
0000
0330
0000
2112
0000
3113
0000
1001
0000
1200
0000
,
0310
0000
0000
0000
0000
0000
0000
0000
0001
0000
0000
0000
0000
0000
0000
0000
1000
0000
0000
0000
0000
0000
0000
0000
0010
0000
0000
0000
0000
0000
0000
0000
0100
0000
0000
0000
0000
0000
0000
0000
0001
0000
0000
0000
0000
0000
0000
0000
1000
0000
0000
0000
0000
0000
0100
0000
0000
0000
0000
0000
1000
0000
0000
0000
0000
0000
0001
0000
0000
0000
0000
0000
0010
0000
0000
0000
0000
0000
0100
0000
0000
0000
0000
0000
1000
0000
0000
0000
0000
0000
0000
0000
0000
0000
0000
0000
2110
0000
0000
0000
0000
0000
0000
0000
0000
0000
0000
0000
3000
0000
0000
0000
0000
0000
0000
0000
0000
0000
0000
0000
MMMM
0000
0000
0000
0000
0000
0000
0000
0000
0000
0000
0000
0000
0000
0000
0000
0000
0000
0000
0000
0000
0000
0000
0000
0112
0000
0000
0000
0000
0000
0000
0000
0000
0000
0000
0000
0003
0000
0000
0000
0000
0000
0000
0000
0000
0000
0000
0000
MMMM
0000
0000
0000
0000
0000
0000
0000
0000
0000
0000
0000
0000
0000
0000
0000
0000
0000
0000
0000
0000
0000
0000
0000
,
2110
3000
MMMM
0000
0112
0003
MMMM
0000
1111
0000
0000
0000
0000
0000
0000
0000
,
0000
0000
0000
0000
,
0000
0000
0000
0000
,
0000
0000
0000
0000
,
0000
0000
0000
0000
,
0M00
0000
00M0
0000
,
M000
0000
0M00
0000
,
0000
0000
0000
0000
,
0000
0000
0000
0000
0000
0000
0000
0000
0010
0001
1000
0010
0100
0001
1000
0100
,
0010
0000
0000
0001
0000
0000
1000
0000
0000
0010
0000
0000
0200
0000
0000
0000
0000
0000
0301
0000
0010
0000
0100
0000
1000
0000
0000
0001
0000
0000
0100
0000
0000
0001
0000
0000
1000
0000
0000
0010
0000
0000
0100
0000
0000
0001
0000
0000
,
0010
0000
0000
0100
0000
0000
1000
0000
0000
0001
0000
0000
0100
0000
0000
0001
0000
0000
1000
0000
0010
0000
0100
0000
0001
0000
0000
1000
0000
0000
0010
0000
0000
0100
0000
0000
0001
0000
0000
1000
0000
0000
0100
0000
0000
1000
0000
0000
,
0001
0010
0100
1000
0001
0100
0001
1000
2002
0000
3003
0000
0202
0000
0303
0000
,
0001
0000
0000
0000
0000
0000
0000
0000
0000
0000
0000
0000
0000
0000
0000
0000
0000
0000
0000
0000
0000
0000
0000
0000
0010
0000
0000
0000
0000
0000
0000
0000
0000
0000
0000
0000
0000
0000
0000
0000
0000
0000
0000
0000
0000
0000
0000
0000
0100
0000
0000
0000
0000
0000
1000
0000
0000
0000
0000
0000
0001
0000
0000
0000
0000
0000
0100
0000
0000
0000
0000
0000
0001
0000
0000
0000
0000
0000
1000
0000
0000
0000
0000
0000
0100
0000
0000
0000
0000
0000
1000
0000
0000
0000
0000
0000
0001
0000
0000
0000
0000
0000
0000
0000
1000
0000
0000
0000
0000
0000
0000
0000
0010
0000
0000
0000
0000
0000
0000
0000
1000
0000
0000
0000
0000
0000
0000
0000
0100
0000
0000
0000
0000
0000
0000
0000
0010
0000
0000
0000
0000
0000
0000
0000
0001
0000
0000
0000
0000
0000
0000
0000
0100
0000
0000
0000
0000
0000
0000
0000
0001
0000
0000
0000
0000
0000
0000
0000
1000
0000
0000
0000
0000
0000
0000
0000
0100
0000
0000
0000
0000
0000
0000
0000
1000
0000
0000
0000
0000
0000
0000
0000
,
0001
0000
0000
0100
0000
0000
0001
0000
0000
1000
0000
0000
0100
0000
0010
0000
0001
0000
1000
0000
0100
0000
1000
0000
0010
0000
0000
0100
0000
0000
0001
0000
0000
1000
0000
0000
0100
0000
0000
1000
0000
0000
0001
0000
0000
0010
0000
0000
,
0100
1000
0001
0100
0001
1000
0200
0310
0001
1000
0010
1000
0100
0010
0001
1000
,
0001
0100
0001
0010
0100
1000
0001
1000
0200
0300
0022
0033
2202
3303
2222
3333
,
2000
0000
0000
0000
0000
0000
0000
0000
3001
0010
0100
1000
0001
0100
0001
1000
,
0100
0000
0000
0010
0000
0000
0001
0000
0000
1000
0000
0000
0020
0000
0000
0000
0000
0000
0130
0000
0001
0000
1000
0000
0100
0000
0000
0010
0000
0000
0001
0000
0000
1000
0000
0000
0010
0000
0000
1000
0000
0000
0100
0000
0000
0010
0000
0000
,
0001
0000
0000
0100
0000
0000
0001
0000
0000
0010
0000
0000
0100
0000
1000
0000
0001
0000
0010
0000
0100
0000
1000
0000
0010
0000
0000
0100
0000
0000
0001
0000
0000
1000
0000
0000
0100
0000
0000
1000
0000
0000
0001
0000
0000
0100
0000
0000
,
0010
0000
0000
1000
0000
0000
0100
0000
0000
0010
0000
0000
0001
0000
0000
1000
0000
0000
0010
0000
0100
0000
0001
0000
0010
0000
0000
0100
0000
0000
1000
0000
0000
0001
0000
0000
0100
0000
0000
0001
0000
0000
1000
0000
0000
0100
0000
0000
,
0010
0001
1000
0010
2000
3000
0120
0030
0001
1000
0010
0100
0001
1000
0100
1000
,
0001
0000
0100
0000
0001
0000
0010
0000
0200
0000
0000
0000
1300
0001
0010
0100
1000
0000
0001
0000
0100
0000
0001
0000
1000
0000
0100
0000
0010
0000
0001
0000
,
0010
0000
0100
0000
1000
0000
0001
0000
0100
0000
0001
0000
1000
0000
0010
0000
1000
0000
0100
0000
1000
0000
0001
0000
1000
0000
0000
0010
0000
0000
0100
0000
0000
0001
0000
0000
1000
0000
0000
0100
0000
0000
1000
0000
0000
0010
0000
0000
,
0100
0001
0010
0100
2200
0000
0000
0000
3301
0000
0011
0000
0110
0000
1100
0000
,
1001
0000
0000
0000
0000
0000
0000
0000
0000
0000
0000
0000
0000
0000
0000
0000
0000
0000
0000
0000
0000
0000
0000
0000
MMMM
0000
0000
0000
0000
0000
0000
0000
0000
0000
0000
0000
0000
0000
0000
0000
0000
0000
0000
0000
0000
0000
0000
0000
1111
0000
0000
0000
0000
0000
0000
0000
0000
0000
0000
0000
0000
0000
0000
0000
0000
0000
0000
0000
0000
0000
0000
0000
0000
0000
0000
0000
0000
0000
0000
0000
0000
0000
0000
0000
0000
0000
0000
0000
0000
0000
0000
0000
0000
0000
0000
0000
M1M0
0000
0000
0000
0000
0000
0000
0000
0001
0000
0000
0000
0000
0000
0000
0000
0010
0000
0000
0000
0000
0000
0000
0000
0001
0000
0000
0000
0000
0000
0000
0000
1000
0000
0000
0000
0000
0000
0000
0000
0100
0000
0000
0000
0000
0000
0000
0000
0010
0000
0000
0000
0000
0000
0000
0000
0001
0000
0000
0000
0000
0000
0000
0000
1000
0000
0000
0000
0000
0000
0000
0000
0010
0000
0000
0000
0000
0000
0100
0000
0000
0000
0000
0000
0001
0000
0000
0000
0000
0000
1000
0000
0000
0000
0000
0000
,
0001
0100
0010
1000
0100
1000
0010
0100
0001
0010
0100
1000
0001
0100
0001
1000
,
0100
0010
0001
1000
0200
0310
0002
1003
0100
1000
0010
0100
0001
0010
0100
1000
,
0001
1000
0100
1000
0010
0100
0001
1000
0100
0010
0001
1000
0010
0100
0001
1000
,
0001
1000
0100
0010
0001
1000
0010
0100
0001
0010
0100
1000
0001
0100
0001
0010
0001
1000
0100
1000
0010
0100
0001
1000
,
0100
1000
0010
0100
0001
0010
0100
0010
0001
1000
0100
0010
0001
1000
0010
0100
0001
1000
0100
1000
0010
0100
0001
0010
,
0001
1000
0100
0010
0001
1000
0010
0100
0001
1000
0100
1000
0010
0100
0001
1000
0100
1000
0010
0100
0001
0010
0100
0010
,
0001
0000
0000
0000
0000
0000
0000
0000
1000
0000
0000
0000
0000
0000
0000
0000
0100
0000
0000
0000
0000
0000
0000
0000
0010
0000
0000
0000
0000
0000
0000
0000
0001
0000
0000
0000
0000
0000
0000
0000
1000
0000
0000
0000
0000
0000
0000
0000
0010
0000
0000
0000
0000
0000
0000
0000
0100
0000
0000
0000
0000
0000
0000
0000
0001
0000
0000
0000
0000
0000
0000
0000
0010
0000
0000
0000
0000
0000
0000
0000
0001
0000
0000
0000
0000
0000
0000
0000
1000
0000
0000
0000
0000
0000
0000
0000
0010
0000
0000
0000
0000
0000
0100
0000
0000
0000
0000
0000
0001
0000
0000
0000
0000
0000
0000
0000
0000
0000
0000
0000
0020
0000
0000
0000
0000
0000
0000
0000
0000
0000
0000
0000
0000
0000
0000
0000
0000
0000
0000
0000
0000
0000
0000
0000
0130
0000
0000
0000
0000
0000
1000
0000
0000
0000
0000
0000
0010
0000
0000
0000
0000
0000
0000
0000
0000
0000
0000
0000
0100
0000
0000
0000
0000
0000
0001
0000
0000
0000
0000
0000
0020
0000
0000
0000
0000
0000
0000
0000
0000
0000
0000
0000
,
0000
0000
0000
0000
0130
1000
0002
0000
1003
0010
0200
0000
0310
1000
0100
0000
0010
0000
0001
0000
1000
0000
0010
0000
0100
0000
0001
0000
1000
0000
0100
0000
,
1000
0001
0010
0100
1000
0010
0100
0001
1000
0100
1000
0001
0010
0100
1000
0001
,
1000
0000
0100
0000
0010
0000
0001
0000
1000
0000
0010
0000
0100
0000
0001
0000
1000
0000
0100
0000
0010
0000
0001
0000
1000
0000
0000
0100
0000
0000
1000
0000
0000
0001
0000
0000
0010
0000
0000
0100
0000
0000
1000
0000
0000
0100
0000
0000
,
0010
0001
1000
0010
0100
0001
1000
0100
0020
0031
1000
0100
1000
0001
1000
0100
,
0010
0000
0000
0001
0000
0000
0100
0000
0000
0001
0000
0000
0010
0000
0000
0100
0000
0000
1000
0000
0000
0001
0000
0000
1000
0000
0100
0000
0010
0000
0001
0000
0100
0000
0001
0000
0010
0000
0100
0000
1000
0000
0010
0000
0100
0000
0001
0000
,
1000
0100
1000
0001
0100
0001
0010
0001
1000
0100
0010
0001
1000
0010
1000
0100
0010
0001
1000
0010
0100
0001
0010
0001
,
1000
0100
0010
0001
1000
0010
0100
0001
0010
0001
1000
0100
0040
0034
4003
3400
0340
0430
4300
3040
0430
0304
0043
0034
,
4003
0000
3400
0000
0340
0000
0034
0000
4003
0000
3040
0000
4030
0000
3004
0000
0043
0000
0430
0000
4300
0000
3040
0000
0430
0000
0300
0000
0000
0000
0000
0000
0000
0000
0000
0000
2110
0000
0000
3000
0000
0000
0000
0000
0000
0000
0000
0000
,
0112
0003
0000
0000
2110
3000
0000
0000
0112
0003
0000
0000
MMMM
0000
0000
0000
,
MMMM
MMMM
MMMM
0000
;
