#TITLE:Welcome to Rainbow;
#SUBTITLE:;
#ARTIST:Basshunter;
#TITLETRANSLIT:;
#SUBTITLETRANSLIT:;
#ARTISTTRANSLIT:;
#CREDIT:;
#BANNER:;
#BACKGROUND:Welcome to Rainbow.png;
#LYRICSPATH:;
#CDTITLE:;
#MUSIC:Bass Hunter - Welcome to Rainbow.ogg;
#OFFSET:-1.780;
#SAMPLESTART:44.637;
#SAMPLELENGTH:11.980;
#SELECTABLE:YES;
#BPMS:0.000=140.000;
#STOPS:;
#BGCHANGES:;
// cache tags:
#FIRSTBEAT:12.000;
#LASTBEAT:700.750;
#SONGFILENAME:Songs/new cedric/Bass Hunter - Welcome to Rainbow/Bass Hunter - Welcome to Rainbow.sm;
#HASMUSIC:1;
#HASBANNER:0;
#MUSICLENGTH:105.000;
// end cache tags

//---------------dance-single - Chicky Steps----------------
#NOTES:
     dance-single:
     Chicky Steps:
     Challenge:
     9:
     1.000,1.000,1.000,0.876,1.000,1142.000,221.000,92.000,0.000,1.000:

0000
0000
0000
0000
,
0000
0000
0000
0000
,
0000
0000
0000
0000
,
2000
0000
0000
0000
,
0000
0000
0000
0000
,
0020
3000
0200
0030
0000
0000
0002
0300
,
2000
0003
0000
0000
0200
3000
0302
0000
,
2003
0000
0000
0000
,
0020
3000
0000
0000
0000
0000
0000
0000
,
0002
0030
0000
0000
0200
0003
0000
0000
,
0020
0300
0000
0000
2000
0030
0000
0000
,
0002
3000
0010
0000
0100
0000
2000
0003
,
0200
3000
0000
0000
0302
0000
0200
0003
,
2000
0300
0000
0000
0000
0000
0002
3000
,
0200
0003
0000
0000
0020
0300
2000
0030
,
0002
3000
0000
0000
0000
0000
0000
0000
,
0020
0003
0000
0000
0000
0000
0000
0000
,
0002
0030
0000
0000
0020
0003
0000
0000
,
0200
0030
0000
0000
2000
0300
0000
0000
,
0200
3000
0010
0000
1000
0000
0002
0300
,
2000
0003
0000
0000
0020
3000
0200
0030
,
1301
0000
0100
0000
1001
0000
0000
0000
0001
0000
0000
0001
0000
0010
0100
0000
,
1000
0000
0000
0000
,
1001
0000
0100
0000
0101
0000
0000
0000
0100
0000
0000
0100
0000
0010
1000
0000
,
0001
0000
0000
0000
,
1001
0000
0001
0000
1001
0000
0000
0000
0100
0000
0000
0100
0000
0010
0100
0000
,
1000
0000
0000
0000
,
0110
0000
0100
0000
1010
0000
0000
0000
0100
0000
0010
0100
0000
0010
1000
0000
,
0011
0000
0010
0000
0101
0000
0000
0000
0010
0000
0000
0010
0000
0001
1000
0000
,
1100
0100
0110
0000
0000
0000
0000
0100
,
1000
0000
0000
0001
0000
0000
0000
0000
0000
0000
0000
0000
1001
0000
0000
0000
,
1010
0000
0100
0000
1010
0000
0100
0000
0101
0000
0010
0001
0000
0010
0001
0000
,
1100
0000
0100
0000
1100
0000
0010
0000
0110
0000
0001
0010
0000
0100
0001
0000
,
1001
0000
1000
0000
1001
0000
0100
0000
0101
0000
0010
0001
0000
0010
0100
0000
,
0110
0000
0100
0000
0110
0000
0001
0000
0101
0000
1000
0100
0000
0010
0000
0001
,
1001
0000
0100
0000
1010
0000
1000
0000
0101
0000
0010
0001
0000
0100
0001
0000
,
0011
0000
0100
0000
0011
0000
0001
0000
0101
0000
0010
0100
0000
1000
0100
0000
,
0110
0000
0010
0000
0110
0000
0100
0000
0011
0000
1000
0001
0000
0010
0001
0000
,
1100
0000
0100
0000
1100
0000
0001
0000
0110
0000
0010
0100
0000
0100
0010
0000
,
1001
0000
0010
0000
1001
0000
0100
0000
1001
0000
0010
1000
0000
0100
1000
0000
,
0101
0000
0010
0000
0101
0000
1000
0000
0101
0000
0001
0100
0000
0010
1000
0000
,
0011
0000
0001
0000
0011
0000
0100
0000
1001
0000
0100
1000
0000
0100
0010
0000
,
0110
0000
0001
0000
0101
0000
0010
0000
0011
0000
0000
0010
0000
0100
0000
1000
,
1001
0000
0100
0000
1001
0000
0001
0000
1100
0000
0001
1000
0000
0010
1000
0000
,
0110
0000
0010
0000
0101
0000
0001
0000
0011
0000
0001
0010
0000
0001
0010
0000
,
0101
0000
0100
0000
0101
0000
0010
0000
1100
0000
0001
1000
0000
0100
1000
0000
,
1001
0000
0100
0000
1001
0000
0010
0000
0011
0000
0100
0010
0000
0010
0100
0000
,
1010
0000
0100
0000
1001
0000
0000
0000
0101
0000
0010
0001
0000
0010
0001
0000
,
1010
0000
0100
0000
1100
0000
1000
0000
1010
0000
0100
0010
0000
0010
1000
0000
,
0110
0000
1000
0000
0110
0000
0001
0000
0101
0000
0010
0100
0000
0010
1000
0000
,
1001
0000
0010
0000
1001
0000
0010
0000
1100
0000
0000
0010
0000
0100
0000
1000
,
1001
0000
0100
0000
0011
0000
0001
0000
1100
0000
0100
1000
0000
0010
1000
0000
,
1100
0000
0100
0000
1100
0000
0100
0000
0110
0000
0001
0010
0000
0001
1000
0000
,
0110
0000
0001
0000
0011
0000
0001
0000
0101
0000
0010
0100
0000
0001
1000
0000
,
0110
0000
0010
0000
0101
0000
0000
0000
0011
0000
0100
0010
0000
0100
0010
0000
,
0101
0000
0010
0000
0101
0000
0001
0000
1001
0000
0010
1000
0000
0100
1000
0000
,
1001
0000
0100
0000
1001
0000
0010
0000
0101
0000
0010
0100
0000
0100
0001
0000
,
0101
0000
0010
0000
0101
0000
0100
0000
0011
0000
0001
0010
0000
0100
0001
0000
,
1010
0000
0010
0000
1100
0000
0010
0000
0101
0000
0000
0100
0000
0010
0000
0001
,
1001
0000
0010
0000
1001
0000
0001
0000
0101
0000
0010
0001
0000
0100
0001
0000
,
0110
0000
1000
0000
0110
0000
0001
0000
0101
0000
1000
0100
0000
1000
0001
0000
,
0110
0000
0100
0000
0110
0000
0001
0000
0011
0000
0001
0010
0000
1000
0001
0000
,
1010
0000
0100
0000
0101
0000
0010
0000
0101
0000
1000
0100
0000
0100
1000
0000
,
1001
0100
1001
0000
0000
0000
0000
0000
,
0000
0000
0000
0000
,
0000
0000
0000
0000
,
0020
0000
0000
0000
0130
0000
0000
0000
0000
0000
0000
0100
0000
0000
0000
0000
0000
0100
0000
0000
0000
0000
0000
0000
0000
0000
0000
0000
0000
0000
0000
0000
,
0000
0000
0000
0000
0000
0000
0000
0200
,
0320
0000
0000
0000
0130
0000
0000
0000
0000
0000
0000
0100
0000
0000
0000
0000
0000
0100
0000
0000
0000
0000
0000
0000
0000
0000
0000
0000
0000
0000
0000
0000
,
0000
0000
0000
0000
0000
0000
0000
0200
,
2300
0000
0000
0000
3001
0000
0000
0000
0000
0000
0000
0001
0000
0000
0000
0000
0001
0000
0000
0000
0001
0000
0000
0000
0000
0000
0002
0000
0000
0000
2003
0000
,
0000
3100
0000
0000
1100
0000
0000
0000
1100
0000
0000
0000
0000
0000
0000
0000
,
1000
0000
0001
1000
0001
1000
0010
0100
0010
0000
1000
0000
0001
0010
0001
1000
,
0001
0000
1000
0000
0100
0000
1000
0000
0001
0000
0100
0000
0010
0000
1000
0000
0001
0000
0000
0000
0001
0000
0000
0000
0010
0000
0000
0001
0010
0000
0000
0000
,
1002
0000
0000
0000
1003
0000
0000
0000
0000
0000
0000
1000
0000
0000
0000
0000
1000
0000
0100
0000
1000
0000
0000
0000
0000
0000
2000
0000
0000
0000
3002
0000
,
0000
0013
0000
0000
0001
0000
0000
0000
0001
0010
0001
0000
0000
0000
0001
0000
,
2000
0000
0000
0000
3100
0000
0000
0000
0000
0000
0000
0100
0000
0000
0000
0000
0100
0000
1000
0000
0100
0000
0000
0000
0000
0000
0000
0100
0000
0000
2000
0000
,
0000
0000
3001
0000
0000
0000
0000
0000
0001
0000
0000
0000
0000
0000
0000
0000
0001
0000
1000
0000
0001
0000
0000
0000
0010
0000
0000
0001
1000
0000
0000
0000
,
0002
0000
0000
0000
1003
0000
0000
0000
0000
0000
0000
1000
0000
0000
0000
0000
1000
0000
0010
0000
1000
0000
0000
0000
0000
0000
2000
0000
0000
0000
3002
0000
,
0000
0103
0000
0000
0100
0000
0000
0000
0100
0010
0100
0000
0000
0000
0100
0000
,
0002
0000
0000
0000
1003
0000
0000
0000
0000
0000
0000
1000
0000
0000
0000
0000
1000
0000
0100
0000
1000
0000
0000
0000
0000
0000
0000
1000
0000
0000
0002
0000
,
0000
0000
0103
0000
0000
0000
0000
0000
0100
0000
0000
0000
0000
0000
0000
0000
0100
0000
0001
0000
0100
0000
0000
0000
0010
0000
0000
1000
0001
0000
0000
0000
,
2001
0000
0000
0000
3001
0000
0000
0000
0000
0000
0000
0001
0000
0000
0000
0000
0001
0000
0010
0000
0001
0000
0000
0000
0000
0000
0002
0000
0000
0000
2003
0000
,
0000
3100
0000
0000
1000
0000
0000
0000
1000
0100
1000
0000
0000
0000
1000
0000
,
0002
0000
0000
0000
0013
0000
0000
0000
0000
0000
0000
0010
0000
0000
0000
0000
0010
0000
0001
0000
0010
0000
0000
0000
0000
0000
0000
0010
0000
0000
0002
0000
,
0000
0000
1003
0000
0000
0000
0000
0000
1000
0000
0000
0000
0000
0000
0000
0000
1000
0000
0100
0000
1000
0000
0000
0000
0100
0000
0000
1000
0001
0000
0000
0000
,
2000
0000
0000
0000
3001
0000
0000
0000
0000
0000
0000
0001
0000
0000
0000
0000
0001
0000
1000
0000
0001
0000
0000
0000
0000
0000
0002
0000
0000
0000
2003
0000
,
0000
3010
0000
0000
0010
0000
0000
0000
0010
0100
0010
0000
0000
0000
0010
0000
,
2000
0000
0000
0000
3001
0000
0000
0000
0000
0000
0000
0001
0000
0000
0000
0000
0001
0000
1000
0000
0001
0000
0000
0000
0000
0000
0000
0001
0000
0000
2000
0000
,
0000
3010
0000
0000
0010
0000
0000
0000
0010
1000
0010
0000
0000
0000
1000
0010
,
1010
0000
0000
0000
,
0000
0000
0000
0000
,
1000
0000
0000
0001
0000
0000
0010
0000
0100
0000
1000
0000
0100
0000
1200
0000
,
0310
0000
0000
0001
0000
0000
1000
0000
1002
0000
0000
0000
0003
0000
1000
0000
,
0001
0000
0000
0010
0000
0000
0100
0000
1000
0000
0001
0000
0100
0000
0201
0000
,
0310
0000
0000
1000
0000
0000
0001
0000
0010
0000
0001
0000
1000
0000
0100
0000
,
0010
0000
0001
0010
0100
0000
1000
0001
1000
0000
0001
0100
0010
0000
0100
0001
,
1000
0000
0100
1000
0100
0000
0010
0001
1000
0000
0001
1000
0001
0000
1000
0001
,
0100
0000
0010
1000
0010
0000
0100
0001
0100
0000
0010
1000
0001
0000
1000
0100
,
0010
0001
1000
0001
0010
0001
1000
0100
1000
0001
0100
0010
1000
0000
0001
0000
,
0010
0001
0000
1000
0000
0000
0100
0000
0000
0000
0000
0000
0000
0000
0000
0000
,
0000
0000
0000
0000
0000
0000
0000
0000
0000
0000
0000
0000
0000
0000
0000
1000
0100
1000
0100
0000
0000
0000
0000
0000
,
1000
0100
0000
0010
0000
0000
0100
0000
1000
0001
0000
0100
0000
0000
0010
0000
,
1000
0001
0000
0010
0000
0000
0100
0000
1000
0001
0000
0100
0000
0001
2000
0000
,
3100
0010
0000
0001
0000
0000
1000
0000
0001
0100
0000
0010
0000
0000
1000
0000
,
0100
0010
0000
0001
0000
0000
0010
0000
0100
1000
0000
0010
0200
0000
0301
0000
,
1000
0001
0000
0010
0000
0000
0001
0000
0100
0010
0000
1000
0000
0000
0001
0000
,
0100
0010
0000
1000
0000
0000
0001
0000
1000
0100
0000
0010
0000
0100
2000
0000
,
3001
0100
0000
0010
0000
0000
0100
0000
0010
1000
0000
0001
0000
0000
1000
0000
,
0100
0010
0000
0001
0000
0000
1000
0000
0001
0100
0000
0010
0200
0000
0301
0000
,
1000
0001
0000
0010
0000
0000
0100
0000
1000
0010
0000
0100
0000
0000
0001
0000
,
1000
0001
0000
0100
0000
0000
0010
0000
1000
0010
0000
0100
0000
0001
2000
0000
,
3100
0010
0000
0001
0000
0000
1000
0000
0010
0100
0000
0001
0000
0000
1000
0000
,
0001
0010
0000
0100
0000
0000
1000
0000
0010
0100
0000
0001
0200
0000
0310
0000
,
1000
0100
0000
0010
0000
0000
0001
0000
0100
0010
0000
1000
0000
0000
0001
0000
,
1000
0100
0000
0010
0000
0000
0100
0000
1000
0010
0000
0100
0000
0001
2000
0000
,
3100
0010
0000
0001
0000
0000
0100
0000
0010
1000
0000
0100
0000
0000
0010
0000
,
0001
0000
1001
0000
0201
0000
0000
0000
0310
1000
0000
0001
0000
1000
0100
0000
,
1001
0000
0000
0000
,
0000
0000
0000
0200
,
2000
0300
0000
0000
0000
0000
0000
0000
,
0000
0000
0000
0000
0000
0000
0000
3000
,
1020
0000
0200
0030
0000
0000
0002
0300
,
2000
0003
0000
0000
0200
3000
0302
0000
,
2003
0000
0000
0000
,
0020
3000
0000
0000
0000
0000
0000
0000
,
0002
0030
0000
0000
0200
0003
0000
0000
,
0020
0300
0000
0000
2000
0030
0000
0000
,
0002
3000
0010
0000
0100
0000
2000
0003
,
0200
3000
0000
0000
0302
0000
0200
0003
,
2000
0300
0000
0000
0000
0000
0000
0000
,
0000
0000
0000
0000
,
3001
0000
0000
0000
0001
0000
0000
0000
1000
0000
0000
1000
0000
0100
0010
0000
,
0001
0000
0000
0000
0000
0000
0000
0000
0000
0000
1000
0001
1000
0001
1000
0001
,
1000
0000
0000
0000
1000
0000
0000
0000
0010
0000
0000
0010
0000
0100
0001
0000
,
1000
0000
0000
0000
0000
0000
0000
0100
1000
0001
0000
0001
1000
0001
0000
0001
,
0100
0000
0000
0000
0100
0000
0000
0000
0010
0000
0000
0010
0000
0100
0010
0100
,
0001
0000
0000
0000
0001
0000
0000
0000
0001
1000
0000
1000
0001
1000
0000
1000
,
0100
0000
0000
0000
0100
0000
0000
0000
0010
0000
0000
0010
0000
0100
1000
0000
,
0001
0010
0001
1000
0001
1000
0010
0100
0010
0100
0010
1000
0001
1000
0100
0010
,
1001
0000
1001
0000
0000
0000
0000
0001
,
1000
0000
0000
0100
0000
0000
0000
0000
0000
0000
0010
0000
0001
0000
0001
0000
,
1100
0000
0100
0000
1100
0000
0010
0000
0110
0000
0001
0010
0000
0100
0001
0000
,
1001
0000
1000
0000
1001
0000
0100
0000
0101
0000
0010
0001
0000
0010
0100
0000
,
0110
0000
0100
0000
0110
0000
0001
0000
0101
0000
1000
0100
0000
0010
0000
0001
,
1001
0000
0100
0000
1010
0000
1000
0000
0101
0000
0010
0001
0000
0100
0001
0000
,
0011
0000
0100
0000
0011
0000
0001
0000
0101
0000
0010
0100
0000
1000
0100
0000
,
0110
0000
0010
0000
0110
0000
0100
0000
0011
0000
1000
0001
0000
0010
0001
0000
,
1100
0000
0100
0000
1100
0000
0001
0000
0110
0000
0010
0100
0000
0100
0010
0000
,
1001
0000
0010
0000
1001
0000
0100
0000
1001
0000
0010
1000
0000
0100
1000
0000
,
0101
0000
0010
0000
0101
0000
1000
0000
0101
0000
0001
0100
0000
0010
1000
0000
,
0011
0000
0001
0000
0011
0000
0100
0000
1001
0000
0100
1000
0000
0100
0010
0000
,
0110
0000
0001
0000
0101
0000
0010
0000
0011
0000
0000
0010
0000
0100
0000
1000
,
1001
0000
0100
0000
1001
0000
0001
0000
1100
0000
0001
1000
0000
0010
1000
0000
,
0110
0000
0010
0000
0101
0000
0001
0000
0011
0000
0001
0010
0000
0001
0010
0000
,
0101
0000
0100
0000
0101
0000
0010
0000
1100
0000
0001
1000
0000
0100
1000
0000
,
1001
0000
0100
0000
1001
0000
0010
0000
0011
0000
0100
0010
0000
0010
0100
0000
,
1010
0000
0100
0000
1001
0000
0000
0000
0101
0000
0010
0001
0000
0010
0001
0000
,
1010
0000
0100
0000
1100
0000
1000
0000
1010
0000
0100
0010
0000
0010
1000
0000
,
1000
0000
0000
0000
1000
0000
0000
0000
0010
0100
0010
1000
0000
0010
1000
0000
,
0011
0000
0001
0000
0011
0000
0100
0000
1001
0000
0100
1000
0000
0100
0010
0000
,
0110
0000
0001
0000
0101
0000
0010
0000
0011
0000
0000
0010
0000
0100
0000
1000
,
1001
0000
0100
0000
1001
0000
0001
0000
1100
0000
0001
1000
0000
0010
1000
0000
,
0110
0000
0010
0000
0101
0000
0001
0000
0011
0000
0001
0010
0000
0001
0010
0000
,
0101
0000
0100
0000
0101
0000
0010
0000
1100
0000
0001
1000
0000
0100
1000
0000
,
1001
0000
0100
0000
1001
0000
0010
0000
0011
0000
0100
0010
0000
0010
0100
0000
,
1010
0000
0100
0000
1001
0000
0010
0000
0101
0000
0010
0001
0000
0010
0001
0000
,
1010
0000
0100
0000
1100
0000
1000
0000
1010
0000
0100
0010
0000
0010
1000
0000
,
0101
0000
0010
0000
0101
0000
0001
0000
0011
0000
0001
0010
0000
0100
0001
0000
,
1001
0000
0100
0000
1001
0000
0010
0000
1100
0000
0000
0100
0000
0010
0000
0001
,
1001
0000
0001
0000
1001
0000
0100
0000
1001
0000
0100
0001
0000
0100
0001
0000
,
0011
0000
0001
0000
0011
0000
0010
0000
0101
0000
0001
0100
0000
1000
0001
0000
,
1100
0000
0010
0000
0101
0000
0001
0000
0011
0000
0100
0010
0000
1000
0001
0000
,
1010
0000
0100
0000
1010
0000
0010
0000
0101
0000
1000
0100
0000
0100
1000
0000
,
1001
0000
0010
0000
1001
0000
0100
0000
1001
0000
0000
0010
0000
0000
0100
0000
,
0001
0000
0000
1000
0000
0000
0000
0000
0000
0000
0000
0000
0000
0000
0000
0000
;
