#TITLE:Crush;
#SUBTITLE:;
#ARTIST:Pendulum;
#TITLETRANSLIT:;
#SUBTITLETRANSLIT:;
#ARTISTTRANSLIT:;
#CREDIT:;
#BANNER:crushbn.png;
#BACKGROUND:crushbg.png;
#LYRICSPATH:;
#CDTITLE:;
#MUSIC:crush.ogg;
#OFFSET:0.053;
#SAMPLESTART:10.990;
#SAMPLELENGTH:11.035;
#SELECTABLE:YES;
#BPMS:0.000=174.000;
#STOPS:;
#BGCHANGES:;
// cache tags:
#FIRSTBEAT:32.000;
#LASTBEAT:523.000;
#SONGFILENAME:Songs/Pendulum/Crush/crush.sm;
#HASMUSIC:1;
#HASBANNER:1;
#MUSICLENGTH:181.700;
// end cache tags

//---------------dance-single - I. Pyles----------------
#NOTES:
     dance-single:
     I. Pyles:
     Beginner:
     1:
     0.024,0.035,0.000,0.000,0.000,31.000,0.000,0.000,0.000,0.000:

0000
0000
0000
0000
,
0000
0000
0000
0000
,
0000
0000
0000
0000
,
0000
0000
0000
0000
,
0000
0000
0000
0000
,
0000
0000
0000
0000
,
0000
0000
0000
0000
,
0000
0000
0000
0000
,
0001
0000
0000
0000
,
0000
0000
0000
0000
,
0000
0000
0000
0000
,
0000
0000
0000
0000
,
1000
0000
0000
0000
,
0000
0000
0000
0000
,
0000
0000
0000
0000
,
0000
0000
0000
0000
,
0100
0000
0000
0000
,
0000
0000
0000
0000
,
0000
0000
0000
0000
,
0000
0000
0000
0000
,
1000
0000
0000
0000
,
0000
0000
0000
0000
,
0000
0000
0000
0000
,
0000
0000
0000
0000
,
0010
0000
0000
0000
,
0000
0000
0000
0000
,
0000
0000
0000
0000
,
0000
0000
0000
0000
,
0001
0000
0000
0000
,
0000
0000
0000
0000
,
0000
0000
0000
0000
,
0000
0000
0000
0000
,
0100
0000
0000
0000
,
0000
0000
0000
0000
,
0000
0000
0000
0000
,
0000
0000
0000
0000
,
0010
0000
0000
0000
,
0000
0000
0000
0000
,
0000
0000
0000
0000
,
0000
0000
0000
0000
,
0001
0000
0000
0000
,
0000
0000
0000
0000
,
0000
0000
0000
0000
,
0000
0000
0000
0000
,
1000
0000
0000
0000
,
0000
0000
0000
0000
,
0000
0000
0000
0000
,
0000
0000
0000
0000
,
0100
0000
0000
0000
,
0000
0000
0000
0000
,
0000
0000
0000
0000
,
0000
0000
0000
0000
,
0010
0000
0000
0000
,
0000
0000
0000
0000
,
0000
0000
0000
0000
,
0000
0000
0000
0000
,
0001
0000
0000
0000
,
0000
0000
0000
0000
,
0000
0000
0000
0000
,
0000
0000
0000
0000
,
0001
0000
0000
0000
,
0000
0000
0000
0000
,
0000
0000
0000
0000
,
0000
0000
0000
0000
,
1000
0000
0000
0000
,
0000
0000
0000
0000
,
0000
0000
0000
0000
,
0000
0000
0000
0000
,
0100
0000
0000
0000
,
0000
0000
0000
0000
,
0000
0000
0000
0000
,
0000
0000
0000
0000
,
1000
0000
0000
0000
,
0000
0000
0000
0000
,
0000
0000
0000
0000
,
0000
0000
0000
0000
,
0001
0000
0000
0000
,
0000
0000
0000
0000
,
0000
0000
0000
0000
,
0000
0000
0000
0000
,
0010
0000
0000
0000
,
0000
0000
0000
0000
,
0000
0000
0000
0000
,
0000
0000
0000
0000
,
1000
0000
0000
0000
,
0000
0000
0000
0000
,
0000
0000
0000
0000
,
0000
0000
0000
0000
,
0010
0000
0000
0000
,
0000
0000
0000
0000
,
0000
0000
0000
0000
,
0000
0000
0000
0000
,
0010
0000
0000
0000
,
0000
0000
0000
0000
,
0000
0000
0000
0000
,
0000
0000
0000
0000
,
0100
0000
0000
0000
,
0000
0000
0000
0000
,
0000
0000
0000
0000
,
0000
0000
0000
0000
,
1000
0000
0000
0000
,
0000
0000
0000
0000
,
0000
0000
0000
0000
,
0000
0000
0000
0000
,
0001
0000
0000
0000
,
0000
0000
0000
0000
,
0000
0000
0000
0000
,
0000
0000
0000
0000
,
0010
0000
0000
0000
,
0000
0000
0000
0000
,
0000
0000
0000
0000
,
0000
0000
0000
0000
,
0100
0000
0000
0000
,
0000
0000
0000
0000
,
0000
0000
0000
0000
,
0000
0000
0000
0000
,
0010
0000
0000
0000
,
0000
0000
0000
0000
,
0000
0000
0000
0000
,
0000
0000
0000
0000
,
0100
0000
0000
0000
,
0000
0000
0000
0000
,
0000
0000
0000
0000
,
0000
0000
0000
0000
,
0010
0000
0000
0000
,
0000
0000
0000
0000
,
0000
0000
0000
0000
,
0000
0000
0000
0000
,
1000
0000
0000
0000
;

//---------------dance-single - I. Pyles----------------
#NOTES:
     dance-single:
     I. Pyles:
     Easy:
     9:
     0.670,0.888,0.121,0.572,0.000,722.000,22.000,104.000,0.000,1.000:



0000
0000
0000
0000
,
0000
0000
0000
0000
,
0000
0000
0000
0000
,
0000
0000
0000
0000
,
0000
0000
0000
0000
,
0000
0000
0000
0000
,
0000
0000
0000
0000
,
0000
0000
0000
0000
,
0001
0100
0010
0000
0100
0010
1000
0001
,
1000
0100
0010
0000
0100
1000
0001
0000
,
1000
0010
0100
0000
0010
0100
0001
1000
,
0001
0010
0100
0000
0010
0001
1000
0000
,
0010
1000
0001
1000
0010
1000
0001
0000
,
1000
0100
1000
0001
1000
0100
1000
0000
,
0001
0010
0100
0010
0001
0010
0100
0000
,
1000
0010
0100
0010
1000
0010
0100
0000
,
0001
0100
0010
0000
0100
0010
1000
0001
,
1000
0100
0010
0000
0100
1000
0001
0000
,
1000
0010
0100
0000
0010
0100
0001
1000
,
0001
0010
0100
0000
0010
0001
1000
0000
,
0010
1000
0001
1000
0010
1000
0001
0000
,
1000
0100
1000
0001
1000
0100
1000
0000
,
0001
0010
0100
0010
0001
0010
0100
0000
,
1000
0010
0100
0010
1000
0000
1001
0000
,
0001
0010
0100
0000
0010
0001
0000
0010
,
0100
0000
1000
0100
0010
0001
0000
0100
,
0001
0100
0010
0000
1000
0010
0000
0100
,
0010
0000
1000
0010
0100
0001
0000
0010
,
0100
1000
0001
1000
0100
1000
0001
0000
,
1000
0010
1000
0001
1000
0010
1000
0000
,
0001
0100
0010
0100
0001
0100
0010
0000
,
1000
0100
0010
0100
1000
0100
0010
0000
,
0001
0100
0010
0000
0100
0001
0000
0100
,
0010
0000
1000
0010
0100
0001
0000
0010
,
0001
0010
0100
0000
1000
0100
0000
0010
,
0100
0000
1000
0100
0010
0001
0000
0100
,
0010
1000
0001
1000
0010
1000
0001
0000
,
1000
0100
1000
0001
1000
0100
1000
0000
,
0001
0010
0100
0010
0001
0010
0100
0000
,
1000
0010
0100
0010
1000
0000
1001
0000
,
0000
2000
3020
0230
0302
0103
1000
0100
,
0020
0100
0130
0020
0100
0130
0020
1030
,
0000
0200
0320
0032
2003
3010
0001
0010
,
0200
0010
0310
0200
0010
0310
0200
0301
,
0000
0020
0230
2300
3002
0013
1000
0010
,
0200
0010
0310
0200
0010
0310
0200
1300
,
0000
0002
0203
0320
2030
3100
0001
0100
,
0020
0100
0130
0020
0100
0130
0020
0130
,
1000
0100
0010
0000
0100
1000
0000
0100
,
0010
0000
0001
0010
0100
1000
0000
0010
,
1000
0010
0100
0000
0001
0100
0000
0010
,
0100
0000
0001
0100
0010
1000
0000
0100
,
0010
0001
1000
0001
0010
0001
1000
0000
,
0001
0100
0001
1000
0001
0100
0001
0000
,
1000
0010
0100
0010
1000
0010
0100
0000
,
0001
0010
0100
0010
0001
0010
0100
0000
,
1000
0010
0100
0000
0010
1000
0000
0010
,
0100
0000
0001
0100
0010
1000
0000
0100
,
1000
0100
0010
0000
0001
0010
0000
0100
,
0010
0000
0001
0010
0100
1000
0000
0010
,
0100
0001
1000
0001
0100
0001
1000
0000
,
0001
0010
0001
1000
0001
0010
0001
0000
,
1000
0100
0010
0100
1000
0100
0010
0000
,
0001
0100
0010
0100
0001
0000
1001
0000
,
1000
0000
0000
0000
0001
0000
0000
0000
0020
0000
0000
0000
0100
0000
0030
0000
0020
0000
0000
0000
0001
0000
0000
0000
0031
0000
0000
0000
2002
3003
0000
0000
,
0000
0000
0000
0000
1000
0000
0000
0000
0020
0000
0000
0000
0100
0000
0030
0000
0020
0000
0000
0000
1000
0000
0000
0000
1030
0000
0000
0000
2002
3003
0000
0000
,
0000
0000
0000
0000
0001
0000
0000
0000
0200
0000
0000
0000
0010
0000
0300
0000
0200
0000
0000
0000
0001
0000
0000
0000
0301
0000
0000
0000
2002
3003
0000
0000
,
0000
1000
0200
0310
0200
1300
0020
1030
,
4004
0000
0000
0000
,
3003
0000
1000
0001
0200
0000
0000
0000
,
0320
2000
0000
0000
,
0000
0000
0000
0030
,
3001
0000
0000
0000
1000
0000
0000
0000
0020
0000
0000
0000
0100
0000
0030
0000
0020
0000
0000
0000
1000
0000
0000
0000
1030
0000
0000
0000
2002
3003
0000
0000
,
0000
0000
0000
0000
0001
0000
0000
0000
0020
0000
0000
0000
0100
0000
0030
0000
0020
0000
0000
0000
0001
0000
0000
0000
0031
0000
0000
0000
2002
3003
0000
0000
,
0000
0000
0000
0000
0001
0000
0000
0000
0200
0000
0000
0000
0010
0000
0300
0000
0200
0000
0000
0000
0001
0000
0000
0000
0301
0000
0000
0000
2002
3003
0000
0000
,
0000
1000
0200
0310
0200
1300
0020
1030
,
4004
0000
0000
0000
,
3003
0000
0002
0000
0103
0010
2000
0000
,
3002
0020
0000
0000
,
0000
0000
0000
0003
,
0031
0100
0010
0000
0100
0010
1000
0001
,
1000
0100
0010
0000
0100
1000
0001
0000
,
1000
0010
0100
0000
0010
0100
0001
1000
,
0001
0010
0100
0000
0010
0001
1000
0000
,
0010
1000
0001
1000
0010
1000
0001
0000
,
1000
0100
1000
0001
1000
0100
1000
0000
,
0001
0010
0100
0010
0001
0010
0100
0000
,
1000
0010
0100
0010
1000
0010
0100
0000
,
0001
0100
0010
0000
0100
0010
1000
0001
,
1000
0100
0010
0000
0100
1000
0001
0000
,
1000
0010
0100
0000
0010
0100
0001
1000
,
0001
0010
0100
0000
0010
0001
1000
0000
,
0010
1000
0001
1000
0010
1000
0001
0000
,
1000
0100
1000
0001
1000
0100
1000
0000
,
0001
0010
0100
0010
0001
0010
0100
0000
,
1000
0010
0100
0010
1000
0000
1001
0000
,
0001
0010
0100
0000
0010
0001
0000
0010
,
0100
0000
1000
0100
0010
0001
0000
0100
,
0001
0100
0010
0000
1000
0010
0000
0100
,
0010
0000
1000
0010
0100
0001
0000
0010
,
0100
1000
0001
1000
0100
1000
0001
0000
,
1000
0010
1000
0001
1000
0010
1000
0000
,
0001
0100
0010
0100
0001
0100
0010
0000
,
1000
0100
0010
0100
1000
0100
0010
0000
,
0001
0100
0010
0000
0100
0001
0000
0100
,
0010
0000
1000
0010
0100
0001
0000
0010
,
0001
0010
0100
0000
1000
0100
0000
0010
,
0100
0000
1000
0100
0010
0001
0000
0100
,
0010
1000
0001
1000
0010
1000
0001
0000
,
1000
0100
1000
0001
1000
0100
1000
0000
,
0001
0010
0100
0010
0001
0010
0100
0000
,
1000
0010
0100
0010
1000
0000
1001
0000
,
0001
0000
0000
0000
1000
0000
0000
0000
0200
0000
0000
0000
0010
0000
0300
0000
0200
0000
0000
0000
1000
0000
0000
0000
1300
0000
0000
0000
2002
3003
0000
0000
,
0000
0000
0000
0000
0001
0000
0000
0000
0200
0000
0000
0000
0010
0000
0300
0000
0200
0000
0000
0000
0001
0000
0000
0000
0301
0000
0000
0000
2002
3003
0000
0000
,
0000
0000
0000
0000
1000
0000
0000
0000
0020
0000
0000
0000
0100
0000
0030
0000
0020
0000
0000
0000
1000
0000
0000
0000
1030
0000
0000
0000
2002
3003
0000
0000
,
0000
0001
0020
0130
0020
0031
0200
0301
,
4004
0000
0000
0000
,
3003
0000
0001
1000
0020
0000
0000
0000
,
0230
0002
0000
0000
,
0000
0000
0000
0300
,
1003
0000
0000
0000
0001
0000
0000
0000
0200
0000
0000
0000
0010
0000
0300
0000
0200
0000
0000
0000
0001
0000
0000
0000
0301
0000
0000
0000
2002
3003
0000
0000
,
0000
0000
0000
0000
1000
0000
0000
0000
0200
0000
0000
0000
0010
0000
0300
0000
0200
0000
0000
0000
1000
0000
0000
0000
1300
0000
0000
0000
2002
3003
0000
0000
,
0000
0000
0000
0000
1000
0000
0000
0000
0020
0000
0000
0000
0100
0000
0030
0000
0020
0000
0000
0000
1000
0000
0000
0000
1030
0000
0000
0000
2002
3003
0000
0000
,
0000
0001
0020
0130
0020
0031
0200
0301
,
4004
0000
0000
0000
,
3003
0000
2000
0000
3010
0100
0002
0000
,
2003
0200
0000
0000
,
0000
0000
0000
3000
,
2302
0000
0000
0000
,
0000
3003
0000
0000
0000
0000
0000
0000
;

//---------------dance-single - I. Pyles----------------
#NOTES:
     dance-single:
     I. Pyles:
     Medium:
     10:
     0.844,0.888,0.094,0.572,0.314,948.000,17.000,104.000,0.000,1.000:





0000
0000
0000
0000
,
0000
0000
0000
0000
,
0000
0000
0000
0000
,
0000
0000
0000
0000
,
0000
0000
0000
0000
,
0000
0000
0000
0000
,
0000
0000
0000
0000
,
0000
0000
0000
0000
,
0001
0000
1000
0001
0010
0000
0100
0000
1000
0000
0010
0000
1000
0000
0100
0000
,
0010
0000
0001
0000
0100
0000
0001
0000
0010
0000
0100
0000
1000
0000
0010
1000
,
0001
0000
0100
0001
1000
0000
0010
0000
1000
0000
0100
0000
1000
0000
0010
0000
,
0100
0000
0001
0000
0010
0000
0001
0000
0100
0000
0010
0000
1000
0000
0001
0100
,
0010
0000
0100
0000
0010
0000
1000
0100
0010
0000
0100
0000
0010
0000
0001
0100
,
0010
0000
0100
0000
0010
0000
1000
0100
0010
0000
0100
0000
0010
0000
0001
0010
,
0100
0000
1000
0000
0001
0000
1000
0010
0100
0000
0001
0000
1000
0000
0001
0010
,
0100
0000
1000
0000
0001
0000
1000
0010
0100
0000
0001
0000
1000
0000
0001
0010
,
0100
0000
1000
0001
0100
0000
0010
0000
1000
0000
0100
0000
1000
0000
0010
0000
,
0100
0000
0001
0000
0010
0000
0001
0000
0100
0000
0010
0000
1000
0000
0100
1000
,
0001
0000
0010
0001
1000
0000
0100
0000
1000
0000
0010
0000
1000
0000
0100
0000
,
0010
0000
0001
0000
0100
0000
0001
0000
0010
0000
0100
0000
1000
0000
0001
0010
,
0100
0000
0010
0000
0100
0000
1000
0010
0100
0000
0010
0000
0100
0000
0001
0010
,
0100
0000
0010
0000
0100
0000
1000
0010
0100
0000
0010
0000
0100
0000
0001
0100
,
0010
0000
1000
0000
0001
0000
1000
0100
0010
0000
0001
0000
1000
0000
0001
0100
,
0010
0000
1000
0000
0001
0000
1000
0100
0010
0000
0001
0000
1000
0000
0001
0100
,
0010
1000
0001
1000
0010
1000
0100
0000
,
0010
0000
0001
0000
1000
0000
0001
0000
0010
0000
0001
0000
0100
0000
0010
1000
,
0001
0000
0100
0001
1000
0000
0010
0000
0100
0000
0010
0000
1000
0000
0001
0000
,
0010
0000
0100
0000
0010
0000
0001
0000
1000
0000
0010
0000
0100
0000
0001
0010
,
0100
0000
0010
0000
0100
0000
1000
0010
0100
0000
0010
0000
0100
0000
0001
0010
,
0100
0000
0010
0000
0100
0000
1000
0010
0100
0000
0010
0000
0100
0000
0001
0100
,
0010
0000
1000
0000
0001
0000
1000
0100
0010
0000
0001
0000
1000
0000
0001
0100
,
0010
0000
1000
0000
0001
0000
1000
0100
0010
0000
0001
0000
1000
0000
0001
0100
,
0010
1000
0001
1000
0010
1000
0100
0000
,
0010
0000
0001
0000
1000
0000
0001
0000
0010
0000
0001
0000
0100
0000
0010
1000
,
0001
0000
0100
0001
1000
0000
0010
0000
0100
0000
0010
0000
1000
0000
0001
0000
,
0010
0000
0100
0000
0010
0000
0001
0000
1000
0000
0010
0000
0100
0000
0001
0010
,
0100
0000
0010
0000
0100
0000
1000
0010
0100
0000
0010
0000
0100
0000
0001
0010
,
0100
0000
0010
0000
0100
0000
1000
0010
0100
0000
0010
0000
0100
0000
0001
0100
,
0010
0000
1000
0000
0001
0000
1000
0100
0010
0000
0001
0000
1000
0000
0001
0100
,
0010
0000
1000
0000
0001
0000
1000
0100
0010
0000
0001
0000
1000
0000
0001
0100
,
0001
2000
3020
0230
0302
0103
1000
0100
,
0020
0100
0130
0020
0100
0130
0020
1030
,
0000
0200
0320
0032
2003
3010
0001
0010
,
0200
0010
0310
0200
0010
0310
0200
0301
,
0000
0020
0230
2300
3002
0013
1000
0010
,
0200
0010
0310
0200
0010
0310
0200
1300
,
0000
0002
0203
0320
2030
3100
0001
0100
,
0020
0100
0130
0020
0100
0130
0020
0130
,
1000
0001
1000
0001
0100
0001
0010
0000
,
0100
0000
1000
0000
0001
0000
1000
0000
0100
0000
1000
0000
0010
0000
0100
0001
,
1000
0000
0010
1000
0001
0000
0100
0000
0010
0000
0100
0000
0001
0000
1000
0000
,
0100
0000
0010
0000
0100
0000
1000
0000
0001
0000
0100
0000
0010
0000
1000
0100
,
0010
0000
0100
0000
0010
0000
0001
0100
0010
0000
0100
0000
0010
0000
1000
0100
,
0010
0000
0100
0000
0010
0000
0001
0100
0010
0000
0100
0000
0010
0000
1000
0010
,
0100
0000
0001
0000
1000
0000
0001
0010
0100
0000
1000
0000
0001
0000
1000
0010
,
0100
0000
0001
0000
1000
0000
0001
0010
0100
0000
1000
0000
0001
0000
1000
0010
,
0100
0001
1000
0001
0100
0001
0010
0000
,
0100
0000
1000
0000
0001
0000
1000
0000
0100
0000
1000
0000
0010
0000
0100
0001
,
1000
0000
0010
1000
0001
0000
0100
0000
0010
0000
0100
0000
0001
0000
1000
0000
,
0100
0000
0010
0000
0100
0000
1000
0000
0001
0000
0100
0000
0010
0000
1000
0100
,
0010
0000
0100
0000
0010
0000
0001
0100
0010
0000
0100
0000
0010
0000
1000
0100
,
0010
0000
0100
0000
0010
0000
0001
0100
0010
0000
0100
0000
0010
0000
1000
0010
,
0100
0000
0001
0000
1000
0000
0001
0010
0100
0000
1000
0000
0001
0000
1000
0010
,
0100
0000
0001
0000
1000
0000
0001
0010
0100
0000
1000
0000
0001
0000
1000
0010
,
1000
0000
0000
0000
0001
0000
0000
0000
0020
0000
0000
0000
0100
0000
0030
0000
0020
0000
0000
0000
0001
0000
0000
0000
0031
0000
0000
0000
2002
3003
0000
0000
,
0000
0000
0000
0000
1000
0000
0000
0000
0020
0000
0000
0000
0100
0000
0030
0000
0020
0000
0000
0000
1000
0000
0000
0000
1030
0000
0000
0000
2002
3003
0000
0000
,
0000
0000
0000
0000
0001
0000
0000
0000
0200
0000
0000
0000
0010
0000
0300
0000
0200
0000
0000
0000
0001
0000
0000
0000
0301
0000
0000
0000
2002
3003
0000
0000
,
0000
1000
0200
0310
0200
1300
0020
1030
,
4004
0000
0000
0000
,
3003
0000
1000
0001
0200
0000
0000
0000
,
0320
2000
0000
0000
,
0000
0000
0000
0030
,
3001
0000
0000
0000
1000
0000
0000
0000
0020
0000
0000
0000
0100
0000
0030
0000
0020
0000
0000
0000
1000
0000
0000
0000
1030
0000
0000
0000
2002
3003
0000
0000
,
0000
0000
0000
0000
0001
0000
0000
0000
0020
0000
0000
0000
0100
0000
0030
0000
0020
0000
0000
0000
0001
0000
0000
0000
0031
0000
0000
0000
2002
3003
0000
0000
,
0000
0000
0000
0000
0001
0000
0000
0000
0200
0000
0000
0000
0010
0000
0300
0000
0200
0000
0000
0000
0001
0000
0000
0000
0301
0000
0000
0000
2002
3003
0000
0000
,
0000
1000
0200
0310
0200
1300
0020
1030
,
4004
0000
0000
0000
,
3003
0000
0002
0000
0103
0010
2000
0000
,
3002
0020
0000
0000
,
0000
0000
0000
0003
,
0031
0000
1000
0001
0010
0000
0100
0000
1000
0000
0010
0000
1000
0000
0100
0000
,
0010
0000
0001
0000
0100
0000
0001
0000
0010
0000
0100
0000
1000
0000
0010
1000
,
0001
0000
0100
0001
1000
0000
0010
0000
1000
0000
0100
0000
1000
0000
0010
0000
,
0100
0000
0001
0000
0010
0000
0001
0000
0100
0000
0010
0000
1000
0000
0001
0100
,
0010
0000
0100
0000
0010
0000
1000
0100
0010
0000
0100
0000
0010
0000
0001
0100
,
0010
0000
0100
0000
0010
0000
1000
0100
0010
0000
0100
0000
0010
0000
0001
0010
,
0100
0000
1000
0000
0001
0000
1000
0010
0100
0000
0001
0000
1000
0000
0001
0010
,
0100
0000
1000
0000
0001
0000
1000
0010
0100
0000
0001
0000
1000
0000
0001
0010
,
0100
0000
1000
0001
0100
0000
0010
0000
1000
0000
0100
0000
1000
0000
0010
0000
,
0100
0000
0001
0000
0010
0000
0001
0000
0100
0000
0010
0000
1000
0000
0100
1000
,
0001
0000
0010
0001
1000
0000
0100
0000
1000
0000
0010
0000
1000
0000
0100
0000
,
0010
0000
0001
0000
0100
0000
0001
0000
0010
0000
0100
0000
1000
0000
0001
0010
,
0100
0000
0010
0000
0100
0000
1000
0010
0100
0000
0010
0000
0100
0000
0001
0010
,
0100
0000
0010
0000
0100
0000
1000
0010
0100
0000
0010
0000
0100
0000
0001
0100
,
0010
0000
1000
0000
0001
0000
1000
0100
0010
0000
0001
0000
1000
0000
0001
0100
,
0010
0000
1000
0000
0001
0000
1000
0100
0010
0000
0001
0000
1000
0000
0001
0100
,
0001
1000
0001
1000
0010
1000
0100
0000
,
0010
0000
0001
0000
1000
0000
0001
0000
0010
0000
0001
0000
0100
0000
0010
1000
,
0001
0000
0100
0001
1000
0000
0010
0000
0100
0000
0010
0000
1000
0000
0001
0000
,
0010
0000
0100
0000
0010
0000
0001
0000
1000
0000
0010
0000
0100
0000
0001
0010
,
0100
0000
0010
0000
0100
0000
1000
0010
0100
0000
0010
0000
0100
0000
0001
0010
,
0100
0000
0010
0000
0100
0000
1000
0010
0100
0000
0010
0000
0100
0000
0001
0100
,
0010
0000
1000
0000
0001
0000
1000
0100
0010
0000
0001
0000
1000
0000
0001
0100
,
0010
0000
1000
0000
0001
0000
1000
0100
0010
0000
0001
0000
1000
0000
0001
0100
,
0010
1000
0001
1000
0010
1000
0100
0000
,
0010
0000
0001
0000
1000
0000
0001
0000
0010
0000
0001
0000
0100
0000
0010
1000
,
0001
0000
0100
0001
1000
0000
0010
0000
0100
0000
0010
0000
1000
0000
0001
0000
,
0010
0000
0100
0000
0010
0000
0001
0000
1000
0000
0010
0000
0100
0000
0001
0010
,
0100
0000
0010
0000
0100
0000
1000
0010
0100
0000
0010
0000
0100
0000
0001
0010
,
0100
0000
0010
0000
0100
0000
1000
0010
0100
0000
0010
0000
0100
0000
0001
0100
,
0010
0000
1000
0000
0001
0000
1000
0100
0010
0000
0001
0000
1000
0000
0001
0100
,
0010
0000
1000
0000
0001
0000
1000
0100
0010
0000
0001
0000
1000
0000
0001
0100
,
0001
0000
0000
0000
1000
0000
0000
0000
0200
0000
0000
0000
0010
0000
0300
0000
0200
0000
0000
0000
1000
0000
0000
0000
1300
0000
0000
0000
2002
3003
0000
0000
,
0000
0000
0000
0000
0001
0000
0000
0000
0200
0000
0000
0000
0010
0000
0300
0000
0200
0000
0000
0000
0001
0000
0000
0000
0301
0000
0000
0000
2002
3003
0000
0000
,
0000
0000
0000
0000
1000
0000
0000
0000
0020
0000
0000
0000
0100
0000
0030
0000
0020
0000
0000
0000
1000
0000
0000
0000
1030
0000
0000
0000
2002
3003
0000
0000
,
0000
0001
0020
0130
0020
0031
0200
0301
,
4004
0000
0000
0000
,
3003
0000
0001
1000
0020
0000
0000
0000
,
0230
0002
0000
0000
,
0000
0000
0000
0300
,
1003
0000
0000
0000
0001
0000
0000
0000
0200
0000
0000
0000
0010
0000
0300
0000
0200
0000
0000
0000
0001
0000
0000
0000
0301
0000
0000
0000
2002
3003
0000
0000
,
0000
0000
0000
0000
1000
0000
0000
0000
0200
0000
0000
0000
0010
0000
0300
0000
0200
0000
0000
0000
1000
0000
0000
0000
1300
0000
0000
0000
2002
3003
0000
0000
,
0000
0000
0000
0000
1000
0000
0000
0000
0020
0000
0000
0000
0100
0000
0030
0000
0020
0000
0000
0000
1000
0000
0000
0000
1030
0000
0000
0000
2002
3003
0000
0000
,
0000
0001
0020
0130
0020
0031
0200
0301
,
4004
0000
0000
0000
,
3003
0000
2000
0000
3010
0100
0002
0000
,
2003
0200
0000
0000
,
0000
0000
0000
3000
,
2302
0000
0000
0000
,
0000
3003
0000
0000
0000
0000
0000
0000
;

//---------------dance-single - I. Pyles----------------
#NOTES:
     dance-single:
     I. Pyles:
     Hard:
     13:
     1.000,1.000,0.066,0.490,1.000,1436.000,12.000,89.000,0.000,0.000:







0000
0000
0000
0000
,
0000
0000
0000
0000
,
0000
0000
0000
0000
,
0000
0000
0000
0000
,
0000
0000
0000
0000
,
0000
0000
0000
0000
,
0000
0000
0000
0000
,
0000
0000
0000
0000
,
0001
0000
1000
0001
0010
0000
0100
0000
1000
0000
0010
0000
1000
0000
0100
0000
,
0010
0000
0001
0000
0100
0000
0001
0000
0010
0000
0100
0000
1000
0000
0010
1000
,
0001
0000
0100
0001
1000
0000
0010
0000
1000
0000
0100
0000
1000
0000
0010
0000
,
0100
0000
0001
0000
0010
0000
0001
0000
0100
0000
0010
0000
1000
0000
0001
0100
,
0010
1000
0001
1000
0100
0010
0001
1000
0010
1000
0001
1000
0100
0010
0001
1000
,
0010
1000
0001
1000
0100
0010
0001
1000
0010
1000
0001
1000
0100
0010
0001
1000
,
0001
0010
0001
1000
0010
0100
0001
1000
0001
0010
0001
1000
0010
0100
0001
1000
,
0100
0010
0100
1000
0001
0100
0010
1000
0100
0010
0100
1000
0001
0100
0010
1000
,
0001
0000
1000
0001
0100
0000
0010
0000
1000
0000
0100
0000
1000
0000
0010
0000
,
0100
0000
0001
0000
0010
0000
0001
0000
0100
0000
0010
0000
1000
0000
0100
1000
,
0001
0000
0010
0001
1000
0000
0100
0000
1000
0000
0010
0000
1000
0000
0100
0000
,
0010
0000
0001
0000
0100
0000
0001
0000
0010
0000
0100
0000
1000
0000
0001
0010
,
0100
1000
0001
1000
0010
0100
0001
1000
0100
1000
0001
1000
0010
0100
0001
1000
,
0100
1000
0001
1000
0010
0100
0001
1000
0100
1000
0001
1000
0010
0100
0001
1000
,
0001
0100
0001
1000
0100
0010
0001
1000
0001
0100
0001
1000
0100
0010
0001
1000
,
0010
0100
0010
1000
0001
0010
0001
0100
0010
1000
0001
1000
0100
0010
0100
0010
,
0001
0000
1000
0010
1000
0000
0001
0100
0001
0100
0010
0000
1000
0000
0000
0000
,
0001
0010
0001
0000
1000
0000
0001
0010
0001
0010
0100
0000
1000
0000
0001
0100
,
0010
0000
0100
0001
1000
0000
0010
1000
0010
1000
0001
0000
0010
0000
0000
0000
,
0100
1000
0100
0000
0010
0000
0100
1000
0100
1000
0001
0000
0100
0000
0001
0010
,
0100
1000
0001
1000
0010
0000
1000
0001
0010
0001
1000
0001
0100
0000
0001
1000
,
0100
1000
0001
1000
0010
0000
1000
0001
0010
0001
1000
0001
0100
0000
0001
1000
,
0001
0100
0001
1000
0100
0000
1000
0001
1000
0010
1000
0001
0010
0000
0001
1000
,
0010
0100
0010
1000
0001
0000
0010
0001
0100
0010
0100
0001
1000
0100
0010
0001
,
1000
0000
0001
0100
0001
0000
1000
0010
1000
0010
0100
0000
0001
0000
0000
0000
,
1000
0100
1000
0000
0001
0000
1000
0100
1000
0100
0010
0000
0001
0000
1000
0010
,
0100
0000
0010
1000
0001
0000
0100
0001
0100
0001
1000
0000
0100
0000
0000
0000
,
0010
0001
0010
0000
0100
0000
0010
0001
0010
0001
1000
0000
0010
0000
1000
0100
,
0010
0001
1000
0001
0100
0000
0001
1000
0100
1000
0001
1000
0010
0000
1000
0001
,
0010
0001
1000
0001
0100
0000
0001
1000
0100
1000
0001
1000
0010
0000
1000
0001
,
1000
0010
1000
0001
0010
0000
0001
1000
0001
0100
0001
1000
0100
0000
1000
0001
,
0100
0010
0100
0001
1000
0000
0001
0100
0010
1000
0001
1000
0100
0010
0100
0010
,
0001
2000
3020
0230
0302
0103
1000
0100
,
0020
0100
0130
0020
0100
0130
0020
1030
,
0000
0200
0320
0032
2003
3010
0001
0010
,
0200
0010
0310
0200
0010
0310
0200
0301
,
0000
0020
0230
2300
3002
0013
1000
0010
,
0200
0010
0310
0200
0010
0310
0200
1300
,
0000
0002
0203
0320
2030
3100
0001
0100
,
0020
0100
0130
0020
0100
0130
0020
0130
,
1000
0000
0001
0100
0001
0000
1000
0010
1000
0010
0100
0000
0001
0000
0000
0000
,
1000
0100
1000
0000
0001
0000
1000
0100
1000
0100
0010
0000
0001
0000
1000
0010
,
0100
0000
0010
1000
0001
0000
0100
0001
0100
0001
1000
0000
0100
0000
0000
0000
,
0010
0001
0010
0000
0100
0000
0010
0001
0010
0001
1000
0000
0010
0000
1000
0100
,
0010
0001
1000
0001
0100
0000
0001
1000
0100
1000
0001
1000
0010
0000
1000
0001
,
0010
0001
1000
0001
0100
0000
0001
1000
0100
1000
0001
1000
0010
0000
1000
0001
,
1000
0010
1000
0001
0010
0000
0001
1000
0001
0100
0001
1000
0100
0000
1000
0001
,
0100
0010
0100
0001
1000
0000
0100
1000
0010
0100
0010
1000
0001
0010
0100
1000
,
0001
0000
1000
0010
1000
0000
0001
0100
0001
0100
0010
0000
1000
0000
0000
0000
,
0001
0010
0001
0000
1000
0000
0001
0010
0001
0010
0100
0000
1000
0000
0001
0100
,
0010
0000
0100
0001
1000
0000
0010
1000
0010
1000
0001
0000
0010
0000
0000
0000
,
0100
1000
0100
0000
0010
0000
0100
1000
0100
1000
0001
0000
0100
0000
0001
0010
,
0100
1000
0001
1000
0010
0000
1000
0001
0010
0001
1000
0001
0100
0000
0001
1000
,
0100
1000
0001
1000
0010
0000
1000
0001
0010
0001
1000
0001
0100
0000
0001
1000
,
0001
0100
0001
1000
0100
0000
1000
0001
1000
0010
1000
0001
0010
0000
0001
1000
,
0010
0100
0010
1000
0001
0000
1000
0010
0100
0001
1000
0001
0010
0100
0010
0100
,
1000
0000
0000
0000
0001
0000
0000
0000
0020
0000
0000
0000
0100
0000
0030
0000
0020
0000
0000
0000
0001
0000
0000
0000
0031
0000
0000
0000
2002
3003
0000
0000
,
0000
0000
0000
0000
1000
0000
0000
0000
0020
0000
0000
0000
0100
0000
0030
0000
0020
0000
0000
0000
1000
0000
0000
0000
1030
0000
0000
0000
2002
3003
0000
0000
,
0000
0000
0000
0000
0001
0000
0000
0000
0200
0000
0000
0000
0010
0000
0300
0000
0200
0000
0000
0000
0001
0000
0000
0000
0301
0000
0000
0000
2002
3003
0000
0000
,
0000
1000
0200
0310
0200
1300
0020
1030
,
0001
0100
0001
1000
0001
0010
0001
1000
0010
1000
0001
1000
0100
1000
0001
0100
,
0001
1000
0100
1000
0100
0010
0001
0010
0100
0010
0001
1000
0010
1000
0001
0100
,
0010
0100
0001
0100
0010
0100
0001
0100
0001
1000
0010
0100
0001
1000
0001
1000
,
0010
0100
0001
1000
0001
1000
0100
0010
0001
1000
0100
0010
0001
0000
0100
0000
,
0001
0000
0000
0000
1000
0000
0000
0000
0020
0000
0000
0000
0100
0000
0030
0000
0020
0000
0000
0000
1000
0000
0000
0000
1030
0000
0000
0000
2002
3003
0000
0000
,
0000
0000
0000
0000
0001
0000
0000
0000
0020
0000
0000
0000
0100
0000
0030
0000
0020
0000
0000
0000
0001
0000
0000
0000
0031
0000
0000
0000
2002
3003
0000
0000
,
0000
0000
0000
0000
0001
0000
0000
0000
0200
0000
0000
0000
0010
0000
0300
0000
0200
0000
0000
0000
0001
0000
0000
0000
0301
0000
0000
0000
2002
3003
0000
0000
,
0000
1000
0200
0310
0200
1300
0020
1030
,
0001
0010
0001
0100
0001
1000
0100
1000
0010
1000
0001
0010
0001
0100
0001
1000
,
0100
1000
0010
1000
0001
1000
0100
1000
0100
0010
0001
0010
0100
0010
0001
1000
,
0010
1000
0001
0100
0010
0100
0001
1000
0010
0100
0001
0100
0001
1000
0010
0100
,
0001
1000
0001
1000
0010
0100
0001
1000
0100
1000
0001
1000
0010
0100
0010
0100
,
0001
0000
1000
0001
0010
0000
0100
0000
1000
0000
0010
0000
1000
0000
0100
0000
,
0010
0000
0001
0000
0100
0000
0001
0000
0010
0000
0100
0000
1000
0000
0010
1000
,
0001
0000
0100
0001
1000
0000
0010
0000
1000
0000
0100
0000
1000
0000
0010
0000
,
0100
0000
0001
0000
0010
0000
0001
0000
0100
0000
0010
0000
1000
0000
0001
0100
,
0010
1000
0001
1000
0100
0010
0001
1000
0010
1000
0001
1000
0100
0010
0001
1000
,
0010
1000
0001
1000
0100
0010
0001
1000
0010
1000
0001
1000
0100
0010
0001
1000
,
0001
0010
0001
1000
0010
0100
0001
1000
0001
0010
0001
1000
0010
0100
0001
1000
,
0100
0010
0100
1000
0001
0100
0010
1000
0100
0010
0100
1000
0001
0100
0010
1000
,
0001
0000
1000
0001
0100
0000
0010
0000
1000
0000
0100
0000
1000
0000
0010
0000
,
0100
0000
0001
0000
0010
0000
0001
0000
0100
0000
0010
0000
1000
0000
0100
1000
,
0001
0000
0010
0001
1000
0000
0100
0000
1000
0000
0010
0000
1000
0000
0100
0000
,
0010
0000
0001
0000
0100
0000
0001
0000
0010
0000
0100
0000
1000
0000
0001
0010
,
0100
1000
0001
1000
0010
0100
0001
1000
0100
1000
0001
1000
0010
0100
0001
1000
,
0100
1000
0001
1000
0010
0100
0001
1000
0100
1000
0001
1000
0010
0100
0001
1000
,
0001
0100
0001
1000
0100
0010
0001
1000
0001
0100
0001
1000
0100
0010
0001
1000
,
0010
0100
0010
1000
0001
0010
0001
0100
0010
1000
0001
1000
0100
0010
0100
0010
,
0001
0000
1000
0010
1000
0000
0001
0100
0001
0100
0010
0000
1000
0000
0000
0000
,
0001
0010
0001
0000
1000
0000
0001
0010
0001
0010
0100
0000
1000
0000
0001
0100
,
0010
0000
0100
0001
1000
0000
0010
1000
0010
1000
0001
0000
0010
0000
0000
0000
,
0100
1000
0100
0000
0010
0000
0100
1000
0100
1000
0001
0000
0100
0000
0001
0010
,
0100
1000
0001
1000
0010
0000
1000
0001
0010
0001
1000
0001
0100
0000
0001
1000
,
0100
1000
0001
1000
0010
0000
1000
0001
0010
0001
1000
0001
0100
0000
0001
1000
,
0001
0100
0001
1000
0100
0000
1000
0001
1000
0010
1000
0001
0010
0000
0001
1000
,
0010
0100
0010
1000
0001
0000
0010
0001
0100
0010
0100
0001
1000
0100
0010
0001
,
1000
0000
0001
0100
0001
0000
1000
0010
1000
0010
0100
0000
0001
0000
0000
0000
,
1000
0100
1000
0000
0001
0000
1000
0100
1000
0100
0010
0000
0001
0000
1000
0010
,
0100
0000
0010
1000
0001
0000
0100
0001
0100
0001
1000
0000
0100
0000
0000
0000
,
0010
0001
0010
0000
0100
0000
0010
0001
0010
0001
1000
0000
0010
0000
1000
0100
,
0010
0001
1000
0001
0100
0000
0001
1000
0100
1000
0001
1000
0010
0000
1000
0001
,
0010
0001
1000
0001
0100
0000
0001
1000
0100
1000
0001
1000
0010
0000
1000
0001
,
1000
0010
1000
0001
0010
0000
0001
1000
0001
0100
0001
1000
0100
0000
1000
0001
,
0100
0010
0100
0001
1000
0000
0100
1000
0010
0100
0010
1000
0001
0010
0100
1000
,
0001
0000
0000
0000
1000
0000
0000
0000
0200
0000
0000
0000
0010
0000
0300
0000
0200
0000
0000
0000
1000
0000
0000
0000
1300
0000
0000
0000
2002
3003
0000
0000
,
0000
0000
0000
0000
0001
0000
0000
0000
0200
0000
0000
0000
0010
0000
0300
0000
0200
0000
0000
0000
0001
0000
0000
0000
0301
0000
0000
0000
2002
3003
0000
0000
,
0000
0000
0000
0000
1000
0000
0000
0000
0020
0000
0000
0000
0100
0000
0030
0000
0020
0000
0000
0000
1000
0000
0000
0000
1030
0000
0000
0000
2002
3003
0000
0000
,
0000
0001
0020
0130
0020
0031
0200
0301
,
1000
0010
1000
0001
1000
0100
1000
0001
0100
0001
1000
0001
0010
0001
1000
0010
,
1000
0001
0010
0001
0010
0100
1000
0100
0010
0100
1000
0001
0100
0001
1000
0010
,
0100
0010
1000
0010
0100
0010
1000
0010
1000
0001
0100
0010
1000
0001
1000
0001
,
0100
0010
1000
0001
1000
0001
0010
0100
1000
0001
0010
0100
1000
0000
0100
0000
,
1000
0000
0000
0000
0001
0000
0000
0000
0200
0000
0000
0000
0010
0000
0300
0000
0200
0000
0000
0000
0001
0000
0000
0000
0301
0000
0000
0000
2002
3003
0000
0000
,
0000
0000
0000
0000
1000
0000
0000
0000
0200
0000
0000
0000
0010
0000
0300
0000
0200
0000
0000
0000
1000
0000
0000
0000
1300
0000
0000
0000
2002
3003
0000
0000
,
0000
0000
0000
0000
1000
0000
0000
0000
0020
0000
0000
0000
0100
0000
0030
0000
0020
0000
0000
0000
1000
0000
0000
0000
1030
0000
0000
0000
2002
3003
0000
0000
,
0000
0001
0020
0130
0020
0031
0200
0301
,
1000
0100
1000
0010
1000
0001
0010
0001
0100
0001
1000
0100
1000
0010
1000
0001
,
0010
0001
0100
0001
1000
0001
0010
0001
0010
0100
1000
0100
0010
0100
1000
0001
,
0100
0001
1000
0010
0100
0010
1000
0001
0100
0010
1000
0010
1000
0001
0100
0010
,
1000
0001
1000
0001
0100
0010
1000
0001
0010
0001
1000
0001
0100
0010
0100
0010
,
2000
0000
0000
0000
,
0000
0000
0000
0000
,
0000
0000
0000
3000
;

//---------------dance-single - I. Pyles----------------
#NOTES:
     dance-single:
     I. Pyles:
     Challenge:
     14:
     1.000,1.000,0.066,0.490,1.000,1640.000,12.000,89.000,0.000,0.000:











0000
0000
0000
0000
,
0000
0000
0000
0000
,
0000
0000
0000
0000
,
0000
0000
0000
0000
,
0000
0000
0000
0000
,
0000
0000
0000
0000
,
0000
0000
0000
0000
,
0000
0000
0000
0000
,
0001
1000
0010
1000
0001
0100
0010
1000
0010
1000
0001
0100
0010
1000
0010
1000
,
0001
1000
0100
1000
0001
0010
0100
1000
0100
1000
0001
0010
0100
1000
0100
1000
,
0001
1000
0100
1000
0001
0010
0100
1000
0100
1000
0001
0010
0100
1000
0100
1000
,
0001
1000
0100
1000
0001
0010
0100
1000
0100
1000
0001
0010
0100
1000
0100
1000
,
0001
1000
0010
1000
0001
0100
0010
1000
0010
1000
0001
0100
0010
1000
0010
1000
,
0001
1000
0100
1000
0001
0010
0100
1000
0100
1000
0001
0010
0100
1000
0100
1000
,
0001
1000
0010
1000
0001
0100
0010
1000
0010
1000
0001
0100
0001
0010
0100
0010
,
0001
0010
0001
0010
0100
0010
0001
0010
0001
0010
0001
1000
0010
1000
0010
0100
,
0001
1000
0100
1000
0001
0010
0100
1000
0100
1000
0001
0010
0100
1000
0100
1000
,
0001
1000
0010
1000
0001
0100
0010
1000
0010
1000
0001
0100
0010
1000
0010
1000
,
0001
1000
0010
1000
0001
0100
0010
1000
0010
1000
0001
0100
0010
1000
0010
1000
,
0001
1000
0010
1000
0001
0100
0010
1000
0001
0010
0001
0010
0100
1000
0100
1000
,
0001
1000
0100
1000
0001
0010
0100
1000
0100
1000
0001
0010
0100
1000
0100
1000
,
0001
1000
0010
1000
0001
0100
0010
1000
0010
1000
0001
0100
0010
1000
0100
1000
,
0100
0010
0001
0010
0001
1000
0010
1000
0010
0100
0001
0100
0001
1000
0100
1000
,
0100
0010
0001
0010
0001
1000
0001
0100
0010
1000
0001
1000
0100
0010
0100
0010
,
0001
0000
1000
0010
1000
0000
0001
0100
0001
0100
0010
1000
0001
0000
0010
0100
,
0010
0100
1000
0001
1000
0000
0010
0100
0001
1000
0100
0010
0001
0000
1000
0100
,
0010
0000
0100
1000
0001
0000
1000
0010
1000
0010
0100
0001
1000
0000
0100
0010
,
0100
0010
0001
1000
0001
0000
0100
0010
1000
0001
0010
0100
1000
0000
0001
0010
,
0100
1000
0001
1000
0010
0100
0001
1000
0100
1000
0001
1000
0010
0100
0001
1000
,
0100
1000
0001
1000
0010
0100
0001
1000
0100
1000
0001
1000
0010
0100
0001
1000
,
0001
0100
0001
1000
0100
0010
0001
1000
0001
0100
0001
1000
0100
0010
0001
1000
,
0010
0100
0010
1000
0001
0010
0100
1000
0010
0100
0010
1000
0001
0010
0100
1000
,
0001
0000
1000
0100
1000
0000
0010
0100
0010
0100
0001
1000
0001
0000
1000
0100
,
1000
0100
0010
0001
1000
0000
0010
0100
0001
1000
0100
0010
0001
0000
1000
0100
,
0010
0000
0100
1000
0001
0000
0100
0010
0100
0010
1000
0001
1000
0000
0001
0010
,
0001
0010
0100
1000
0001
0000
0100
0010
1000
0001
0010
0100
1000
0000
0001
0010
,
0100
1000
0001
1000
0100
0010
0001
1000
0010
1000
0001
1000
0100
0010
0001
1000
,
0010
1000
0001
1000
0100
0010
0001
1000
0010
1000
0001
1000
0100
0010
0001
1000
,
0001
0010
0001
1000
0010
0100
0001
1000
0001
0010
0001
1000
0010
0100
0001
1000
,
0100
0010
0100
1000
0010
0100
0001
0010
0100
1000
0001
1000
0010
0100
0010
0100
,
0001
2000
3020
0230
0302
0103
1000
0100
,
0020
0100
0130
0020
0100
0130
0020
1030
,
0000
0200
0320
0032
2003
3010
0001
0010
,
0200
0010
0310
0200
0010
0310
0200
0301
,
0000
0020
0230
2300
3002
0013
1000
0010
,
0200
0010
0310
0200
0010
0310
0200
1300
,
0000
0002
0203
0320
2030
3100
0001
0100
,
0020
0100
0130
0020
0100
0130
0020
0130
,
1000
0000
0001
0100
0001
0000
1000
0010
1000
0010
0100
0001
1000
0000
0100
0010
,
0100
0010
0001
1000
0001
0000
0100
0010
1000
0001
0010
0100
1000
0000
0001
0010
,
0100
0000
0010
0001
1000
0000
0001
0100
0001
0100
0010
1000
0001
0000
0010
0100
,
0010
0100
1000
0001
1000
0000
0010
0100
0001
1000
0100
0010
0001
0000
1000
0100
,
0010
0001
1000
0001
0100
0010
1000
0001
0010
0001
1000
0001
0100
0010
1000
0001
,
0010
0001
1000
0001
0100
0010
1000
0001
0010
0001
1000
0001
0100
0010
1000
0001
,
1000
0010
1000
0001
0010
0100
1000
0001
1000
0010
1000
0001
0010
0100
1000
0001
,
0100
0010
0100
0001
1000
0100
0010
0001
0100
0010
0100
0001
1000
0100
0010
0001
,
1000
0000
0001
0010
0001
0000
0100
0010
0100
0010
1000
0001
1000
0000
0001
0010
,
0001
0010
0100
1000
0001
0000
0100
0010
1000
0001
0010
0100
1000
0000
0001
0010
,
0100
0000
0010
0001
1000
0000
0010
0100
0010
0100
0001
1000
0001
0000
1000
0100
,
1000
0100
0010
0001
1000
0000
0010
0100
0001
1000
0100
0010
0001
0000
1000
0100
,
0010
0001
1000
0001
0010
0100
1000
0001
0100
0001
1000
0001
0010
0100
1000
0001
,
0100
0001
1000
0001
0010
0100
1000
0001
0100
0001
1000
0001
0010
0100
1000
0001
,
1000
0100
1000
0001
0100
0010
1000
0001
1000
0100
1000
0001
0100
0010
1000
0001
,
0010
0100
0010
0001
0100
0010
1000
0100
0010
0001
1000
0001
0100
0010
0100
0010
,
1000
0000
0000
0000
0001
0000
0000
0000
0020
0000
0000
0000
0100
0000
0030
0000
0020
0000
0000
0000
0001
0000
0000
0000
0031
0000
0000
0000
2002
3003
0000
0000
,
0000
0000
0000
0000
1000
0000
0000
0000
0020
0000
0000
0000
0100
0000
0030
0000
0020
0000
0000
0000
1000
0000
0000
0000
1030
0000
0000
0000
2002
3003
0000
0000
,
0000
0000
0000
0000
0001
0000
0000
0000
0200
0000
0000
0000
0010
0000
0300
0000
0200
0000
0000
0000
0001
0000
0000
0000
0301
0000
0000
0000
2002
3003
0000
0000
,
0000
1000
0200
0310
0200
1300
0020
1030
,
0001
0100
0001
1000
0001
0010
0001
1000
0010
1000
0001
1000
0100
1000
0001
0100
,
0001
1000
0100
1000
0100
0010
0001
0010
0100
0010
0001
1000
0010
1000
0001
0100
,
0010
0100
0001
0100
0010
0100
0001
0100
0001
1000
0010
0100
0001
1000
0001
1000
,
0010
0100
0001
1000
0001
1000
0100
0010
0001
1000
0100
0010
0001
0000
0100
0000
,
0001
0000
0000
0000
1000
0000
0000
0000
0020
0000
0000
0000
0100
0000
0030
0000
0020
0000
0000
0000
1000
0000
0000
0000
1030
0000
0000
0000
2002
3003
0000
0000
,
0000
0000
0000
0000
0001
0000
0000
0000
0020
0000
0000
0000
0100
0000
0030
0000
0020
0000
0000
0000
0001
0000
0000
0000
0031
0000
0000
0000
2002
3003
0000
0000
,
0000
0000
0000
0000
0001
0000
0000
0000
0200
0000
0000
0000
0010
0000
0300
0000
0200
0000
0000
0000
0001
0000
0000
0000
0301
0000
0000
0000
2002
3003
0000
0000
,
0000
1000
0200
0310
0200
1300
0020
1030
,
0001
0010
0001
0100
0001
1000
0100
1000
0010
1000
0001
0010
0001
0100
0001
1000
,
0100
1000
0010
1000
0001
1000
0100
1000
0100
0010
0001
0010
0100
0010
0001
1000
,
0010
1000
0001
0100
0010
0100
0001
1000
0010
0100
0001
0100
0001
1000
0010
0100
,
0001
1000
0001
1000
0010
0100
0001
1000
0100
1000
0001
1000
0010
0100
0010
0100
,
0001
0000
1000
0001
0010
0000
0001
0010
0100
1000
0001
1000
0010
0100
0001
1000
,
0010
0100
0010
0100
0001
1000
0010
0100
0001
0010
0100
1000
0001
0000
0100
0001
,
1000
0000
0010
1000
0001
0100
0010
1000
0001
1000
0100
1000
0001
0010
0100
1000
,
0001
0010
0001
1000
0001
0010
0001
0010
0100
1000
0001
0100
0001
0000
1000
0010
,
0100
0001
1000
0001
0010
0100
1000
0001
0100
0001
1000
0001
0010
0100
1000
0001
,
0100
0001
1000
0001
0010
0100
1000
0001
0100
0001
1000
0001
0010
0100
1000
0001
,
1000
0100
1000
0001
0100
0010
1000
0001
1000
0100
1000
0001
0100
0010
1000
0001
,
0010
0100
0010
0001
1000
0010
0100
0001
0010
0100
0010
0001
1000
0010
0100
0001
,
1000
0000
0001
1000
0010
0000
1000
0010
0100
0001
1000
0001
0010
0100
1000
0001
,
0010
0100
0010
0100
1000
0001
0010
0100
1000
0010
0100
0001
1000
0000
0100
1000
,
0001
0000
0010
0001
1000
0100
0010
0001
1000
0001
0100
0001
1000
0010
0100
0001
,
1000
0010
1000
0001
1000
0010
1000
0010
0100
0001
1000
0100
1000
0000
0001
0010
,
0100
1000
0001
1000
0010
0100
0001
1000
0100
1000
0001
1000
0010
0100
0001
1000
,
0100
1000
0001
1000
0010
0100
0001
1000
0100
1000
0001
1000
0010
0100
0001
1000
,
0001
0100
0001
1000
0100
0010
0001
1000
0001
0100
0001
1000
0100
0010
0001
1000
,
0010
0100
0010
1000
0001
0010
0001
0100
0010
1000
0001
1000
0100
0010
0100
0010
,
0001
0000
1000
0100
1000
0000
0001
0010
0001
0010
0100
1000
0001
0000
0100
0010
,
0100
0010
1000
0001
1000
0000
0100
0010
0001
1000
0010
0100
0001
0000
1000
0010
,
0100
0000
0010
1000
0001
0000
1000
0100
1000
0100
0010
0001
1000
0000
0010
0100
,
0010
0100
0001
1000
0001
0000
0010
0100
1000
0001
0100
0010
1000
0000
0001
0100
,
0010
1000
0001
1000
0100
0010
0001
1000
0010
1000
0001
1000
0100
0010
0001
1000
,
0010
1000
0001
1000
0100
0010
0001
1000
0010
1000
0001
1000
0100
0010
0001
1000
,
0001
0010
0001
1000
0010
0100
0001
1000
0001
0010
0001
1000
0010
0100
0001
1000
,
0100
0010
0100
1000
0001
0100
0010
1000
0100
0010
0100
1000
0001
0100
0010
1000
,
0001
0000
1000
0010
1000
0000
0100
0010
0100
0010
0001
1000
0001
0000
1000
0010
,
1000
0010
0100
0001
1000
0000
0100
0010
0001
1000
0010
0100
0001
0000
1000
0010
,
0100
0000
0010
1000
0001
0000
0010
0100
0010
0100
1000
0001
1000
0000
0001
0100
,
0001
0100
0010
1000
0001
0000
0010
0100
1000
0001
0100
0010
1000
0000
0001
0100
,
0010
1000
0001
1000
0010
0100
0001
1000
0100
1000
0001
1000
0010
0100
0001
1000
,
0100
1000
0001
1000
0010
0100
0001
1000
0100
1000
0001
1000
0010
0100
0001
1000
,
0001
0100
0001
1000
0100
0010
0001
1000
0001
0100
0001
1000
0100
0010
0001
1000
,
0010
0100
0010
1000
0100
0010
0001
0100
0010
1000
0001
1000
0100
0010
0100
0010
,
0001
0000
0000
0000
1000
0000
0000
0000
0200
0000
0000
0000
0010
0000
0300
0000
0200
0000
0000
0000
1000
0000
0000
0000
1300
0000
0000
0000
2002
3003
0000
0000
,
0000
0000
0000
0000
0001
0000
0000
0000
0200
0000
0000
0000
0010
0000
0300
0000
0200
0000
0000
0000
0001
0000
0000
0000
0301
0000
0000
0000
2002
3003
0000
0000
,
0000
0000
0000
0000
1000
0000
0000
0000
0020
0000
0000
0000
0100
0000
0030
0000
0020
0000
0000
0000
1000
0000
0000
0000
1030
0000
0000
0000
2002
3003
0000
0000
,
0000
0001
0020
0130
0020
0031
0200
0301
,
1000
0010
1000
0001
1000
0100
1000
0001
0100
0001
1000
0001
0010
0001
1000
0010
,
1000
0001
0010
0001
0010
0100
1000
0100
0010
0100
1000
0001
0100
0001
1000
0010
,
0100
0010
1000
0010
0100
0010
1000
0010
1000
0001
0100
0010
1000
0001
1000
0001
,
0100
0010
1000
0001
1000
0001
0010
0100
1000
0001
0010
0100
1000
0000
0100
0000
,
1000
0000
0000
0000
0001
0000
0000
0000
0200
0000
0000
0000
0010
0000
0300
0000
0200
0000
0000
0000
0001
0000
0000
0000
0301
0000
0000
0000
2002
3003
0000
0000
,
0000
0000
0000
0000
1000
0000
0000
0000
0200
0000
0000
0000
0010
0000
0300
0000
0200
0000
0000
0000
1000
0000
0000
0000
1300
0000
0000
0000
2002
3003
0000
0000
,
0000
0000
0000
0000
1000
0000
0000
0000
0020
0000
0000
0000
0100
0000
0030
0000
0020
0000
0000
0000
1000
0000
0000
0000
1030
0000
0000
0000
2002
3003
0000
0000
,
0000
0001
0020
0130
0020
0031
0200
0301
,
1000
0100
1000
0010
1000
0001
0010
0001
0100
0001
1000
0100
1000
0010
1000
0001
,
0010
0001
0100
0001
1000
0001
0010
0001
0010
0100
1000
0100
0010
0100
1000
0001
,
0100
0001
1000
0010
0100
0010
1000
0001
0100
0010
1000
0010
1000
0001
0100
0010
,
1000
0001
1000
0001
0100
0010
1000
0001
0010
0001
1000
0001
0100
0010
0100
0010
,
2000
0000
0000
0000
,
0000
0000
0000
0000
,
0000
0000
0000
3000
;
