#TITLE:Duncan Hills Coffee;
#SUBTITLE:;
#ARTIST:Unknown artist;
#TITLETRANSLIT:;
#SUBTITLETRANSLIT:;
#ARTISTTRANSLIT:;
#CREDIT:;
#BANNER:Deththeme-banner.png;
#BACKGROUND:Deththeme-bg.png;
#LYRICSPATH:;
#CDTITLE:;
#MUSIC:Dethklok - Duncan Hills Coffee.mp3;
#OFFSET:0.000;
#SAMPLESTART:48.120;
#SAMPLELENGTH:12.000;
#SELECTABLE:YES;
#BPMS:0.000=125.001;
#STOPS:32.750=0.120
;
#BGCHANGES:;
// cache tags:
#FIRSTBEAT:0.750;
#LASTBEAT:144.750;
#SONGFILENAME:Songs/keyboard/Dethklok - Duncan Hills Coffee/Dethklok - Duncan Hills Coffee.sm;
#HASMUSIC:1;
#HASBANNER:1;
#MUSICLENGTH:70.948;
// end cache tags

//---------------dance-single - Blank----------------
#NOTES:
     dance-single:
     Blank:
     Hard:
     9:
     0.699,0.740,0.691,0.099,0.965,291.000,49.000,7.000,0.000,0.000:

0000
0000
0000
1010
0000
0000
0000
0000
0110
0000
0000
0000
0101
0000
0000
0000
,
0110
0000
0000
0000
0000
1100
0000
0000
0000
1010
0000
0000
0000
0110
0000
0000
,
0000
0101
0000
0110
0000
1100
0000
1010
,
0000
0110
0000
0101
0000
0110
0000
1100
,
0000
0000
1010
0000
0000
0000
0010
0000
1000
0100
1000
0010
0100
0000
0001
0200
,
0000
0000
0000
0300
0000
0000
0010
0000
1000
0000
0100
1000
0010
0000
0100
0010
,
0200
0000
0000
0000
0000
0300
0000
0000
0010
1000
0000
0100
1000
0000
0010
0100
,
0000
0002
0000
0000
0000
0003
0000
0010
0000
1000
0000
0100
1000
0010
0000
0100
,
0000
0010
0100
0000
0000
0000
0010
1000
0000
0100
1000
0010
0100
0001
0100
0000
,
0010
0100
0000
1000
0010
1000
0100
0000
1000
0010
0100
0000
0010
0100
0001
0000
,
0010
0100
0000
1000
0010
0000
1000
0100
0000
1000
0010
0000
0100
0010
0100
0000
,
0001
0100
0010
0000
0100
0000
1000
0010
0000
1000
0100
1000
0000
0010
0100
0001
,
0000
0100
0010
0000
0100
1000
0010
0000
0100
0001
0000
0100
0010
0000
0100
1000
,
0010
0000
0100
0010
0000
0100
0001
0000
0010
0100
1000
0000
0010
0100
0010
0000
,
0100
0001
0010
0000
0100
1000
0000
0010
0100
0010
0010
0000
0001
0010
0000
0100
,
1000
0010
0100
0001
0000
0100
0010
0000
0000
1010
0000
0000
0000
1010
0000
0000
,
0000
0010
0000
0000
0000
1010
0000
0000
0000
1010
0000
0000
0000
0000
0110
0000
,
0011
0000
0000
0000
0000
0110
0000
0000
0000
1100
0000
0000
0000
1100
0000
0000
,
0000
0110
0000
0000
0000
0000
0011
0000
0000
0000
1100
0000
0000
0000
0110
0000
,
0000
0011
0000
1001
0000
1100
0000
1010
,
0000
0000
0000
0110
0000
0000
0000
0011
0000
0000
0000
0000
0000
0000
0000
0000
,
0010
1000
0010
1000
0010
0000
1000
0000
0010
0100
0001
0000
0100
0010
0000
0100
,
0000
1000
0010
0100
0000
0001
0100
0000
0010
0000
0100
1000
0000
0010
0100
0000
,
0001
0100
0000
0010
0100
0000
1000
0010
0000
0100
0001
0000
0100
0010
0000
0100
,
1000
0010
0000
0100
0001
0000
0100
0010
0000
0001
0000
0010
0100
1000
0000
0000
,
0000
0000
1010
0000
0000
0100
1000
0010
0100
0000
0110
0001
0000
0100
0010
0100
,
0000
0000
0010
0000
1000
0100
1000
0010
0100
0001
0100
0010
0002
0000
0000
0000
,
0003
0000
0000
0010
1000
0000
0000
1010
0000
0000
0110
0000
0010
0100
0001
0000
,
0000
0010
0100
1000
0000
0110
0010
0000
0100
0001
0110
0100
0010
0100
0001
0100
,
0110
0000
0100
0000
0100
1000
0010
0000
0010
0010
0001
0010
0000
0100
1000
0010
,
0100
0001
0100
0010
0000
0100
1000
0010
0100
0001
0100
0010
0001
0000
0020
0000
,
0000
0000
0000
0030
0000
0100
1000
0000
0000
0010
0000
0100
0001
0100
0000
0010
,
0000
0000
0001
0000
0000
0010
0000
0100
0000
0000
0010
0000
0100
0000
1000
0000
,
0000
0000
0010
0001
0000
0000
0000
0010
1000
0000
0100
1000
0000
0010
0100
0001
,
0000
0100
0010
0100
0001
0000
0000
0000
1001
0000
0000
0000
1010
0000
0000
0000
,
0110
0000
0000
0000
0110
0000
0000
0000
0000
0101
0000
0000
0000
0101
0000
0000
,
0000
0202
0000
0303
0000
0000
0000
0000
0000
0000
0000
0000
0000
0000
0000
0000
;
