#TITLE:Impulso della Notte;
#SUBTITLE:;
#ARTIST:hackd;
#TITLETRANSLIT:;
#SUBTITLETRANSLIT:;
#ARTISTTRANSLIT:;
#CREDIT:Christal;
#BANNER:impulso bn.png;
#BACKGROUND:impulso bg.png;
#LYRICSPATH:;
#CDTITLE:;
#MUSIC:Impulso della Notte.ogg;
#OFFSET:0.020;
#SAMPLESTART:104.801;
#SAMPLELENGTH:12.000;
#SELECTABLE:YES;
#DISPLAYBPM:158.000;
#BPMS:0.000=158.000;
#STOPS:;
#BGCHANGES:;
// cache tags:
#FIRSTBEAT:0.000;
#LASTBEAT:360.500;
#SONGFILENAME:Songs/SPEEEDCOOOORE 3/Impulso della Notte - [Cave]/Impulso.sm;
#HASMUSIC:1;
#HASBANNER:1;
#MUSICLENGTH:138.524;
// end cache tags

//---------------dance-single - C. Cave----------------
#NOTES:
     dance-single:
     C. Cave:
     Challenge:
     16:
     1.000,1.000,0.108,0.188,1.000,1119.000,15.000,26.000,14.000,0.000:
1000
0010
1000
0010
0100
0001
0100
0001
,
0000
0000
0000
0000
,
1000
0100
1000
0100
0010
0001
0100
0000
,
0010
1000
0100
0010
,
0001
0100
0001
0100
0010
1000
0010
1000
,
0000
0000
0000
0000
,
0001
0010
0001
0010
0100
1000
0010
0000
,
0100
0000
0000
0000
,
0000
0000
0000
0000
,
0002
0000
0000
0000
0000
0000
0000
0000
0013
0100
1000
0000
0001
0000
0000
0000
,
0001
0000
0000
0000
0010
0100
1000
0000
0001
0000
0100
0000
0001
0000
0010
0000
,
0001
1000
0010
0100
0010
1000
0002
0000
,
2003
0000
0000
0000
3200
0000
0000
0000
0320
0000
0000
0000
0032
0000
0000
0003
,
2001
0000
0000
0000
0000
0000
0000
0000
3010
0100
0001
0000
1000
0000
0000
0000
,
1010
0000
0000
0000
0010
0100
0001
0000
1000
0000
0100
0000
1000
0000
0010
0000
,
0100
0101
0001
0010
0011
0001
2000
0000
,
3200
0000
0000
0000
0320
0000
0000
0000
0032
0000
0000
0000
0203
0000
0000
0300
,
0102
0000
0000
0000
0000
0000
0000
0000
0013
0100
1000
0000
1100
0000
0000
0000
,
0110
0000
0000
0000
0010
0100
1000
0000
0001
0000
0100
0000
0001
0000
0010
0000
,
0001
0101
0001
0010
0011
0001
2000
0000
,
3002
0000
0000
0000
0203
0000
0000
0000
0320
0000
0000
0000
2030
0000
0000
3000
,
1002
0000
0000
0000
0000
0000
0000
0000
1003
0010
0100
0000
0101
0000
0000
0000
,
1001
0000
0000
0000
1000
0010
0100
0000
0001
0000
1000
0000
0001
0000
0010
0000
,
0001
0101
0001
0010
0011
0001
2000
0000
,
3002
00M0
0000
00M0
0203
00M0
0000
00M0
0302
00M0
0000
00M0
2003
00M0
0000
00M0
,
3001
0100
0001
0100
0001
0100
0001
0100
,
0001
1000
0001
1000
0001
1000
0001
1000
0001
1000
0001
1000
0001
1000
0001
1000
,
0100
0000
0100
0000
,
0010
0000
0010
0000
,
0001
0010
0100
1000
0010
0100
0010
1000
0001
0100
0010
0100
0001
0010
0100
1000
,
0010
0100
0010
1000
0100
0010
0001
1000
0100
1000
0001
0100
0010
1000
0100
0010
,
0001
1000
0100
1000
0001
1000
0100
0010
0001
1000
0100
1000
0001
0100
0001
1000
0010
0100
0001
1000
0010
0100
0001
0100
,
0001
1000
0100
0010
0001
1000
0001
0010
0100
1000
0100
0010
0001
1000
0001
0100
0010
0100
0001
1000
0001
0100
0010
1000
,
0001
0100
0001
1000
0010
0100
0001
1000
0100
1000
0010
0100
0001
1000
0100
0010
,
0001
0100
0001
1000
0010
0100
0001
1000
0010
0100
0010
1000
0100
0010
0001
0100
,
0001
1000
0100
1000
0001
0010
0100
1000
0001
0010
0100
1000
0001
0100
0001
1000
0010
0100
0001
1000
0001
0100
0010
0100
,
0001
0000
0000
0000
0000
0000
0000
0000
0001
0000
0000
0000
1000
0001
0100
0001
1000
0010
0100
0001
0100
0010
0100
0001
,
1000
0100
0010
0001
0010
0001
1000
0010
0100
0001
0100
0010
0100
0001
1000
0100
,
0010
0001
0100
0010
1000
0001
1000
0010
0100
0001
0100
0010
0100
0001
1000
0010
,
1000
0001
0010
0001
1000
0001
0010
0100
1000
0001
0010
0001
1000
0010
1000
0001
0100
0010
1000
0001
0100
0010
0100
0010
,
1000
0001
0010
0100
1000
0100
1000
0001
0010
0001
1000
0100
1000
0001
0010
0001
1000
0010
0100
0001
1000
0010
0100
0010
,
1000
0001
0100
0001
0010
0100
1000
0001
0010
0001
1000
0010
0100
0001
1000
0010
,
1000
0001
0010
0100
1000
0001
0010
0001
1000
0010
0100
0001
1000
0100
0010
0001
,
1000
0010
1000
0001
0100
0001
1000
0010
0100
0001
1000
0001
1000
0100
0010
0001
1000
0001
0010
0100
1000
0001
0010
0001
,
1000
0000
0010
0000
0100
0000
0001
0000
1000
0000
0010
0000
1000
0000
0001
0000
0100
0000
0010
0000
0100
0000
0001
0000
1000
0000
0000
0010
0000
0000
0100
0000
0000
0001
0000
0000
1000
0000
0000
0100
0000
0000
1000
0000
0000
0001
0000
0000
,
0020
0000
0000
0000
,
0000
0000
0000
0000
,
0130
1000
0001
0100
0010
0100
0001
1000
0100
0010
0001
1000
0010
0100
0010
1000
0001
0010
0100
0010
0001
1000
0100
1000
,
0001
0001
0001
0001
,
1000
0100
0010
0001
1000
0001
0100
0001
1000
0001
0010
0100
1000
0001
0100
0001
1000
0010
0100
0001
1000
0100
1000
0001
,
1000
0000
0000
0010
0000
0000
0100
0000
0001
0000
0000
1000
0000
0000
0100
0000
,
1000
0010
0100
0001
1000
0100
1000
0001
0100
0010
1000
0001
0100
0001
1000
0001
0010
0100
1000
0001
0010
0001
1000
0100
,
1000
0000
0000
0001
0000
0000
0010
0000
0001
0000
0000
1000
0000
0000
0010
0000
,
0100
0001
1000
0100
1000
0001
0010
0100
1000
0001
1000
0010
0100
0001
1000
0010
1000
0001
0100
0001
1000
0100
0010
0001
,
1000
0000
0000
0100
0000
0000
0010
0000
0001
0000
0000
0100
0000
0000
0010
0000
,
1000
0100
0010
0001
0010
0100
1000
0001
0100
0001
1000
0010
0100
0001
0100
0010
1000
0001
1000
0001
0010
0100
1000
0001
,
1000
1000
1001
0001
,
1000
0010
0100
0001
0010
0100
1000
0010
1000
0001
0010
0100
1000
0100
1000
0001
,
0100
0010
0100
0001
1000
0100
0010
0001
1000
0100
1000
0001
1000
0010
0100
0001
,
0100
0010
0100
0001
1000
0100
1000
0010
0100
0001
0010
0100
1000
0100
0010
0001
,
1000
0100
1000
0001
0010
0100
1000
0010
0100
0010
1000
0001
0100
0001
1000
0100
,
0010
0001
1000
0100
1000
0010
0100
0001
1000
0010
0100
0001
0010
0001
0100
0010
,
1000
0001
1000
0100
0010
0001
0010
0100
1000
0001
0100
0010
0100
0001
1000
0100
,
1000
0010
0100
0001
0010
0100
1000
0100
1000
0001
1000
0010
0100
0001
0100
0010
,
1000
0100
0010
0001
0010
0001
1000
0100
1000
0001
0010
0100
1000
0010
0100
0010
,
1000
0001
1000
0100
0010
0001
1000
0100
1000
0001
0100
0010
0100
0001
1000
0100
,
0010
0001
1000
0100
1000
0010
0100
0001
0010
0100
1000
0100
0010
0001
1000
0100
,
1000
0010
0100
0001
0010
0100
1000
0001
0010
0001
1000
0010
0100
0001
0100
0010
,
1000
0100
0010
0001
0010
0001
1000
0010
0100
0001
1000
0100
1000
0010
0100
0001
,
0010
0001
1000
0010
0100
0001
1000
0100
1000
0001
0010
0001
1000
0100
0010
0001
,
0100
0010
0100
0001
1000
0100
1000
0001
0100
0001
0010
0100
1000
0010
0100
0001
,
0010
0001
0010
0100
1000
0010
1000
0001
0010
0001
0100
0010
1000
0001
1000
0100
,
0010
0001
0100
0010
1M00
0001
0M10
0001
1M00
0010
1M00
0001
1M00
0001
0M10
0001
,
0100
0010
1000
0001
0010
0100
1000
0100
1000
0001
0010
0001
1000
0010
0100
0001
0100
0010
1000
0001
1000
0001
0010
0100
,
1000
1000
0010
0010
,
1000
0100
0010
0001
1000
0100
1000
0001
0010
0001
1000
0001
1000
0010
0100
0001
1000
0010
0100
0001
1000
0001
0010
0100
,
1000
0001
1000
0001
,
1000
0100
0010
0001
1000
0100
1000
0001
1000
0100
0010
0001
1000
0010
1000
0001
0100
0001
1000
0100
1000
0001
0010
0100
,
1000
1000
0100
0100
,
1000
0001
1000
0100
0010
0001
0010
0001
1000
0100
1000
0001
0100
0010
0100
0001
1000
0001
0100
0010
1000
0100
0010
0001
,
1000
0000
0001
0000
,
0001
0010
0100
1000
0010
0100
0010
1000
0001
0100
0010
0100
0001
0010
0100
1000
,
0010
0100
0010
1000
0100
0010
0001
1000
0100
1000
0001
0100
0010
1000
0100
0010
,
0001
1000
0100
1000
0001
1000
0100
0010
0001
1000
0100
1000
0001
0100
0001
1000
0010
0100
0001
1000
0010
0100
0001
1000
,
0001
0010
0100
1000
0001
0010
0100
1000
0001
1000
0100
0010
0001
1000
0010
1000
0001
0100
0010
1000
0001
0100
0010
1000
,
0001
0100
0001
1000
0010
0100
0001
1000
0100
1000
0010
0100
0001
1000
0100
0010
,
0001
0100
0001
1000
0010
0100
0001
1000
0010
0100
0010
1000
0100
0010
0001
0100
,
0001
1000
0100
1000
0001
0010
0001
1000
0010
0100
0001
1000
0001
1000
0100
0010
0001
1000
0100
1000
0001
0100
0010
0100
,
0001
0001
0001
0001
,
2000
0000
0000
0000
,
0000
3000
0000
0000
0000
0000
0000
0000
;
