#TITLE:Last Battle ~Decision~;
#SUBTITLE:Tales of Symphonia;
#ARTIST:Ichiko Furukawa;
#TITLETRANSLIT:;
#SUBTITLETRANSLIT:;
#ARTISTTRANSLIT:;
#CREDIT:;
#BANNER:Last Battle ~Decision~.png;
#BACKGROUND:Last Battle ~Decision~-bg.png;
#LYRICSPATH:;
#CDTITLE:cdtitle.png;
#MUSIC:Last Battle ~Decision~.mp3;
#OFFSET:-0.500;
#SAMPLESTART:0.476;
#SAMPLELENGTH:14.900;
#SELECTABLE:YES;
#BPMS:0.000=130.000;
#STOPS:;
#BGCHANGES:;
// cache tags:
#FIRSTBEAT:0.000;
#LASTBEAT:216.000;
#SONGFILENAME:Songs/VGMP 2/Last Battle ~Decision~ (Linus)/Last battle ~Decision~.sm;
#HASMUSIC:1;
#HASBANNER:1;
#MUSICLENGTH:105.247;
// end cache tags

//---------------dance-single - ----------------
#NOTES:
     dance-single:
     :
     Hard:
     11:
     1.000,1.000,1.000,1.000,1.000,660.000,142.000,119.000,0.000,57.000:
2001
0000
0000
0000
0000
0000
3000
0000
2001
0000
0000
3210
0000
0000
1320
0000
,
1032
0000
0000
0000
0000
0000
0000
0000
0000
0000
0000
0000
0100
0000
0000
0000
0000
0000
0000
0000
0000
0000
0000
0000
0113
0000
0000
0000
0010
0000
0000
0000
0010
1000
0000
0000
0100
0000
0000
0000
0100
0000
0010
0000
0100
0000
0000
0000
,
1002
0000
0000
0000
0000
0000
2003
0000
0001
0000
0000
0010
3002
0000
0100
0000
,
1203
0000
0000
1000
0001
0000
0000
0000
0311
0001
0001
0001
0100
0100
0100
0100
,
1020
0000
0000
0000
1000
0000
0000
0000
1032
0000
0000
0023
0001
0000
0230
0000
,
2310
0000
0000
3200
0001
0000
0320
0000
0131
0001
0001
0001
1100
0100
0100
0100
,
1010
0000
0000
0100
0000
0000
0010
0000
1100
0000
0000
1010
0100
0100
0101
0100
,
1010
0100
0010
1000
0100
0010
1000
0100
0011
1000
0100
0010
0101
0001
0001
0001
,
1020
0000
1000
0000
0001
0100
0000
0000
2031
0000
0001
3200
1000
0001
0320
0000
,
1032
0000
1000
0000
0010
0100
0000
0000
1023
0000
1000
0230
0001
0010
2300
0000
,
3120
0000
0100
0000
0001
1000
0230
0000
1000
0000
1000
0000
0321
0100
0000
0000
,
1032
0000
1000
0000
0010
0100
0000
0000
2103
0000
0100
0000
0010
0010
0010
0010
,
3102
0000
0100
0000
0010
1000
0000
1000
1023
0000
1000
0230
0001
0010
2300
0010
,
3210
0000
1000
0320
0001
1000
0032
0010
0213
0000
0010
0000
2301
0100
0000
0100
,
3120
0000
0100
0000
0001
0100
0000
0100
1130
0000
0100
1000
0001
0100
0010
0100
,
1001
0100
0010
1000
0100
0010
1000
0100
0010
1000
0100
0010
0011
0101
1001
0101
,
1000
0100
0010
0001
1000
0010
0100
0001
1000
0010
0100
0001
0110
0001
0100
0010
,
1000
0000
0000
0010
0000
0000
0100
0000
0000
0001
0000
0000
1000
0000
0000
0100
0000
0000
0010
0000
0000
0001
0000
0000
1000
0000
0000
0010
0000
0000
1000
0000
0100
0000
0001
0000
0110
0000
0001
0000
0010
0000
0101
0000
0000
0010
0000
0000
,
1000
0010
0100
0001
1000
0100
0010
0001
0100
0001
0010
1000
0101
0010
0100
1000
,
1000
0100
1000
0010
0100
0010
0100
0001
0010
0100
0001
0010
1001
0100
0011
1001
,
2010
0000
0010
3200
0001
1000
0320
1000
1230
0000
1000
0320
0001
1000
0032
1000
,
2013
0000
0010
3200
0001
1000
0320
1000
1230
0000
1000
0320
0001
1000
0032
1000
,
1103
0010
1000
0001
0100
0010
1100
0001
1000
0100
0010
0001
1100
0010
0100
0001
,
1001
0010
0100
1000
0010
0100
1000
0100
1001
0010
0100
1000
0011
0101
0011
1001
,
1010
0100
1020
0000
0001
1000
0000
1000
1000
0000
1030
0000
0011
1001
0010
0101
,
2001
0000
0001
3200
1000
0001
0320
1000
1032
0000
1000
0023
0001
1000
0032
1000
,
1203
0000
1000
0000
0001
1000
0000
1000
1302
0000
1000
0000
0010
1000
0000
1000
,
1023
0000
1000
0000
0001
1000
0000
0100
2130
0000
0100
0000
0001
0001
0001
0001
,
3010
0100
1020
0000
0001
1000
0000
1000
1000
0000
1030
0000
0011
1001
0010
0101
,
2001
0000
0001
3200
1000
0001
0320
1000
1032
0000
1000
0023
0001
1000
0032
1000
,
1203
0000
1000
0000
0001
1000
0000
1000
1302
0000
1000
0000
0010
1000
0000
1000
,
1023
0000
1000
0000
0001
1000
0000
0100
2130
0000
0100
0000
0001
0001
0001
0001
,
3110
0000
0100
0000
0001
0100
0000
0100
1100
0000
0010
0100
0001
0100
0010
0100
,
0101
0000
0100
0000
0001
0100
0000
0100
0110
0000
0010
0100
0001
0100
1000
0100
,
0110
0000
0100
0000
0001
0100
1000
0100
0100
0000
0100
0000
0011
0100
0000
0100
,
0101
0000
0100
0000
0001
0100
0000
0100
0110
0000
0100
0000
0001
0001
0001
0001
,
1020
0130
0010
0001
1000
0100
0010
0001
0102
0013
0100
1020
0031
0010
0201
1300
,
2100
3010
1000
0201
1300
0100
1002
0013
0201
0310
0100
1000
2001
3010
0100
1000
,
0210
0000
0000
0301
0000
0000
1000
0000
0000
0100
0000
0000
1000
0000
0000
0100
0000
0000
0010
0000
0000
0001
0000
0000
0110
0000
0000
1000
0010
0000
0001
0000
0010
0100
0000
0000
1001
0000
0000
0010
1000
0000
0001
0000
1000
0100
0000
0000
,
1001
0001
0010
0010
0100
0100
0010
0010
0101
0100
1000
1000
0011
0101
0011
1001
,
1020
0000
1000
0000
0001
1000
0230
1000
1000
0000
1000
0000
2301
0100
0000
0100
,
3102
0000
0100
0000
1000
0100
2003
0100
0100
0000
0100
0000
0001
0100
0000
0100
,
3102
0000
0100
0000
1000
0100
0023
0130
0101
0000
0100
0000
0010
0010
0010
0010
,
1002
0000
1000
0000
0100
1000
1023
0000
1000
0000
1000
0000
0231
1000
1000
0000
,
0312
0000
0010
0000
0100
0010
2013
0000
0010
0000
0010
0000
0100
0010
0010
0000
,
3012
0000
0010
0000
1000
0010
0203
0310
1010
0000
0010
0000
0100
0100
0100
0100
,
1010
0100
1020
0000
0001
1000
0000
1000
1000
0000
1030
0000
0011
1001
0010
0101
,
2001
0000
0001
3200
1000
0001
0320
1000
1032
0000
1000
0023
0001
1000
0032
1000
,
1203
0000
1000
0000
0001
1000
0000
1000
1302
0000
1000
0000
0010
1000
0000
1000
,
1023
0000
1000
0000
0001
1000
0000
0100
2130
0000
0100
0000
0001
0001
0001
0001
,
3010
0100
1020
0000
0001
1000
0000
1000
1000
0000
1030
0000
0011
1001
0010
0101
,
2001
0000
0001
3200
1000
0001
0320
1000
1032
0000
1000
0023
0001
1000
0032
1000
,
1203
0000
1000
0000
0001
1000
0000
1000
1302
0000
1000
0000
0010
1000
0000
1000
,
1023
0000
1000
0000
0001
1000
0000
0100
2130
0000
0100
0000
0001
0001
0001
0001
,
3110
0000
0000
0000
;

//---------------dance-single - ----------------
#NOTES:
     dance-single:
     :
     Edit:
     12:
     1.000,1.000,1.000,1.000,1.000,668.000,191.000,148.000,0.000,106.000:
2001
0000
0000
0000
0000
0000
3000
0000
2001
0000
0000
3210
0000
0000
1320
0000
,
1032
0000
0000
0000
0000
0000
0000
0000
0000
0000
0000
0000
0100
0000
0000
0000
0000
0000
0000
0000
0000
0000
0000
0000
0113
0000
0000
0000
0010
0000
0000
0000
0010
1000
0000
0000
0100
0000
0000
0000
0100
0000
0010
0000
0100
0000
0000
0000
,
1002
0000
0000
0000
0000
0000
2003
0000
0001
0000
0000
0010
3002
0000
0100
0000
,
1203
0000
0000
1000
0001
0000
0000
0000
0311
0001
0001
0001
0100
0100
0100
0100
,
1020
0000
0000
0000
1000
0000
0000
0000
1032
0000
0000
0023
0001
0000
0230
0000
,
2310
0000
0000
3200
0001
0000
0320
0000
0131
0001
0001
0001
1100
0100
0100
0100
,
1010
0000
0000
0100
0000
0000
0010
0000
1100
0000
0000
1010
0100
0100
0101
0100
,
1010
0100
0010
1000
0100
0010
1000
0100
0011
1000
0100
0010
0101
0001
0001
0001
,
1120
0000
1000
0000
0001
0100
0000
0001
2031
0000
0001
3200
1000
0001
0320
1000
,
1032
0000
1000
0000
0010
0100
0000
1000
1023
0000
1000
0230
0001
0010
2300
0100
,
3120
0000
0100
0000
0001
1000
0230
1000
1000
0000
1000
0000
0321
0100
0000
1000
,
1032
0000
1000
0000
0010
0100
0000
0100
2103
0000
0100
0000
0010
0010
0010
0010
,
3112
0000
0100
0000
0010
1000
0000
1000
1023
0000
1000
0230
0001
0010
2300
0010
,
3210
0000
1000
0320
0001
1000
0032
0010
0213
0000
0010
0000
2301
0100
0000
0100
,
3121
0000
0100
0000
0001
0100
0000
0100
1131
0000
0100
1000
0001
0100
0010
0100
,
1001
0100
0010
1000
0100
0010
1000
0100
0010
1000
0100
0010
0011
0101
1001
0101
,
1020
0130
0010
0001
1000
0010
2100
3001
1000
0010
0100
0001
0110
0001
0100
0010
,
1200
0000
0000
0310
0000
0000
0100
0000
0000
0021
0000
0000
1030
0000
0000
0100
0000
0000
2010
0000
0000
3001
0000
0000
1002
0000
0000
0013
0000
0000
1000
0000
0100
0000
0001
0000
0110
0000
0001
0000
0010
0000
0101
0000
0000
0010
0000
0000
,
1200
0310
0100
0001
1000
0100
2010
3001
0100
0001
0010
1000
2101
3010
0120
1030
,
1002
0103
1000
0010
0100
0010
2100
3001
0010
0100
0001
0010
1021
0130
0011
1001
,
2010
0000
0010
3200
0001
1000
0320
1000
1230
0000
1000
0320
0001
1000
0032
1000
,
2013
0000
0010
3200
0001
1000
0320
1000
1230
0000
1000
0320
0001
1000
0032
1000
,
1113
0010
1000
0001
0100
0010
1100
0001
1000
0100
0010
0001
1100
0010
0100
0001
,
1001
0010
0100
1000
0010
0100
1000
0100
1001
0010
0100
1000
0011
0101
0011
1001
,
1010
0100
1020
0000
0001
1000
0000
1000
1000
0000
1030
0000
0011
1001
0010
0101
,
2001
0000
0001
3200
1000
0001
0320
1000
1032
0000
1000
0023
0001
1000
0032
1000
,
1213
0000
1000
0000
0001
1000
0000
1000
1302
0000
1000
0000
0010
1000
0000
1000
,
1123
0000
1000
0000
0001
1000
0000
0100
2131
0000
0100
0000
0001
0001
0001
0001
,
3011
0100
1020
0000
0001
1000
0000
1000
1000
0000
1030
0000
0011
1001
0010
0101
,
2001
0000
0001
3200
1000
0001
0320
1000
1032
0000
1000
0023
0001
1000
0032
1000
,
1213
0000
1000
0000
0001
1000
0000
1000
1302
0000
1000
0000
0010
1000
0000
1000
,
1123
0000
1000
0000
0001
1000
0000
0100
2131
0000
0100
0000
0001
0001
0001
0001
,
3121
0000
0100
0000
0001
0100
0000
0100
2130
0000
0010
3200
0301
0100
0020
0100
,
0132
0000
0103
0000
0001
0100
0000
0100
0120
0030
0010
0200
0301
0100
2000
0100
,
3120
0000
0100
0000
0001
0100
2030
0100
0100
0000
0100
0000
3021
0100
0000
0100
,
0132
0000
0103
0000
0001
0100
0000
0100
0120
0000
0100
0000
0031
0001
0001
0001
,
1021
0130
0010
0001
1000
0100
0010
0001
0102
0013
0100
1020
0031
0010
0201
1300
,
2100
3010
1000
0201
1300
0100
1002
0013
0201
0310
0100
1000
2001
3010
0100
1000
,
0210
0000
0000
0301
0000
0000
1000
0000
0000
0110
0000
0000
1000
0000
0000
0100
0000
0000
1010
0000
0000
0001
0000
0000
0110
0000
0000
1000
0010
0000
0001
0000
0010
0100
0000
0000
1001
0000
0000
0010
1000
0000
0001
0000
1000
0100
0000
0000
,
2001
0001
0010
0010
0100
0100
0010
0010
3102
0100
1003
1000
0211
1001
0011
1001
,
1321
0000
1100
0000
0101
1000
0231
1000
1001
0000
1010
0000
2311
0100
0010
0100
,
3112
0000
0110
0000
1010
0100
2013
0100
0110
0000
0110
0000
0011
0100
0010
0100
,
3112
0000
0110
0000
1010
0100
1023
0130
1101
0000
1100
0000
1010
0010
1010
0010
,
1102
0000
1100
0000
0110
1000
1123
0000
1001
0000
1001
0000
1231
1000
1010
0000
,
1312
0000
1010
0000
1100
0010
2113
0000
0011
0000
0011
0000
0101
0010
0110
0000
,
3112
0000
0110
0000
0110
1000
1203
0300
1011
0000
0011
0000
0101
0100
0101
0100
,
1011
0100
1020
0000
0001
1000
0000
1000
1000
0000
1030
0000
0011
1001
0010
0101
,
2001
0000
0001
3200
1000
0001
0320
1000
1032
0000
1000
0023
0001
1000
0032
1000
,
1213
0000
1000
0000
0001
1000
0000
1000
1302
0000
1000
0000
0010
1000
0000
1000
,
1123
0000
1000
0000
0001
1000
0000
0100
2131
0000
0100
0000
0001
0001
0001
0001
,
3011
0100
1020
0000
0001
1000
0000
1000
1000
0000
1030
0000
0011
1001
0010
0101
,
2001
0000
0001
3200
1000
0001
0320
1000
1032
0000
1000
0023
0001
1000
0032
1000
,
1213
0000
1000
0000
0001
1000
0000
1000
1302
0000
1000
0000
0010
1000
0000
1000
,
1123
0000
1000
0000
0001
1000
0000
0100
2131
0000
0100
0000
0001
0001
0001
0001
,
3111
0000
0000
0000
;
