#TITLE:5-25-001 Orchestra;
#SUBTITLE:;
#ARTIST:The Flashbulb;
#TITLETRANSLIT:;
#SUBTITLETRANSLIT:;
#ARTISTTRANSLIT:;
#CREDIT:;
#BANNER:banner.jpg;
#BACKGROUND:bg.jpg;
#LYRICSPATH:;
#CDTITLE:!EJTitle.bmp;
#MUSIC:5-25-001 Orchestra.mp3;
#OFFSET:-0.160;
#SAMPLESTART:51.580;
#SAMPLELENGTH:12.000;
#SELECTABLE:YES;
#DISPLAYBPM:120.000;
#BPMS:0.000=45.000,0.125=70.000,0.250=80.000,0.375=90.000,0.500=100.000,0.625=110.000,0.750=120.000,0.875=130.000,1.000=140.000,1.125=150.000,1.250=160.000,1.375=140.000,1.500=135.000,1.625=130.000,1.750=125.000,1.875=110.000,2.000=100.000,2.125=90.000,2.250=100.000,2.375=150.000,2.500=200.000,2.750=250.000,3.000=300.000,3.500=500.000,4.000=30.000,4.125=45.000,4.250=50.000,4.375=65.000,4.500=75.000,4.750=90.000,5.000=120.000,5.250=135.000,5.500=150.000,5.750=175.000,6.000=200.000,6.250=250.000,6.500=300.000,6.750=350.000,7.000=400.000,7.250=500.000,8.000=120.300,219.250=150.000,219.500=200.000,219.750=250.000,220.000=90.000,220.125=85.000,220.250=80.000,220.375=75.000,220.500=80.000,220.625=90.000,220.750=100.000,220.875=90.000,221.000=80.000,221.125=70.000,221.250=80.000,221.375=100.000,221.500=120.000,221.750=140.000,222.000=160.000,222.250=180.000,222.500=200.000,222.750=180.000,223.000=160.000,223.125=140.000,223.250=120.000,223.375=100.000,223.500=80.000,223.563=70.000,223.625=60.000,223.688=50.000,223.750=40.000,223.813=30.000,223.875=20.000,223.938=10.000,224.000=5.000;
#STOPS:;
#BGCHANGES:;
// cache tags:
#FIRSTBEAT:1.250;
#LASTBEAT:224.000;
#SONGFILENAME:Songs/new cedric/5-25-001 Orchestra/5-25-001 Orchestra.sm;
#HASMUSIC:1;
#HASBANNER:1;
#MUSICLENGTH:115.910;
// end cache tags

//---------------dance-single - ----------------
#NOTES:
     dance-single:
     :
     Challenge:
     11:
     0.884,1.000,1.000,0.086,0.500,484.000,221.000,10.000,0.000,7.000:
0000
0000
0000
0000
0000
2000
0000
0000
0000
0000
0000
0000
0000
0000
0000
0000
,
3200
0000
0000
0000
,
0311
1000
1000
0011
1000
1000
0011
0100
,
1010
0100
0100
1010
0001
0001
1001
0100
,
1001
0100
0100
1001
0010
0010
0011
0100
,
1100
0101
0010
0101
1100
1000
1001
0001
,
0110
1000
1000
0110
0001
0001
1010
0100
,
0101
1000
1000
0101
0010
0010
0011
1000
,
1010
0100
0100
0011
0010
0010
1010
0100
,
1001
1000
1100
0100
0101
0001
0011
0010
,
1110
0100
1010
0101
0010
0100
0011
0100
,
1010
1010
0011
0011
0100
0010
1000
1100
,
0101
0010
0101
1100
0010
0100
1010
0001
,
0110
0110
1001
1001
0010
0100
0001
0110
,
1011
0100
1001
0110
0001
0010
1100
0010
,
0101
0101
1010
1010
0100
1000
0110
0011
,
1100
0001
1100
0011
1000
0100
1010
0100
,
0101
0101
1100
1100
0010
0100
0002
0023
,
1130
1000
0010
1000
0110
0000
0010
1000
0001
0010
0000
1000
0101
0000
0100
0000
,
0011
1000
0010
0000
0110
0000
1000
0100
0010
0100
0000
0100
0011
1000
1000
0110
,
1001
0000
0000
0100
1010
0000
0110
0001
0000
0001
1100
1100
0000
0000
0110
0101
,
1010
0000
0000
0000
0110
0000
0000
0000
1001
0000
0000
0000
1100
0000
0000
0000
0101
0000
0000
0000
0110
0000
0000
0000
1001
0000
0000
0000
0000
0000
0000
0000
0000
1000
0000
0000
0110
0000
0000
0001
0000
0000
0000
0000
0000
0000
0000
0000
,
1100
0010
0010
1001
0100
0100
0011
0000
1001
0000
0000
1000
0110
0000
0100
0000
,
1010
0000
0000
0001
0110
0000
0001
0000
0110
0000
1000
0000
1100
0010
0101
0000
,
1001
0000
0000
0010
1100
0000
0100
1000
0101
0010
0110
1001
0110
0001
1000
0110
,
1100
0000
0000
0000
0000
0000
0000
0000
0000
0000
0000
0000
0000
0000
0000
0000
0000
0000
0000
0000
0000
0000
0000
0000
0000
0000
0000
0000
0000
0000
0000
0000
0000
0000
0000
0000
0001
0000
0000
0000
0000
0000
0000
0000
0000
0000
0000
0000
0020
0000
0000
0000
0000
0000
0000
0000
0000
0000
0000
0000
0230
0000
0000
0000
0000
0000
0000
0000
0000
0000
0000
0000
2300
0000
0000
0000
0000
0000
0000
0000
0000
0000
0000
0000
3000
0000
0000
0000
0000
0000
0000
0000
0000
0000
0000
0000
0000
0000
0000
0000
0000
0000
0000
0000
0000
0000
0000
0000
0101
0000
0000
0000
0000
0000
0000
0000
0000
0000
0000
0000
0010
0000
0000
0000
0000
0000
0000
0000
0000
0000
0000
0000
0010
0000
0000
0000
0000
0000
0000
0000
0000
0000
0000
0000
1000
0000
0000
0000
0000
0000
0100
0000
0000
0000
0000
0000
0010
0000
0000
0000
0000
0000
0001
0000
0000
0000
0000
0000
1000
0000
0000
0000
0000
0000
0000
0000
0100
0000
0000
0000
0000
0000
0000
0000
0010
0000
0000
0000
0000
0000
0000
0000
,
1001
0000
0000
0010
1100
0000
0101
0010
1000
0010
0100
0010
0101
0000
0001
0100
,
1010
0000
1010
0100
0011
0000
0011
0100
0000
0000
0010
0000
0110
0000
1001
0010
,
0110
0000
0000
1000
0110
0000
1001
0000
1000
0000
0100
0000
0101
0010
0001
0000
,
0011
0000
0011
0001
1100
0000
1100
0010
0100
0001
1000
0100
0011
0100
1100
0000
,
0101
0000
0000
1000
0101
0000
1100
0010
1000
0100
0010
0010
0101
0101
0010
0100
,
1010
0000
1010
0100
0101
0000
0101
0010
0100
0010
0001
1000
0110
0000
0011
0100
,
1001
0000
0000
0010
1100
0000
1001
0000
0001
0000
0100
0000
0110
0010
0000
0000
,
1001
0000
1001
0001
0110
0000
0110
0001
0010
0100
0000
0000
0100
0000
0110
0000
,
1001
0000
0000
0010
1100
0000
0011
0100
0010
0100
0001
0001
1010
0000
0100
0001
,
0110
0000
1100
0010
0101
0000
1010
0001
1000
0010
0100
0100
0011
0000
1001
0010
,
1100
0000
0000
1000
0101
0000
0011
0000
0010
0000
1000
0000
1100
0100
0000
0000
,
1010
0000
0110
1000
0011
0000
0101
0010
1000
0001
0100
0100
1001
1000
0110
0001
,
1100
0000
0000
0010
0101
0000
1100
0010
1000
0010
0001
0001
1100
0000
0100
1000
,
0011
0000
1010
0001
0110
0000
0011
0100
0010
1000
0001
0100
1010
0000
1010
0100
,
1001
0000
0000
0001
1010
0000
0110
0000
0010
0000
0010
0000
0000
0000
0010
0000
,
1100
0000
0101
0010
1010
0000
0110
0001
1000
0100
0010
0010
0000
0000
0101
0101
,
1010
0000
0101
0000
1100
0000
0011
0000
1010
0000
0110
0000
1001
0000
0000
0000
0000
0000
0000
0000
0000
0100
0000
0000
,
1001
1100
0110
0011
0000
0000
0000
0110
,
1010
0000
1010
0101
0000
0000
0000
0100
,
1001
1001
0101
0011
0000
0000
0100
0110
,
1001
0000
1010
0100
1000
0000
1000
0100
,
0101
0100
0011
0010
0001
0000
0001
0100
,
1010
0000
1010
0100
0010
0000
0010
0001
,
1100
0010
1001
0010
1000
0000
1000
0100
,
0101
0000
0110
1000
0100
0000
0100
0001
,
0110
0010
1010
0001
0010
0000
0010
0100
,
1001
0000
0101
0010
0001
0000
0001
0100
,
1100
0001
0110
1000
0100
0000
0100
0010
,
1002
1000
1000
2000
,
0000
0000
0000
0000
0000
0000
0000
0000
0000
0000
0000
0000
0000
0000
0000
0000
0000
0000
0000
0000
0100
0000
0000
0000
0000
0000
0000
0000
0000
0000
0000
0000
0000
0000
0000
0000
0000
0000
0000
0000
0000
0000
0000
0000
0000
0000
0120
0000
0000
0000
0000
0000
0000
0000
0000
0000
0000
0000
0000
0100
0000
0000
0000
0000
,
3033
0000
0000
0000
;
