#TITLE:Shades of Grey;
#SUBTITLE:;
#ARTIST:Fracus;
#TITLETRANSLIT:;
#SUBTITLETRANSLIT:;
#ARTISTTRANSLIT:;
#CREDIT:Braeden47;
#BANNER:../Banner.png;
#BACKGROUND:../BG.png;
#LYRICSPATH:;
#CDTITLE:../CDTitleBRAEDEN.png;
#MUSIC:Shades of Grey.ogg;
#OFFSET:-0.054;
#SAMPLESTART:11.304;
#SAMPLELENGTH:15.000;
#SELECTABLE:YES;
#BPMS:0.000=169.990;
#STOPS:;
#BGCHANGES:;
// cache tags:
#FIRSTBEAT:0.000;
#LASTBEAT:258.000;
#SONGFILENAME:Songs/Index Tesseract/Shades of Grey  - [Braeden]/Shades of Grey.sm;
#HASMUSIC:1;
#HASBANNER:1;
#MUSICLENGTH:93.019;
// end cache tags

//---------------dance-single - ----------------
#NOTES:
     dance-single:
     :
     Hard:
     10:
     0.826,1.000,0.269,0.344,0.210,481.000,25.000,32.000,0.000,0.000:
0000
0000
0000
0000
,
1000
0000
0010
0000
0100
0000
0001
0000
0100
0000
0010
0000
0002
0003
0200
0300
,
2000
3000
0100
0000
0001
0000
0010
0000
0100
0000
1000
0000
0100
0000
0010
0000
,
0001
0000
0010
0000
0100
0000
1000
0000
0001
0100
0001
0000
0010
0000
0100
0000
,
1000
0010
0100
0001
0010
0100
1000
0100
,
0010
0001
0100
0010
1000
0001
0010
0010
,
0100
1000
0010
0100
0001
1000
0010
1000
,
2010
0000
0000
0000
0000
0000
0000
0000
3001
0000
0000
0000
0001
0010
0100
0000
,
1000
0100
0010
0100
0001
0100
0010
0100
,
1000
0010
0100
0010
0001
0010
1000
0010
,
1000
0001
0100
0001
0010
0001
1000
0001
,
0010
0001
1000
0100
0001
0100
0001
0100
,
0010
0100
1000
0100
0010
0100
0001
0100
,
1000
0010
0100
0001
0100
0010
1000
0100
,
0010
0001
0100
0010
1000
0010
1000
0001
,
0010
0100
1000
0000
0110
0000
0000
0011
0000
0001
0010
0000
0100
1000
0001
1000
,
0010
0100
0001
0100
0010
1000
0100
0010
,
0001
0010
0100
1000
0001
1000
0100
0010
,
0001
0010
0100
1000
0010
0100
0001
0100
,
0010
1000
0100
1000
0000
0001
0010
0100
,
1000
0010
0100
0001
0000
0001
1000
0100
,
0010
0001
0010
0001
0100
0001
1000
0010
,
0100
0001
0001
1000
0100
0010
0001
0100
,
0010
1000
0010
0100
0000
0001
0100
0001
,
1010
0000
0100
0002
0000
0000
0013
0200
,
0000
0000
1300
0020
0000
0230
0000
0000
,
0302
0000
0013
0200
0000
1300
0010
0100
,
0001
0100
0010
1000
0000
0001
0100
0010
,
1000
0100
0010
0001
0100
0010
1000
0100
,
0010
0001
1000
0001
0010
0001
1000
0010
,
1000
0010
0100
0001
1000
0010
0100
0001
1000
0010
0100
0001
1000
0010
0100
0001
,
1000
0010
1000
0001
1000
0010
1000
0001
1000
0010
1000
0001
1000
0010
0100
0001
,
0011
0000
0110
0000
2200
3300
2020
3030
,
0220
0330
0101
0000
2002
3003
0011
0000
,
0220
0330
1100
0000
1010
0000
0101
0200
,
0302
0023
0000
0230
0000
2300
0000
3010
,
0110
0101
0011
0110
,
0010
0200
0000
2300
0000
0000
3100
2000
,
0000
0000
3010
0200
0000
0000
0000
0000
,
0301
0000
0100
0010
0000
1000
0100
0000
,
0010
0001
1000
0010
1000
0100
1000
0001
,
0100
0001
1000
0010
1000
0010
0100
0001
,
0100
0010
1000
0100
0010
0001
0010
0100
,
1000
0010
0100
0001
0100
0010
1000
0100
,
1100
0010
0001
0100
0010
1000
0100
0010
,
0011
0001
0100
0010
1000
0100
0010
0001
,
1000
0010
0100
0001
1000
0010
0100
0001
1000
0001
0100
0010
1000
0010
1000
0001
,
0200
0000
0310
0010
,
0100
0001
1000
0001
0100
0001
0010
0001
,
0010
0100
1000
0100
0010
0001
0100
0010
,
1000
0010
0100
0001
0010
0100
1000
0010
,
0100
0010
0001
0010
0100
0010
1000
0100
,
0010
0001
0100
0001
1000
0001
0100
0001
,
0010
0100
1000
0010
1000
0010
0100
0010
,
0100
0010
0001
0010
0100
0010
0100
0010
,
1000
0010
1000
0100
1000
0100
0000
0000
,
0010
0001
0010
0010
0100
0010
0010
0001
,
0010
0100
0100
1000
0010
0100
0100
0001
,
1000
0010
0010
1000
0010
0100
0001
0100
,
0010
1000
0010
0100
0001
0100
0001
0100
,
0010
1000
0001
0100
0001
0010
0100
1000
,
0010
0100
0001
0010
0100
1000
0010
1000
,
0010
0100
0001
0100
0010
1000
0100
0010
0001
0010
0100
1000
0010
0100
0001
1000
,
0011
0000
1100
0000
,
2002
0000
3003
0000
;

//---------------dance-single - ----------------
#NOTES:
     dance-single:
     :
     Easy:
     7:
     0.640,0.693,0.226,0.774,0.005,324.000,21.000,72.000,0.000,0.000:
0000
0000
0000
0000
,
1000
0000
0100
0000
0010
0000
0001
0010
,
0100
1000
0010
0100
,
0001
0000
0100
0000
0001
0100
0001
0100
,
0010
0100
0010
1000
,
0010
0000
1000
0000
0001
0000
0010
0010
,
0100
1000
0010
1000
,
2010
0000
0000
0000
3001
0000
0001
1000
,
0000
2010
0000
3010
0000
0120
0000
0130
,
0000
0201
0000
0301
0000
0102
0000
0103
,
0000
0120
0000
0130
0000
1020
0000
1030
,
0000
2000
0000
3100
0000
0020
0000
0031
,
0000
0200
0000
0310
0000
2000
0000
3001
,
0000
0010
0000
0001
0000
0010
0000
0100
,
0000
1000
0000
0001
0000
1000
0000
0001
,
0010
0000
0001
0000
0100
0000
0000
0001
0000
0000
0100
0000
0001
0000
0001
0000
,
0020
0000
0100
0230
0000
0000
1300
0020
,
0000
0000
0130
0002
0000
0023
0000
0000
,
0230
0000
1300
0020
0000
0031
0100
0010
,
1000
0010
0100
0001
0000
0001
0010
0100
,
1000
0010
0100
0002
0000
0000
1003
0200
,
0000
0000
0310
0002
0000
0203
0000
0000
,
0320
0000
1030
0200
0000
0310
0001
0100
,
0010
1000
0010
0100
0000
0001
0100
0001
,
0010
0000
0010
0002
0000
0000
0013
0200
,
0000
0000
1300
0020
0000
0230
0000
0000
,
0302
0000
0013
0200
0000
1300
0010
0100
,
0001
0100
0010
1000
0000
0001
0100
0000
,
0001
0010
0100
1000
,
0010
0000
0100
0000
0001
0000
0100
0010
,
1000
0100
1000
0100
0010
0001
0010
0001
,
1000
0100
1000
0100
0010
0001
0100
0001
,
0011
0110
1100
1010
,
0110
0101
1001
0011
,
0110
0000
1100
0000
1010
0000
0101
0200
,
0302
0023
0000
0230
0000
2300
0000
3010
,
0100
0001
0001
1000
,
0010
2000
0000
3002
0000
0000
0013
0020
,
0000
0000
0130
0200
0000
0000
0000
0000
,
1300
0000
0100
0010
0000
0001
0100
0000
,
0100
0001
1000
0000
1000
0010
0100
0000
,
0001
0100
0010
0000
1000
0010
0100
0000
,
0100
0010
1000
0000
0010
0100
0001
0000
,
0100
0001
0100
0000
0010
1000
0010
0000
,
0100
0001
0100
0001
0100
0010
1000
0010
,
1000
0010
0100
0001
0100
0010
1000
0100
,
0010
0001
0100
0001
0001
0010
0100
1000
,
0002
0000
1003
0010
,
1000
0002
0000
0023
0000
0230
0000
2300
,
0000
3200
0000
0320
0000
0032
0000
0203
,
0000
0320
0000
2030
0000
3020
0000
0230
,
0000
0302
0000
0023
0000
0230
0000
2300
,
0000
3200
0000
0320
0000
0032
0000
0203
,
0000
0320
0030
2000
3000
0020
0000
0230
,
0000
0302
0000
0023
0000
0230
0000
0300
,
1000
0010
0100
0001
1000
0200
0000
0000
,
0000
1300
0000
0010
0200
0301
0000
0001
,
0020
0130
0000
1000
0010
0100
0000
0001
,
1000
0010
0000
1000
0010
0100
0000
0001
,
0100
0010
0000
1000
0010
0100
0000
0001
,
0010
0100
1000
0001
0100
0010
1000
0010
,
0100
0001
0010
0100
1000
0001
0010
0100
,
1000
0100
0010
0001
0010
0001
0100
0001
,
0010
0000
1100
0000
,
2002
0000
3003
0000
;

//---------------dance-single - ----------------
#NOTES:
     dance-single:
     :
     Beginner:
     5:
     0.376,0.414,0.118,0.054,0.000,229.000,11.000,5.000,0.000,0.000:
0000
0000
0000
0000
,
1000
0100
0010
0001
,
0010
0100
1000
0010
,
0100
0001
0100
0010
,
1000
0001
0100
0010
,
1000
0001
0100
0010
,
1000
0100
1000
0001
,
1001
0000
0000
0011
,
0000
0001
0000
0010
0000
0100
0000
1000
,
0000
0010
0000
1000
0000
0010
0000
1000
,
0000
0010
0000
0100
0000
0001
0000
0100
,
0000
0010
0000
1000
0000
0100
0000
0010
,
0000
0001
0000
0100
0000
0010
0000
1000
,
0000
0010
0000
0100
0000
0001
0000
0010
,
0000
0100
0000
1000
0000
1000
0000
0001
,
0020
0000
0000
0031
,
1001
0000
1000
0010
0000
0000
0010
0100
,
0000
0000
0100
0001
0000
0010
0000
0000
,
0100
0000
1000
0010
0000
0100
0001
0000
,
0000
0000
0000
0000
,
0000
0000
0001
0100
0000
0000
0100
0001
,
0000
0000
0001
0010
0000
0100
0000
0000
,
0010
0000
0001
1000
0000
1000
0100
0000
,
0000
0000
0000
0000
,
0000
0000
0010
0001
0000
0000
0001
0100
,
0000
0000
0010
1000
0000
0100
0000
0000
,
0010
0000
0010
0001
0000
0010
0100
0000
,
0000
0000
0000
0000
,
0000
1000
0100
0010
,
0001
0000
1000
0000
0100
0000
1000
0100
,
0000
0010
0100
0010
,
0100
0010
0001
0010
,
0011
0100
0010
0001
,
0010
0100
1000
0100
,
0100
0010
0001
0010
,
0001
1000
0100
0010
,
0001
0100
0010
1000
,
0100
0010
0001
0100
,
0001
0010
0100
0010
,
0100
1000
0001
0010
,
0100
1000
0010
0100
,
0001
0010
0100
1000
,
0001
0010
0100
1000
,
0001
0100
0001
0100
,
0011
0010
0100
0010
,
0110
0100
1000
0100
,
1100
1000
0010
0200
,
0302
0000
0000
0003
,
1001
0001
1000
0001
,
0010
0100
1000
0001
,
0000
0100
0000
0010
0000
1000
0000
0001
,
0000
0100
0000
0010
0000
1000
0000
0010
,
0000
0100
0000
0001
0000
0100
0000
0010
,
0000
1000
0000
0010
0000
0100
0000
0001
,
0000
0010
0000
0100
0000
1000
0000
0000
,
0001
1000
0001
0000
,
0100
0010
0100
1000
,
0100
0010
0100
1000
,
0000
0100
0000
0010
0000
0100
0000
1000
,
0000
0001
0000
1000
0000
0001
0000
0010
,
0000
0001
0000
1000
0000
0001
0000
0100
,
0000
0010
0000
1000
0000
0010
0000
0100
,
0000
0001
0000
0100
0000
0001
0000
0000
,
1001
0000
0110
0000
,
2002
3003
0000
0000
;

//---------------dance-single - ----------------
#NOTES:
     dance-single:
     :
     Medium:
     9:
     0.772,0.901,0.215,0.570,0.124,430.000,20.000,53.000,0.000,0.000:
0000
0000
0000
0000
,
1000
0000
0100
0000
0010
0000
0001
0010
,
0100
1000
0010
0100
,
0001
0000
0000
0000
0100
0000
0000
0000
0001
0100
0001
0000
0010
0000
0100
0000
,
1000
0010
0100
0001
0010
0100
1000
0100
,
0010
0001
0100
0010
1000
0001
0010
0010
,
0100
1000
0010
0100
0001
1000
0010
1000
,
2010
0000
0000
0000
0000
0000
0000
0000
3001
0000
0000
0000
0001
0010
0100
0000
,
1000
0100
0010
0100
0001
0100
0010
0100
,
1000
0010
0100
0010
0001
0010
1000
0010
,
1000
0001
0100
0001
0010
0001
1000
0001
,
0010
0100
1000
0100
0010
0100
0001
0100
,
0010
0100
1000
0100
0010
0100
0001
0100
,
1000
0010
0100
0001
0100
0010
1000
0100
,
0010
0001
0100
0010
1000
0010
1000
0001
,
0010
0100
1000
0000
0010
0000
0000
0100
0000
0001
0010
0000
0100
1000
0001
1000
,
0020
0000
0100
0230
0000
0000
1300
0020
,
0000
0000
0130
0002
0000
0023
0000
0000
,
0230
0000
1300
0020
0000
0031
0100
0010
,
1000
0010
0100
0001
0000
0001
0010
0100
,
1000
0010
0100
0002
0000
0000
1003
0200
,
0000
0000
0310
0002
0000
0203
0000
0000
,
0320
0000
1030
0200
0000
0310
0001
0100
,
0010
1000
0010
0100
0000
0001
0100
0001
,
1010
0000
0100
0002
0000
0000
0013
0200
,
0000
0000
1300
0020
0000
0230
0000
0000
,
0302
0000
0013
0200
0000
1300
0010
0100
,
0001
0100
0010
1000
0000
0001
0100
0010
,
1000
0100
0010
0001
0100
0010
1000
0100
,
0010
0001
1000
0001
0010
0001
1000
0010
,
1000
0100
1000
0000
0100
1000
0100
0000
1000
0100
1000
0000
0100
1000
0100
0000
,
0010
0001
0010
0000
0001
0010
0001
0000
0010
0001
0010
0000
0001
0010
0001
0000
,
0011
0000
0110
0000
2200
3300
2020
3030
,
0220
0330
0101
0000
2002
3003
0011
0000
,
0220
0330
1100
0000
1010
0000
0101
0200
,
0302
0023
0000
0230
0000
2300
0000
3010
,
0110
0101
0011
0110
,
0010
0200
0000
2300
0000
0000
3100
2000
,
0000
0000
3010
0200
0000
0000
0000
0000
,
0301
0000
0100
0010
0000
1000
0100
0000
,
0010
0001
1000
0010
1000
0100
1000
0001
,
0100
0001
1000
0010
1000
0010
0100
0001
,
0100
0010
1000
0100
0010
0001
0010
0100
,
1000
0010
0100
0001
0100
0010
1000
0100
,
0010
0001
0010
0001
0010
0100
1000
0100
,
2000
3010
0100
0001
0100
0010
1000
0100
,
0020
0031
0100
0001
0002
0013
0100
1000
,
0002
0000
1003
0010
,
0100
0001
1000
0001
0100
0001
0010
0001
,
0010
0100
1000
0100
0010
0001
0100
0010
,
1000
0010
0100
0001
0010
0100
1000
0010
,
0100
0010
0001
0010
0100
0010
1000
0100
,
0010
0001
0100
0001
1000
0001
0100
0001
,
0010
0100
1000
0010
1000
0010
0100
0010
,
0100
0010
0001
0010
0100
0010
0100
0010
,
1000
0010
1000
0100
1000
0100
0000
0000
,
0010
0002
0000
0013
0200
0010
0300
0001
,
0020
0100
0030
1000
0020
0100
0030
0001
,
2000
0010
3000
1000
0020
0100
0030
0001
,
0200
0010
0300
1000
0020
0100
0030
0001
,
0010
0100
1000
0001
0100
0010
1000
0010
,
0100
0001
0010
0100
1000
0001
0010
0100
,
1000
0001
0010
0001
0010
0001
0010
0001
0010
0001
0010
0001
0010
0001
0010
0001
,
0010
0000
1100
0000
,
2002
0000
3003
0000
;

//---------------dance-single - ----------------
#NOTES:
     dance-single:
     :
     Edit:
     13:
     1.000,1.000,0.280,0.419,1.000,681.000,26.000,39.000,0.000,0.000:
1000
0000
0010
0100
0010
0000
1000
0100
1000
0000
0001
0010
0001
0000
1000
0010
,
1000
0000
0001
0100
0001
0000
1000
0010
1000
0000
0001
0100
0010
0000
1000
0100
,
0010
0000
0100
1000
0001
0000
0100
0010
0100
0000
0010
1000
0010
0000
0100
0001
,
0100
0000
0001
0010
0001
0000
1000
0100
1000
0010
1000
0000
0101
0000
0100
0010
,
0100
0000
0001
1000
0001
0000
1000
0100
0010
0000
0001
0010
0100
0000
1000
0001
,
0100
0000
0010
1000
0010
0000
0100
0001
0100
0000
0010
0000
1010
0000
1001
0000
,
0010
0000
0100
0001
0100
0000
0010
1000
0010
0000
0100
0000
0001
0000
0010
0000
,
0011
0000
0001
0000
1000
0000
0000
0000
0110
0000
0010
0000
1000
0010
0100
0000
,
0001
1000
0100
0010
0100
1000
0001
0100
0010
0100
0001
0010
0001
1000
0100
0010
,
0100
1000
0001
0100
0010
0100
0001
0010
0100
1000
0001
0100
0010
0100
0001
1000
,
0100
1000
0001
0010
0100
1000
0001
0100
0010
0100
0001
0010
0100
1000
0001
0100
,
0010
0100
0001
0010
0001
1000
0100
0010
0100
1000
0001
0100
0010
0100
0001
0010
,
0001
1000
0100
0010
0100
1000
0001
0100
0010
0100
0001
0010
0100
1000
0001
0100
,
0010
0100
0001
1000
0100
0010
0100
1000
0001
0100
0010
0100
0001
0010
0100
0010
,
0100
1000
0001
0100
0010
1000
0100
0010
0100
1000
0001
0100
0010
0100
0001
1000
,
0001
0100
0010
0000
0110
0000
0000
0100
0000
0010
1000
0000
0010
0100
0001
0100
,
0010
1000
0020
2030
3001
0010
0200
2300
,
3001
0100
0002
0203
0310
2000
3100
0010
,
0002
0103
0020
2030
3001
1000
0001
0100
,
0010
0010
1000
1000
0100
0010
0001
0100
,
0010
1000
0020
0230
0301
0100
0002
0203
,
0310
1000
0002
0203
0310
2000
3100
0010
,
0002
0103
0020
2030
3010
0100
0001
0100
,
0010
1000
0100
0010
0000
0001
0100
0010
,
1001
0000
1000
0200
0000
0000
0310
0001
,
0000
0000
1000
0200
0000
0310
0000
0000
,
0001
0000
0100
0010
0000
0010
2000
0000
,
3010
0100
0010
0100
0000
0100
0010
1000
,
0001
0000
0010
0000
0100
1000
0001
0100
,
0010
1000
0100
0010
0100
1000
0001
0100
,
0010
1000
0100
1000
0001
0010
0100
1000
0001
0100
0010
0100
0001
1000
0100
0010
,
0001
1000
0100
0010
0100
1000
0001
0100
0010
0100
0001
0010
0001
0100
0010
1000
,
0001
0000
1001
0000
2002
3003
2020
3030
,
2002
3003
0110
0000
2002
3003
0110
0000
,
0202
0303
1010
0000
1001
0000
0110
0001
,
1000
0010
1001
0100
0011
0100
1010
0100
,
0002
0103
0020
1030
0200
0310
0200
1300
,
0001
0010
0000
0200
0000
0300
1000
0100
,
0000
0000
0010
0002
0000
0000
0103
0000
,
1010
0000
1000
0001
0000
0001
0100
0000
,
1010
0010
1000
1000
0100
0100
0010
0010
,
0001
0001
0100
0100
0010
0010
1000
1000
,
0001
0100
0001
0100
0010
1000
0010
0100
,
0001
0010
0001
0100
0010
1000
0100
0010
,
0110
1000
0001
0100
0010
1000
0100
0010
,
1001
0100
0010
0100
0001
1000
0100
0010
,
0010
0100
0010
1000
0010
0100
0001
1000
0100
0010
0100
1000
0001
0010
0100
1000
,
0001
0100
0010
1000
0001
0000
0000
0000
,
0001
1000
0100
0010
0100
1000
0001
0100
0010
0100
0001
0010
0100
1000
0001
0100
,
0010
0100
0001
1000
0100
0010
0100
1000
0001
0010
0100
1000
0001
0100
0010
0100
,
0001
1000
0100
0010
0100
1000
0001
0100
0010
0100
0001
0100
0010
1000
0100
0010
,
0100
0010
0100
1000
0001
0100
0010
1000
0100
0010
0100
1000
0001
0010
0100
1000
,
0001
0100
0010
0100
0001
0010
0001
0100
0010
1000
0100
0010
0100
1000
0001
0010
,
0100
1000
0001
0100
0010
0100
0001
0010
0001
1000
0100
0010
0100
1000
0001
0100
,
0010
1000
0100
0010
0100
1000
0001
0010
0100
1000
0001
0100
0010
0100
0001
0010
,
0001
0100
0010
0100
0001
0010
0100
0010
0001
0100
0010
0100
0001
1000
0100
0010
,
0100
0010
0100
1000
0001
0100
0010
1000
0100
0010
0100
0010
0100
1000
0001
0100
,
0010
0100
0001
0010
0001
0100
0010
1000
0100
0010
0001
0100
0010
1000
0001
0010
,
0100
1000
0001
0010
0001
1000
0010
1000
0001
0010
0001
0100
0010
1000
0100
0010
,
0100
1000
0001
0010
0100
1000
0001
0100
0010
0100
0001
0010
0001
1000
0100
0010
,
0001
0001
0100
0100
0010
0010
1000
1000
,
0001
0100
0010
1000
0010
0100
0001
1000
,
0010
0100
0001
1000
0100
0010
0100
1000
0001
0100
0010
1000
0001
0010
0100
1000
,
0001
0100
0010
1000
1001
0000
0000
0000
,
0100
0000
0000
0000
;
