#TITLE:Flying High (Speed Remix);
#SUBTITLE:EXoduz Violation II;
#ARTIST:DJ Splash;
#TITLETRANSLIT:;
#SUBTITLETRANSLIT:;
#ARTISTTRANSLIT:;
#CREDIT:;
#BANNER:../Banner.png;
#BACKGROUND:../Background.png;
#LYRICSPATH:;
#CDTITLE:;
#MUSIC:DCX - Flying High (Dj Splash speed remix).ogg;
#OFFSET:-0.916;
#SAMPLESTART:93.934;
#SAMPLELENGTH:11.900;
#SELECTABLE:YES;
#DISPLAYBPM:176.000;
#BPMS:0.000=176.000,332.000=180.000,336.000=176.000;
#STOPS:;
#BGCHANGES:;
// cache tags:
#FIRSTBEAT:4.000;
#LASTBEAT:504.000;
#SONGFILENAME:Songs/EXoduz Violation II/Flying High (Speed Remix) - [Ov3rHell3XoduZ]/sm.sm;
#HASMUSIC:1;
#HASBANNER:1;
#MUSICLENGTH:176.768;
// end cache tags

//---------------dance-single - ----------------
#NOTES:
     dance-single:
     :
     Beginner:
     12:
     1.000,1.000,0.305,0.255,1.000,1291.000,54.000,45.000,4.000,0.000:
0000
0000
0000
0000
,
2020
0000
0000
3030
0220
0000
0000
0330
,
0202
0000
0000
0303
2000
0000
3200
0000
,
0320
0000
0032
0203
,
0320
0000
1030
0100
0020
0000
0032
0000
,
2003
0000
0000
3000
2002
0000
0000
3003
,
0202
0000
0000
0303
0200
0000
0320
0000
,
2030
0000
3200
0320
,
0031
0000
1000
1000
1000
0000
0100
0010
,
0001
1000
0100
1000
0010
0100
0001
0010
,
0001
1000
0100
1000
0010
0100
0001
1000
,
0100
0010
0001
0010
0100
1000
0001
0100
,
0001
1000
0100
1000
0010
0100
0001
0010
,
0110
0100
1000
0001
0100
0001
1000
0010
,
0110
0100
0001
1000
0100
1000
0001
0010
,
0100
0000
1000
0010
0100
0000
0101
0001
,
0011
0000
0110
0000
1100
0000
2000
3002
,
0000
0000
0000
0000
,
1003
0001
0100
0001
1000
0010
1000
0001
,
0100
0010
1000
0001
0100
0010
1000
0001
0010
0100
1000
0001
0010
0100
1000
0001
,
0100
0010
1000
0100
1000
0010
0100
0001
,
0010
0001
1000
0100
0010
0001
1000
0010
,
1000
0001
0100
0001
0010
0100
1000
0001
,
0100
0010
1000
0100
0010
0001
1000
0010
0100
0001
0010
0100
1000
0001
0100
0010
,
1000
0100
1000
0010
0100
0010
1000
0100
,
0010
0001
1000
0001
0100
0001
0010
0100
,
1100
1000
0010
0100
0001
0010
0001
1000
,
0100
0010
0001
1000
0010
0100
0010
1000
0100
1000
0001
0100
0001
0010
0100
1000
,
0001
0100
0001
1000
0010
0100
0010
1000
0100
0010
0001
1000
0001
0100
0001
0010
,
0100
1000
0001
0100
0001
1000
0010
0100
0010
1000
0100
0010
0001
1000
0001
0100
,
0010
1000
0100
1000
0010
0100
0001
0010
0100
1000
0001
0100
0001
1000
0100
0010
,
0100
1000
0010
0100
0001
0010
0001
1000
0100
0010
0001
1000
0010
1000
0001
0010
,
0001
1000
0100
0010
0001
1000
0010
0100
0010
1000
0100
0010
0001
0100
0001
0010
,
0100
0000
0000
1000
0000
0000
0001
0000
0000
0100
0000
0000
0001
0000
0000
0010
0000
0000
0100
0000
0000
1000
0000
0000
0001
0000
1000
0000
0010
0000
1000
0000
0010
0000
0100
0000
0001
0000
0100
0000
0001
0000
1000
0000
0100
0000
1000
0000
,
0001
0001
1000
0100
1000
0010
0010
0100
,
0001
1000
0100
0100
1000
0010
0100
0001
,
0101
0000
1000
0100
0020
0030
0011
0000
,
0202
0000
0000
0303
0010
0010
0010
0010
,
1000
0100
1000
0010
0100
0001
0010
0001
1000
0100
1000
0001
0100
0001
0010
0100
,
1000
0001
0100
0001
1000
0010
1000
0100
0010
0001
1000
0010
0100
0001
0010
0001
,
1000
0100
0010
0001
1000
0100
1000
0010
0100
0010
1000
0100
0010
0001
1000
0001
,
0020
0230
2300
3020
,
0130
0001
1000
0100
1000
0010
0100
0001
,
0101
0001
0010
0001
1000
0100
0010
0100
,
1100
1000
0010
0100
0101
0010
1000
0100
,
0110
0010
0001
0100
0001
0010
0100
1000
,
1001
0001
0100
0001
1000
0010
0100
0010
,
1010
1000
0100
1000
0010
0100
0001
0010
,
0110
0100
1000
0001
0101
0100
0010
1000
,
1100
0000
0100
0000
0110
0000
0010
0000
0011
0000
0001
0100
0010
0000
1000
0100
,
0020
0032
0203
0320
,
1030
0100
1000
0010
0100
0001
0010
0001
1000
0100
0010
0001
1000
0010
1000
0001
,
0100
0010
1000
0100
1000
0001
0100
0001
0010
0100
1000
0001
0100
0001
1000
0100
,
0010
0001
1000
0010
1000
0001
0010
0001
1000
0100
0010
0001
1000
0010
0100
0001
,
0010
0100
0100
1000
1000
0010
0010
0100
,
0100
0001
1000
0100
1000
0010
0100
0001
0010
0001
1000
0100
0010
0001
1000
0010
,
0100
0001
1000
0100
1000
0010
0100
0010
1000
0100
0010
0001
1000
0001
0100
0001
,
0010
0100
0010
0001
1000
0100
0010
0001
1000
0010
0100
0001
0010
0001
1000
0100
,
0010
0001
0001
0100
0100
0010
0010
1000
,
1000
0000
1001
1001
,
1000
0010
1000
0010
1000
0010
1000
0010
0100
0010
0100
0010
0100
0010
0100
0010
,
1000
0100
0010
0001
1000
0010
0100
0001
,
0010
0100
1000
0001
0100
0001
1000
0100
,
0010
0001
0100
0001
1000
0010
0100
0001
,
0010
0100
0010
0100
0010
0100
0010
0100
1000
0100
1000
0100
1000
0100
1000
0100
,
0010
0001
0100
0001
0010
0100
1000
0001
,
1000
0100
0010
0001
1000
0010
0100
0010
,
1000
0001
0100
0001
1000
0100
1000
0001
,
0100
0010
0100
0010
0100
0010
0100
0010
1000
0010
1000
0010
1000
0010
1000
0010
,
0100
0001
1000
0100
1000
0010
0100
0001
,
0010
0100
1000
0001
0100
0001
1000
0100
,
0010
0001
0100
0001
0010
0100
1000
0001
,
1000
0100
1000
0100
1000
0100
1000
0100
0010
0100
0010
0100
0010
0100
0010
0100
,
1000
0001
0100
0001
1000
0100
1000
0010
,
0100
0001
0010
0100
0010
0001
1000
0100
,
0110
0011
0101
0110
,
1010
1100
1001
0101
,
0011
0101
0110
1010
,
1100
0000
0000
0000
1001
0000
0001
1000
0100
0010
0001
0100
0001
0010
0001
1000
,
0100
0010
0001
0100
0001
0010
0001
1000
0100
1000
0010
0100
0001
0010
0100
1000
,
0001
1000
0100
1000
0010
0100
0001
0010
0001
1000
0100
0010
0001
1000
0010
1000
,
0001
0010
0001
1000
0100
0010
0001
1000
0010
0100
0010
1000
0100
0010
0001
0100
,
0001
0010
0100
1000
0001
0100
0001
1000
0100
1000
0010
0100
0001
0010
0100
1000
,
0001
0101
0100
0110
0010
1010
1000
1100
,
0100
0010
0001
0100
0001
0010
0100
1000
,
0001
0011
0010
0110
0100
1100
1000
1010
,
0010
0100
0001
1000
0100
1000
0010
0100
,
0001
1001
1000
1100
0100
0110
0010
0011
,
0001
0100
0001
0010
0100
1000
0001
0100
,
0001
1000
0100
1000
0001
0100
0010
1000
,
1000
0100
0010
0001
1000
0100
0010
0001
1000
0010
0100
0001
1000
0010
0100
0001
,
1000
0010
1000
0100
1000
0001
0100
0001
1000
0010
0100
0001
0010
0100
1000
0001
,
0100
0010
1000
0100
1000
0010
0100
0001
0010
0100
1000
0001
0100
0001
0010
0001
,
1000
0100
0010
0001
1000
0010
1000
0001
0010
0100
1000
0001
0100
0001
1000
0100
,
0010
0001
1000
0010
1000
0100
0010
0001
1000
0001
0100
0010
1000
0100
0010
0001
,
1000
0100
0010
0001
1000
0100
1000
0001
0100
0001
0010
0100
1000
0010
0100
0001
,
1000
0100
1000
0010
0100
0001
0010
0100
0010
0001
1000
0100
0010
0001
1000
0001
,
0010
0100
1000
0010
0100
0010
1000
0100
1000
0001
0100
0001
0010
0100
1000
0001
,
2000
0000
3200
0000
0320
0000
0031
0001
,
1000
0100
1000
0100
1000
0100
1000
0100
,
1000
0010
1000
0010
1000
0010
1000
0010
,
0100
0010
0100
0010
0100
0010
0100
0001
,
0100
0001
0100
0001
0100
0001
0100
0001
,
0010
0001
0010
0001
0010
0001
0010
0001
,
0100
0010
0100
0010
0100
0010
0100
0010
,
1000
0001
1000
0001
1000
0001
1000
0001
,
0100
0001
0100
0001
0100
0001
0100
0001
,
0020
0230
2300
3002
,
1003
0100
0010
0001
1000
0100
0010
0001
1000
0010
0100
0001
1000
0010
0100
0001
,
1000
0100
1000
0010
0100
0001
0010
0100
1000
0001
0100
0001
1000
0100
1000
0010
,
0100
0001
0010
0001
1000
0100
0010
0001
1000
0010
1000
0001
0010
0100
1000
0010
,
1000
0001
0100
0001
0010
0100
1000
0010
0100
0001
1000
0100
1000
0001
0100
0001
,
1000
0100
0010
0001
1000
0100
0010
0001
1000
0010
0100
0001
1000
0010
0100
0001
,
1000
0100
1000
0010
0100
0001
0010
0100
0010
0001
1000
0100
1000
0010
0100
0001
,
0010
0001
1000
0100
0010
0001
1000
0010
1000
0001
0010
0100
0010
0001
1000
0100
,
1000
0001
0100
0001
1000
0010
0100
0001
0010
0100
0010
0001
1000
0100
1000
0001
,
0100
0010
1000
0001
0100
0010
1000
0001
0010
0100
1000
0001
0010
0100
1000
0001
,
0100
0001
1000
0100
1000
0010
0100
0001
0010
0001
1000
0100
0010
0001
1000
0010
,
1000
0001
0100
0001
0010
0100
1000
0001
0100
0001
1000
0100
1000
0010
0100
0001
,
0010
0001
1000
0100
0010
0001
1000
0010
1000
0001
0010
0100
1000
0001
0100
0001
,
1000
0100
0010
0001
1000
0100
0010
0001
1000
0010
0100
0001
1000
0010
0100
0001
,
1000
0100
1000
0010
0100
0001
0010
0001
1000
0100
0010
0001
1000
0010
1000
0001
,
0010
0100
1000
0001
0100
0001
1000
0100
0010
0001
1000
0010
0100
0001
0010
0100
,
2000
0000
0000
0000
,
0000
0000
0000
0000
,
3000
0000
0000
0000
,
MMMM
0000
0000
0000
;

//---------------dance-single - ----------------
#NOTES:
     dance-single:
     :
     Easy:
     13:
     1.000,1.000,0.283,0.255,1.000,1375.000,50.000,45.000,4.000,0.000:
0000
0000
0000
0000
,
2020
0000
0000
3030
0220
0000
0000
0330
,
0202
0000
0000
0303
2000
0000
3200
0000
,
0320
0000
0032
0203
,
0320
0000
1030
0100
0020
0000
0032
0000
,
2003
0000
0000
3000
2002
0000
0000
3003
,
0202
0000
0000
0303
0200
0000
0320
0000
,
2030
0000
3200
0320
,
0031
0000
1000
1000
1000
0000
0100
0010
,
0001
1000
0100
1000
0010
0100
0001
0010
,
0001
1000
0100
1000
0010
0100
0001
1000
,
0100
0010
0001
0010
0100
1000
0001
0100
,
0001
1000
0100
1000
0010
0100
0001
0010
,
0110
0100
1000
0001
0100
0001
1000
0010
,
0110
0100
0001
1000
0100
1000
0001
0010
,
0100
0000
1000
0010
0100
0000
0101
0001
,
0011
0000
0110
0000
1100
0000
2000
3002
,
0000
0000
0000
0000
,
1003
0001
0100
0001
1000
0010
1000
0001
,
0100
0010
1000
0001
0100
0010
1000
0001
0010
0100
1000
0001
0010
0100
1000
0001
,
0100
0010
1000
0100
1000
0010
0100
0001
,
0010
0001
1000
0100
0010
0001
1000
0010
,
1000
0001
0100
0001
0010
0100
1000
0001
,
0100
0010
1000
0100
0010
0001
1000
0010
0100
0001
0010
0100
1000
0001
0100
0010
,
1000
0100
1000
0010
0100
0010
1000
0100
,
0010
0001
1000
0001
0100
0001
0010
0100
,
1100
1000
0010
0100
0001
0010
0001
1000
,
0100
0010
0001
1000
0010
0100
0010
1000
0100
1000
0001
0100
0001
0010
0100
1000
,
0001
0100
0001
1000
0010
0100
0010
1000
0100
0010
0001
1000
0001
0100
0001
0010
,
0100
1000
0001
0100
0001
1000
0010
0100
0010
1000
0100
0010
0001
1000
0001
0100
,
0010
1000
0100
1000
0010
0100
0001
0010
0100
1000
0001
0100
0001
1000
0100
0010
,
0100
1000
0010
0100
0001
0010
0001
1000
0100
0010
0001
1000
0010
1000
0001
0010
,
0001
1000
0100
0010
0001
1000
0010
0100
0010
1000
0100
0010
0001
0100
0001
0010
,
0100
0000
0000
1000
0000
0000
0001
0000
0000
0100
0000
0000
0001
0000
0000
0010
0000
0000
0100
0000
0000
1000
0000
0000
0001
0000
1000
0000
0010
0000
1000
0000
0010
0000
0100
0000
0001
0000
0100
0000
0001
0000
1000
0000
0100
0000
1000
0000
,
0001
0001
1000
0100
1000
0010
0010
0100
,
0001
1000
0100
0100
1000
0010
0100
0001
,
0101
0000
1000
0100
0020
0030
0011
0000
,
0202
0000
0000
0303
0010
0010
0010
0010
,
1000
0100
1000
0010
0100
0001
0010
0001
1000
0100
1000
0001
0100
0001
0010
0100
,
1000
0001
0100
0001
1000
0010
1000
0100
0010
0001
1000
0010
0100
0001
0010
0001
,
1000
0100
0010
0001
1000
0100
1000
0010
0100
0010
1000
0100
0010
0001
1000
0001
,
0020
0230
2300
3020
,
0130
0001
1000
0100
1000
0010
0100
0001
0010
0001
1000
0100
0010
0001
1000
0010
,
0100
0001
1000
0100
1000
0001
0100
0010
1000
0100
1000
0010
0100
0001
0010
0100
,
1000
0001
0100
0001
1000
0100
0010
0001
1000
0000
0010
0000
1000
0000
0100
0000
,
0110
0010
0001
0100
0001
0010
0100
1000
,
1001
0001
0100
0001
1000
0010
0100
0010
,
1010
1000
0100
1000
0010
0100
0001
0010
,
0110
0100
1000
0001
0101
0100
0010
1000
,
1100
0000
0100
0000
0110
0000
0010
0000
0011
0000
0001
0100
0010
0000
1000
0100
,
0020
0032
0203
0320
,
1030
0100
1000
0010
0100
0001
0010
0001
1000
0100
0010
0001
1000
0010
1000
0001
,
0100
0010
1000
0100
1000
0001
0100
0001
0010
0100
1000
0001
0100
0001
1000
0100
,
0010
0001
1000
0010
1000
0001
0010
0001
1000
0100
0010
0001
1000
0010
0100
0001
,
0010
0100
0100
1000
1000
0010
0010
0100
,
0100
0001
1000
0100
1000
0010
0100
0001
0010
0001
1000
0100
0010
0001
1000
0010
,
0100
0001
1000
0100
1000
0010
0100
0010
1000
0100
0010
0001
1000
0001
0100
0001
,
0010
0100
0010
0001
1000
0100
0010
0001
1000
0010
0100
0001
0010
0001
1000
0100
,
0010
0001
0001
0100
0100
0010
0010
1000
,
1000
0000
1001
1001
,
1000
0010
0100
0001
1000
0010
0100
0001
1000
0100
0010
0001
1000
0100
0010
0001
,
1000
0100
1000
0010
0100
0001
0010
0100
1000
0001
0100
0001
1000
0100
0010
0001
,
1000
0010
1000
0100
0010
0001
1000
0010
0100
0001
0010
0001
1000
0100
0010
0001
,
1000
0100
1000
0001
0100
0001
0010
0100
1000
0010
0100
0001
0010
0100
1000
0001
,
1000
0100
0010
0001
1000
0100
0010
0001
1000
0010
0100
0001
1000
0010
0100
0001
,
1000
0001
0100
0001
0010
0100
1000
0001
,
1000
0100
0010
0001
1000
0010
0100
0010
,
1000
0001
0100
0001
1000
0100
1000
0001
,
1000
0100
0010
0001
1000
0100
0010
0001
1000
0010
0100
0001
1000
0010
0100
0001
,
1000
0100
1000
0010
0100
0001
0010
0100
1000
0001
0100
0010
1000
0100
1000
0010
,
0100
0001
0010
0100
0010
0001
1000
0100
0010
0001
1000
0010
1000
0001
0010
0100
,
1000
0001
0100
0001
1000
0100
0010
0001
1000
0010
0100
0010
1000
0100
0010
0001
,
1000
0010
0100
0001
1000
0010
0100
0001
1000
0100
0010
0001
1000
0100
0010
0001
,
1000
0100
1000
0010
0100
0001
0010
0100
1000
0001
0100
0010
1000
0100
1000
0010
,
0100
0001
0010
0100
0010
0001
1000
0100
0010
0001
1000
0010
0100
0001
1000
0100
,
0010
0011
0101
0110
,
1010
1100
1001
0101
,
0011
0101
0110
1010
,
1100
0000
0000
0000
1001
0000
0001
1000
0100
0010
0001
0100
0001
0010
0001
1000
,
0100
0010
0001
0100
0001
0010
0001
1000
0100
1000
0010
0100
0001
0010
0100
1000
,
0001
1000
0100
1000
0010
0100
0001
0010
0001
1000
0100
0010
0001
1000
0010
1000
,
0001
0010
0001
1000
0100
0010
0001
1000
0010
0100
0010
1000
0100
0010
0001
0100
,
0001
0010
0100
1000
0001
0100
0001
1000
0100
1000
0010
0100
0001
0010
0100
1000
,
0001
0101
0100
0110
0010
1010
1000
1100
,
0100
0010
0001
0100
0001
0010
0100
1000
,
0001
0011
0010
0110
0100
1100
1000
1010
,
0010
0100
0001
1000
0100
1000
0010
0100
,
0001
1001
1000
1100
0100
0110
0010
0011
,
0001
0100
0001
0010
0100
1000
0001
0100
,
0001
1000
0100
1000
0001
0100
0010
1000
,
1000
0100
0010
0001
1000
0100
0010
0001
1000
0010
0100
0001
1000
0010
0100
0001
,
1000
0010
1000
0100
1000
0001
0100
0001
1000
0010
0100
0001
0010
0100
1000
0001
,
0100
0010
1000
0100
1000
0010
0100
0001
0010
0100
1000
0001
0100
0001
0010
0001
,
1000
0100
0010
0001
1000
0010
1000
0001
0010
0100
1000
0001
0100
0001
1000
0100
,
0010
0001
1000
0010
1000
0100
0010
0001
1000
0001
0100
0010
1000
0100
0010
0001
,
1000
0100
0010
0001
1000
0100
1000
0001
0100
0001
0010
0100
1000
0010
0100
0001
,
1000
0100
1000
0010
0100
0001
0010
0100
0010
0001
1000
0100
0010
0001
1000
0001
,
0010
0100
1000
0010
0100
0010
1000
0100
1000
0001
0100
0001
0010
0100
1000
0001
,
2000
0000
3200
0000
0320
0000
0031
0001
,
1000
0100
1000
0100
1000
0100
1000
0100
,
1000
0010
1000
0010
1000
0010
1000
0010
,
0100
0010
0100
0010
0100
0010
0100
0001
,
0100
0001
0100
0001
0100
0001
0100
0001
,
0010
0001
0010
0001
0010
0001
0010
0001
,
0100
0010
0100
0010
0100
0010
0100
0010
,
1000
0001
1000
0001
1000
0001
1000
0001
,
0100
0001
0100
0001
0100
0001
0100
0001
,
0020
0230
2300
3002
,
1003
0100
0010
0001
1000
0100
0010
0001
1000
0010
0100
0001
1000
0010
0100
0001
,
1000
0100
1000
0010
0100
0001
0010
0100
1000
0001
0100
0001
1000
0100
1000
0010
,
0100
0001
0010
0001
1000
0100
0010
0001
1000
0010
1000
0001
0010
0100
1000
0010
,
1000
0001
0100
0001
0010
0100
1000
0010
0100
0001
1000
0100
1000
0001
0100
0001
,
1000
0100
0010
0001
1000
0100
0010
0001
1000
0010
0100
0001
1000
0010
0100
0001
,
1000
0100
1000
0010
0100
0001
0010
0100
0010
0001
1000
0100
1000
0010
0100
0001
,
0010
0001
1000
0100
0010
0001
1000
0010
1000
0001
0010
0100
0010
0001
1000
0100
,
1000
0001
0100
0001
1000
0010
0100
0001
0010
0100
0010
0001
1000
0100
1000
0001
,
0100
0010
1000
0001
0100
0010
1000
0001
0010
0100
1000
0001
0010
0100
1000
0001
,
0100
0001
1000
0100
1000
0010
0100
0001
0010
0001
1000
0100
0010
0001
1000
0010
,
1000
0001
0100
0001
0010
0100
1000
0001
0100
0001
1000
0100
1000
0010
0100
0001
,
0010
0001
1000
0100
0010
0001
1000
0010
1000
0001
0010
0100
1000
0001
0100
0001
,
1000
0100
0010
0001
1000
0100
0010
0001
1000
0010
0100
0001
1000
0010
0100
0001
,
1000
0100
1000
0010
0100
0001
0010
0001
1000
0100
0010
0001
1000
0010
1000
0001
,
0010
0100
1000
0001
0100
0001
1000
0100
0010
0001
1000
0010
0100
0001
0010
0100
,
2000
0000
0000
0000
,
0000
0000
0000
0000
,
3000
0000
0000
0000
,
MMMM
0000
0000
0000
;

//---------------dance-single - ----------------
#NOTES:
     dance-single:
     :
     Medium:
     14:
     1.000,1.000,0.119,0.232,1.000,1727.000,21.000,41.000,4.000,0.000:
0000
0000
0000
0000
,
2020
0000
0000
3030
0220
0000
0000
0330
,
0202
0000
0000
0303
2000
0000
3200
0000
,
0320
0000
0032
0203
,
0320
0000
1030
0100
0020
0000
0032
0000
,
2003
0000
0000
3000
2002
0000
0000
3003
,
0202
0000
0000
0303
0200
0000
0320
0000
,
2030
0000
3200
0320
,
0031
0000
1000
1000
1000
0000
0100
0010
,
0001
1000
0100
1000
0010
0100
0001
0010
0100
1000
0001
0100
0001
1000
0100
0010
,
0001
1000
0010
1000
0001
0100
0010
1000
0100
0010
0001
1000
0010
1000
0100
0010
,
0001
1000
0010
0100
0001
0010
0001
1000
0100
0010
0001
1000
0100
1000
0001
0100
,
0010
1000
0100
1000
0010
0100
0001
0010
0100
0010
0001
1000
0100
1000
0001
0100
,
0010
1000
0100
1000
0010
0100
0001
0010
0100
1000
0001
0100
0001
1000
0100
0010
,
0100
1000
0001
0100
0001
1000
0100
1000
0010
0100
0001
0010
0100
0010
0001
1000
,
0100
1000
0001
0100
0010
1000
0100
0010
0001
1000
0010
1000
0001
0010
0100
1000
,
0001
0100
0001
1000
0100
0010
0001
0100
0001
0010
0100
1000
0002
0003
0002
0000
,
0000
0000
0000
0000
,
1003
0100
1000
0010
0100
0001
0010
0100
1000
0001
0100
0001
0010
0100
1000
0001
,
0100
0010
1000
0001
0100
0010
1000
0001
0010
0100
1000
0001
0010
0100
1000
0001
,
1000
0100
1000
0010
0100
0001
0010
0100
1000
0001
0100
0001
1000
0100
0010
0001
,
1000
0010
1000
0001
0010
0001
1000
0100
1000
0001
0100
0001
1000
0100
0010
0001
,
1000
0010
0100
0001
1000
0100
1000
0001
0100
0001
0010
0100
1000
0001
0100
0001
,
1000
0100
0010
0001
1000
0100
0010
0001
1000
0010
0100
0001
1000
0010
0100
0001
,
1000
0100
1000
0010
0100
0001
0010
0100
1000
0001
0100
0001
1000
0100
0010
0001
,
1000
0010
1000
0001
0010
0001
1000
0100
0010
0001
1000
0010
0100
0001
0010
0100
,
1000
0001
0100
0001
1000
0100
0010
0001
1000
0010
0100
0001
0010
0001
1000
0100
,
1000
0001
0100
0010
1000
0001
0100
0010
1000
0100
0010
0001
1000
0100
0010
0001
,
1000
0100
1000
0010
0100
0001
0010
0100
1000
0001
0100
0001
1000
0100
0010
0001
,
1000
0010
1000
0001
0010
0100
1000
0001
0100
0010
1000
0100
1000
0010
0100
0001
,
0010
0100
0010
0001
1000
0100
1000
0001
0100
0001
0010
0100
1000
0001
0100
0010
,
1000
0100
0010
0001
1000
0100
0010
0001
1000
0010
0100
0001
1000
0010
0100
0001
,
1000
0100
1000
0010
0100
0001
0010
0001
1000
0100
0010
0001
1000
0001
0100
0001
,
0010
0000
0000
0100
0000
0000
1000
0000
0000
0001
0000
0000
0100
0000
0000
0001
0000
0000
1000
0000
0000
0100
0000
0000
0010
0000
0001
0000
0100
0000
0001
0000
0010
0000
0001
0000
1000
0000
0100
0000
1000
0000
0001
0000
1000
0000
0100
0000
,
0010
0001
1000
0100
1000
0010
0010
0100
,
0001
1000
0100
0100
1000
0010
0100
0001
,
0101
0000
1000
0100
0020
0030
0011
0000
,
0202
0000
0000
0303
0010
0010
0010
0010
,
1000
0100
1000
0010
0100
0001
0010
0001
1000
0100
1000
0001
0100
0001
0010
0100
,
1000
0001
0100
0001
1000
0010
1000
0100
0010
0001
1000
0010
0100
0001
0010
0001
,
1000
0100
0010
0001
1000
0100
1000
0010
0100
0010
1000
0100
0010
0001
1000
0001
,
0010
0100
1000
0001
0100
0001
1000
0100
0010
0001
1000
0010
0100
0001
1000
0100
,
1000
0001
1000
0100
1000
0010
0100
0001
0010
0001
1000
0100
0010
0001
1000
0010
,
0100
0001
1000
0100
1000
0001
0100
0010
1000
0100
1000
0010
0100
0001
0010
0100
,
1000
0001
0100
0001
1000
0100
0010
0001
1000
0100
1000
0010
0100
0001
0010
0100
,
1000
0001
0100
0001
1000
0100
0010
0001
1000
0010
1000
0001
0010
0100
1000
0001
,
0100
0001
1000
0100
0010
0001
1000
0010
0100
0001
1000
0100
1000
0010
0100
0001
,
0010
0100
1000
0001
0100
0001
1000
0100
0010
0001
1000
0010
1000
0001
0100
0010
,
1000
0100
0010
0001
1000
0010
0100
0001
0010
0001
1000
0100
0010
0001
1000
0010
,
0100
0001
1000
0100
1000
0010
0100
0001
0010
0100
1000
0100
0010
0001
1000
0100
,
2000
0000
0000
0000
3010
0100
0001
1000
0200
0000
0000
0000
2000
0000
3300
0000
,
1000
0100
1000
0010
0100
0001
0010
0001
1000
0100
0010
0001
1000
0010
1000
0001
,
0100
0010
1000
0100
1000
0001
0100
0001
0010
0100
1000
0001
0100
0001
1000
0100
,
0010
0001
1000
0010
1000
0001
0010
0001
1000
0100
0010
0001
1000
0010
0100
0001
,
0010
0100
1000
0001
0100
0001
1000
0100
0010
0001
1000
0010
0100
0001
1000
0100
,
1000
0001
1000
0100
1000
0010
0100
0001
0010
0001
1000
0100
0010
0001
1000
0010
,
0100
0001
1000
0100
1000
0010
0100
0010
1000
0100
0010
0001
1000
0001
0100
0001
,
0010
0100
0010
0001
1000
0100
0010
0001
1000
0010
0100
0001
0010
0001
1000
0100
,
0010
0001
0100
0001
0010
0100
1000
0001
0100
0001
1000
0100
0010
0001
1000
0010
,
0100
0001
0010
0001
1000
0100
0010
0001
1000
0010
0100
0001
1000
0100
1000
0001
,
1000
0010
0100
0001
1000
0010
0100
0001
1000
0100
0010
0001
1000
0100
0010
0001
,
1000
0100
1000
0010
0100
0001
0010
0100
1000
0001
0100
0001
1000
0100
0010
0001
,
1000
0010
1000
0100
0010
0001
1000
0010
0100
0001
0010
0001
1000
0100
0010
0001
,
1000
0100
1000
0001
0100
0001
0010
0100
1000
0010
0100
0001
0010
0100
1000
0001
,
1000
0100
0010
0001
1000
0100
0010
0001
1000
0010
0100
0001
1000
0010
0100
0001
,
1000
0100
1000
0001
0100
0001
0010
0100
1000
0010
0100
0001
1000
0100
0010
0001
,
1000
0010
1000
0001
0100
0010
1000
0100
0010
0001
1000
0010
0100
0001
0010
0001
,
1000
0100
0010
0001
1000
0100
1000
0001
0100
0010
1000
0100
0010
0001
1000
0010
,
1000
0100
0010
0001
1000
0100
0010
0001
1000
0010
0100
0001
1000
0010
0100
0001
,
1000
0100
1000
0010
0100
0001
0010
0100
1000
0001
0100
0010
1000
0100
1000
0010
,
0100
0001
0010
0100
0010
0001
1000
0100
0010
0001
1000
0010
1000
0001
0010
0100
,
1000
0001
0100
0001
1000
0100
0010
0001
1000
0010
0100
0010
1000
0100
0010
0001
,
1000
0010
0100
0001
1000
0010
0100
0001
1000
0100
0010
0001
1000
0100
0010
0001
,
1000
0100
1000
0010
0100
0001
0010
0100
1000
0001
0100
0010
1000
0100
1000
0010
,
0100
0001
0010
0100
0010
0001
1000
0100
0010
0001
1000
0010
0100
0001
1000
0100
,
0010
0011
0101
0110
,
1010
1100
1001
0101
,
0011
0101
0110
1010
,
1100
0000
0000
0000
1001
0000
0001
1000
0100
0010
0001
0100
0001
0010
0001
1000
,
0100
0010
0001
0100
0001
0010
0001
1000
0100
1000
0010
0100
0001
0010
0100
1000
,
0001
1000
0100
1000
0010
0100
0001
0010
0001
1000
0100
0010
0001
1000
0010
1000
,
0001
0010
0001
1000
0100
0010
0001
1000
0010
0100
0010
1000
0100
0010
0001
0100
,
0001
0010
0100
1000
0001
0100
0001
1000
0100
1000
0010
0100
0001
0010
0100
1000
,
0001
0100
0001
0010
0100
1000
0010
0100
0001
1000
0100
1000
0010
0100
0001
1000
,
0100
1000
0010
0100
0001
0010
0100
1000
0001
0100
0001
1000
0100
0010
0001
1000
,
0010
0100
0001
1000
0100
1000
0010
0100
0001
0010
0100
1000
0001
0100
0001
1000
,
0100
0010
0001
0010
0100
1000
0001
0100
0001
1000
0100
1000
0010
0100
0001
0010
,
0100
1000
0001
0100
0010
1000
0100
0010
0001
1000
0100
1000
0001
0100
0010
1000
,
0100
1000
0010
0100
0001
0010
0100
0010
0001
1000
0100
1000
0001
0100
0010
1000
,
0100
1000
0010
0100
0001
0010
0100
0010
0001
1000
0010
0100
0001
1000
0002
0000
,
1003
0100
0010
0001
1000
0100
0010
0001
1000
0010
0100
0001
1000
0010
0100
0001
,
1000
0010
1000
0100
1000
0001
0100
0001
1000
0010
0100
0001
0010
0100
1000
0001
,
0100
0010
1000
0100
1000
0010
0100
0001
0010
0100
1000
0001
0100
0001
0010
0001
,
1000
0100
0010
0001
1000
0010
1000
0001
0010
0100
1000
0001
0100
0001
1000
0100
,
0010
0001
1000
0010
1000
0100
0010
0001
1000
0001
0100
0010
1000
0100
0010
0001
,
1000
0100
0010
0001
1000
0100
1000
0001
0100
0001
0010
0100
1000
0010
0100
0001
,
1000
0100
1000
0010
0100
0001
0010
0100
0010
0001
1000
0100
0010
0001
1000
0001
,
0010
0100
1000
0010
0100
0010
1000
0100
1000
0001
0100
0001
0010
0100
1000
0001
,
2000
0000
3200
0000
0320
0000
0031
0001
,
1000
0100
0010
0001
1000
0100
0010
0001
1000
0010
0100
0001
1000
0010
0100
0001
,
1000
0100
0010
0001
1000
0100
0010
0001
1000
0010
0100
0001
1000
0010
0100
0001
,
1000
0100
1000
0001
0100
0001
0010
0001
1000
0100
0010
0001
1000
0010
0100
0001
,
1000
0100
1000
0010
0100
0001
0010
0100
1000
0001
0100
0001
1000
0100
0010
0001
,
1000
0010
0100
0001
1000
0100
1000
0010
0100
0001
0010
0100
0010
0001
1000
0100
,
1000
0001
0100
0010
1000
0100
1000
0010
0100
0001
0010
0100
0010
0001
1000
0100
,
1000
0001
0100
0001
0010
0100
1000
0010
0100
0001
1000
0100
1000
0010
0100
0001
,
0010
0100
0010
0001
1000
0100
1000
0010
0100
0001
0010
0100
1000
0001
0100
0001
,
2000
3200
2300
3002
,
1003
0100
0010
0001
1000
0100
0010
0001
1000
0010
0100
0001
1000
0010
0100
0001
,
1000
0100
1000
0010
0100
0001
0010
0100
1000
0001
0100
0001
1000
0100
1000
0010
,
0100
0001
0010
0001
1000
0100
0010
0001
1000
0010
1000
0001
0010
0100
1000
0010
,
1000
0001
0100
0001
0010
0100
1000
0010
0100
0001
1000
0100
1000
0001
0100
0001
,
1000
0100
0010
0001
1000
0100
0010
0001
1000
0010
0100
0001
1000
0010
0100
0001
,
1000
0100
1000
0010
0100
0001
0010
0100
0010
0001
1000
0100
1000
0010
0100
0001
,
0010
0001
1000
0100
0010
0001
1000
0010
1000
0001
0010
0100
0010
0001
1000
0100
,
1000
0001
0100
0001
1000
0010
0100
0001
0010
0100
0010
0001
1000
0100
1000
0001
,
0100
0010
1000
0001
0100
0010
1000
0001
0010
0100
1000
0001
0010
0100
1000
0001
,
0100
0001
1000
0100
1000
0010
0100
0001
0010
0001
1000
0100
0010
0001
1000
0010
,
1000
0001
0100
0001
0010
0100
1000
0001
0100
0001
1000
0100
1000
0010
0100
0001
,
0010
0001
1000
0100
0010
0001
1000
0010
1000
0001
0010
0100
1000
0001
0100
0001
,
1000
0100
0010
0001
1000
0100
0010
0001
1000
0010
0100
0001
1000
0010
0100
0001
,
1000
0100
1000
0010
0100
0001
0010
0001
1000
0100
0010
0001
1000
0010
1000
0001
,
0010
0100
1000
0001
0100
0001
1000
0100
0010
0001
1000
0010
0100
0001
0010
0100
,
2000
0000
0000
0000
,
0000
0000
0000
0000
,
3000
0000
0000
0000
,
MMMM
0000
0000
0000
;

//---------------dance-single - ----------------
#NOTES:
     dance-single:
     :
     Hard:
     17:
     1.000,1.000,0.045,0.221,1.000,1887.000,8.000,39.000,4.000,0.000:
0000
0000
0000
0000
,
2020
0000
0000
3030
0220
0000
0000
0330
,
0202
0000
0000
0303
2000
0000
3200
0000
,
0320
0000
0032
0203
,
0320
0000
1030
0100
0020
0000
0032
0000
,
2003
0000
0000
3000
2002
0000
0000
3003
,
0202
0000
0000
0303
0200
0000
0320
0000
,
2030
0000
3200
0320
,
0031
0000
1000
1000
1000
0000
0100
0010
,
0001
1000
0100
1000
0010
0100
0001
0010
0100
1000
0001
0100
0001
1000
0100
0010
,
0001
1000
0010
1000
0001
0100
0010
1000
0100
0010
0001
1000
0010
1000
0100
0010
,
0001
1000
0010
0100
0001
0010
0001
1000
0100
0010
0001
1000
0100
1000
0001
0100
,
0010
1000
0100
1000
0010
0100
0001
0010
0100
0010
0001
1000
0100
1000
0001
0100
,
0010
1000
0100
1000
0010
0100
0001
0010
0100
1000
0001
0100
0001
1000
0100
0010
,
0100
1000
0001
0100
0001
1000
0100
1000
0010
0100
0001
0010
0100
0010
0001
1000
,
0100
1000
0001
0100
0010
1000
0100
0010
0001
1000
0010
1000
0001
0010
0100
1000
,
0001
0100
0001
1000
0100
0010
0001
0100
0001
0010
0100
1000
0001
0100
0001
0010
,
0100
1000
0010
0100
0001
1000
0100
1000
0010
0100
0001
0010
0100
0010
0001
0000
,
1000
0100
1000
0010
0100
0001
0010
0100
1000
0001
0100
0001
0010
0100
1000
0001
,
1000
0100
1000
0100
1000
0100
0010
0100
0010
0100
0010
0100
1000
0100
1000
0100
1000
0100
1000
0010
1000
0010
1000
0010
,
1000
0100
1000
0010
0100
0001
0010
0100
1000
0001
0100
0001
1000
0100
0010
0001
,
1000
0010
1000
0001
0010
0001
1000
0100
1000
0001
0100
0001
1000
0100
0010
0001
,
1000
0010
0100
0001
1000
0100
1000
0001
0100
0001
0010
0100
1000
0001
0100
0001
,
1000
0100
1000
0100
1000
0100
1000
0010
1000
0010
1000
0010
0100
0010
0100
0010
0100
0001
0100
0001
0100
0001
0100
0001
,
0010
0100
1000
0010
0100
0001
0010
0100
1000
0001
0100
0001
1000
0100
0010
0001
,
1000
0010
1000
0001
0010
0001
1000
0100
0010
0001
1000
0010
0100
0001
0010
0100
,
1000
0001
0100
0001
1000
0100
0010
0001
1000
0010
0100
0001
0010
0001
1000
0100
,
1000
0010
1000
0010
1000
0010
0100
0010
0100
0010
0100
0001
0100
0001
1000
0001
1000
0001
1000
0001
1000
0001
1000
0001
,
0010
0100
1000
0010
0100
0001
0010
0100
1000
0001
0100
0001
1000
0100
0010
0001
,
1000
0010
1000
0001
0010
0100
1000
0001
0100
0010
1000
0100
1000
0010
0100
0001
,
0010
0100
0010
0001
1000
0100
1000
0001
0100
0001
0010
0100
1000
0001
0100
0010
,
1000
0100
1000
0100
1000
0100
1000
0010
1000
0010
1000
0010
0100
0010
0100
0010
0100
0010
0100
0001
0100
0001
0100
0001
,
0010
0100
1000
0010
0100
0001
0010
0001
1000
0100
0010
0001
1000
0001
0100
0001
,
0010
0000
0000
0100
0000
0000
1000
0000
0000
0001
0000
0000
0100
0000
0000
0001
0000
0000
1000
0000
0000
0100
0000
0000
0010
0000
0001
0000
0100
0000
0001
0000
0010
0000
0001
0000
1000
0000
0100
0000
1000
0000
0001
0000
1000
0000
0100
0000
,
0010
0001
1000
0100
1000
0010
0010
0100
,
0001
1000
0100
0100
1000
0010
0100
0001
,
0101
0000
1000
0100
0020
0030
0011
0000
,
0202
0000
0000
0303
0010
0010
0010
0010
,
1000
0100
1000
0010
0100
0001
0010
0001
1000
0100
1000
0001
0100
0001
0010
0100
,
1000
0001
0100
0001
1000
0010
1000
0100
0010
0001
1000
0010
0100
0001
0010
0001
,
1000
0100
0010
0001
1000
0100
1000
0010
0100
0010
1000
0100
0010
0001
1000
0001
,
0010
0100
1000
0001
0100
0001
1000
0100
0010
0001
1000
0010
0100
0001
1000
0100
,
1000
0001
1000
0100
1000
0010
0100
0001
0010
0001
1000
0100
0010
0001
1000
0010
,
0100
0001
1000
0100
1000
0001
0100
0010
1000
0100
1000
0010
0100
0001
0010
0100
,
1000
0001
0100
0001
1000
0100
0010
0001
1000
0100
1000
0010
0100
0001
0010
0100
,
1000
0001
0100
0001
1000
0100
0010
0001
1000
0010
1000
0001
0010
0100
1000
0001
,
0100
0001
1000
0100
0010
0001
1000
0010
0100
0001
1000
0100
1000
0010
0100
0001
,
0010
0100
1000
0001
0100
0001
1000
0100
0010
0001
1000
0010
1000
0001
0100
0010
,
1000
0100
0010
0001
1000
0010
0100
0001
0010
0001
1000
0100
0010
0001
1000
0010
,
0100
0001
1000
0100
1000
0010
0100
0001
0010
0100
1000
0100
0010
0001
1000
0100
,
2000
0000
0000
0000
3010
0100
0001
1000
0200
0000
0000
0000
2000
0000
3300
0000
,
1000
0100
1000
0010
0100
0001
0010
0001
1000
0100
0010
0001
1000
0010
1000
0001
,
0100
0010
1000
0100
1000
0001
0100
0001
0010
0100
1000
0001
0100
0001
1000
0100
,
0010
0001
1000
0010
1000
0001
0010
0001
1000
0100
0010
0001
1000
0010
0100
0001
,
0010
0100
1000
0001
0100
0001
1000
0100
0010
0001
1000
0010
0100
0001
1000
0100
,
1000
0001
1000
0100
1000
0010
0100
0001
0010
0001
1000
0100
0010
0001
1000
0010
,
0100
0001
1000
0100
1000
0010
0100
0010
1000
0100
0010
0001
1000
0001
0100
0001
,
0010
0100
0010
0001
1000
0100
0010
0001
1000
0010
0100
0001
0010
0001
1000
0100
,
0010
0001
0100
0001
0010
0100
1000
0001
0100
0001
1000
0100
0010
0001
1000
0010
,
0100
0001
0010
0001
1000
0100
0010
0001
1000
0010
0100
0001
1000
0100
1000
0001
,
1000
0100
1000
0100
1000
0100
0010
0100
0010
0100
0010
0100
1000
0100
1000
0100
1000
0100
1000
0001
1000
0001
1000
0001
,
0010
0100
1000
0010
0100
0001
0010
0100
1000
0001
0100
0001
1000
0100
0010
0001
,
1000
0010
1000
0100
0010
0001
1000
0010
0100
0001
0010
0001
1000
0100
0010
0001
,
1000
0100
1000
0001
0100
0001
0010
0100
1000
0010
0100
0001
0010
0100
1000
0001
,
1000
0001
1000
0001
1000
0001
0100
0001
0100
0001
0100
0001
0100
0010
0100
0010
0100
0010
1000
0010
1000
0010
1000
0010
,
1000
0100
1000
0001
0100
0001
0010
0100
1000
0010
0100
0001
1000
0100
0010
0001
,
1000
0010
1000
0001
0100
0010
1000
0100
0010
0001
1000
0010
0100
0001
0010
0001
,
1000
0100
0010
0001
1000
0100
1000
0001
0100
0010
1000
0100
0010
0001
1000
0010
,
1000
0100
1000
0100
1000
0100
0010
0100
0010
0100
0010
0100
1000
0100
1000
0100
1000
0100
1000
0010
1000
0010
1000
0010
,
1000
0100
1000
0010
0100
0001
0010
0100
1000
0001
0100
0010
1000
0100
1000
0010
,
0100
0001
0010
0100
0010
0001
1000
0100
0010
0001
1000
0010
1000
0001
0010
0100
,
1000
0001
0100
0001
1000
0100
0010
0001
1000
0010
0100
0010
1000
0100
0010
0001
,
1000
0010
1000
0010
1000
0010
0100
0010
0100
0010
0100
0010
1000
0100
1000
0100
1000
0100
0010
0100
0010
0100
0010
0100
,
1000
0100
1000
0010
0100
0001
0010
0100
1000
0001
0100
0010
1000
0100
1000
0010
,
0100
0001
0010
0100
0010
0001
1000
0100
0010
0001
1000
0010
0100
0001
1000
0100
,
0010
0001
1000
0100
1000
0001
0100
0001
0010
0100
1000
0010
0100
0001
1000
0100
,
0010
0001
0100
0001
1000
0100
1000
0010
0100
0001
0010
0001
1000
0100
0010
0001
,
1000
0100
1000
0010
0100
0001
0010
0100
0010
0001
1000
0100
0010
0100
1000
0001
,
0100
0001
0010
0100
1000
0000
0001
1000
0100
0010
0001
0100
0001
0010
0001
1000
,
0100
0010
0001
0100
0001
0010
0001
1000
0100
1000
0010
0100
0001
0010
0100
1000
,
0001
1000
0100
1000
0010
0100
0001
0010
0001
1000
0100
0010
0001
1000
0010
1000
,
0001
0010
0001
1000
0100
0010
0001
1000
0010
0100
0010
1000
0100
0010
0001
0100
,
0001
0010
0100
1000
0001
0100
0001
1000
0100
1000
0010
0100
0001
0010
0100
1000
,
0001
0100
0001
0010
0100
1000
0010
0100
0001
1000
0100
1000
0010
0100
0001
1000
,
0100
1000
0010
0100
0001
0010
0100
1000
0001
0100
0001
1000
0100
0010
0001
1000
,
0010
0100
0001
1000
0100
1000
0010
0100
0001
0010
0100
1000
0001
0100
0001
1000
,
0100
0010
0001
0010
0100
1000
0001
0100
0001
1000
0100
1000
0010
0100
0001
0010
,
0100
1000
0001
0100
0010
1000
0100
0010
0001
1000
0100
1000
0001
0100
0010
1000
,
0100
1000
0010
0100
0001
0010
0100
0010
0001
1000
0100
1000
0001
0100
0010
1000
,
0100
1000
0010
0100
0001
0010
0100
0010
0001
1000
0010
0100
0001
1000
0002
0000
,
1003
0100
1000
0100
1000
0100
0010
0100
0010
0100
0010
0100
0010
0001
0010
0001
0010
0001
1000
0001
1000
0001
1000
0001
,
1000
0010
1000
0100
1000
0001
0100
0001
1000
0010
0100
0001
0010
0100
1000
0001
,
0100
0010
1000
0100
1000
0010
0100
0001
0010
0100
1000
0001
0100
0001
0010
0001
,
1000
0100
0010
0001
1000
0010
1000
0001
0010
0100
1000
0001
0100
0001
1000
0100
,
0010
0001
1000
0010
1000
0100
0010
0001
1000
0001
0100
0010
1000
0100
0010
0001
,
1000
0100
0010
0001
1000
0100
1000
0001
0100
0001
0010
0100
1000
0010
0100
0001
,
1000
0100
1000
0010
0100
0001
0010
0100
0010
0001
1000
0100
0010
0001
1000
0001
,
0010
0100
1000
0010
0100
0010
1000
0100
1000
0001
0100
0001
0010
0100
1000
0001
,
2000
0000
3200
0000
0320
0000
0031
0001
,
1000
0100
0010
0001
1000
0100
0010
0001
1000
0010
0100
0001
1000
0010
0100
0001
,
1000
0100
0010
0001
1000
0100
0010
0001
1000
0010
0100
0001
1000
0010
0100
0001
,
1000
0100
1000
0001
0100
0001
0010
0001
1000
0100
0010
0001
1000
0010
0100
0001
,
1000
0100
1000
0010
0100
0001
0010
0100
1000
0001
0100
0001
1000
0100
0010
0001
,
1000
0010
0100
0001
1000
0100
1000
0010
0100
0001
0010
0100
0010
0001
1000
0100
,
1000
0001
0100
0010
1000
0100
1000
0010
0100
0001
0010
0100
0010
0001
1000
0100
,
1000
0001
0100
0001
0010
0100
1000
0010
0100
0001
1000
0100
1000
0010
0100
0001
,
0010
0100
0010
0001
1000
0100
1000
0010
0100
0001
0010
0100
1000
0001
0100
0001
,
2000
3200
2300
3002
,
1003
0100
1000
0100
1000
0100
0010
0100
0010
0100
0010
0100
0010
0001
0010
0001
0010
0001
0100
0001
0100
0001
0100
0001
,
1000
0100
1000
0010
0100
0001
0010
0100
1000
0001
0100
0001
1000
0100
1000
0010
,
0100
0001
0010
0001
1000
0100
0010
0001
1000
0010
1000
0001
0010
0100
1000
0010
,
1000
0001
0100
0001
0010
0100
1000
0010
0100
0001
1000
0100
1000
0001
0100
0001
,
1000
0001
1000
0001
1000
0001
1000
0100
1000
0100
1000
0100
1000
0001
1000
0001
1000
0001
0100
0001
0100
0001
0100
0001
,
0010
0100
1000
0010
0100
0001
0010
0100
0010
0001
1000
0100
1000
0010
0100
0001
,
0010
0001
1000
0100
0010
0001
1000
0010
1000
0001
0010
0100
0010
0001
1000
0100
,
1000
0001
0100
0001
1000
0010
0100
0001
0010
0100
0010
0001
1000
0100
1000
0001
,
0100
0010
0100
0010
0100
0010
1000
0010
1000
0010
1000
0010
1000
0100
1000
0100
1000
0100
0010
0001
0010
0001
0010
0001
,
1000
0001
1000
0100
1000
0010
0100
0001
0010
0001
1000
0100
0010
0001
1000
0010
,
1000
0001
0100
0001
0010
0100
1000
0001
0100
0001
1000
0100
1000
0010
0100
0001
,
0010
0001
1000
0100
0010
0001
1000
0010
1000
0001
0010
0100
1000
0001
0100
0001
,
1000
0001
1000
0001
1000
0001
1000
0100
1000
0100
1000
0100
1000
0001
1000
0001
1000
0001
0100
0001
0100
0001
0100
0001
,
0010
0100
1000
0010
0100
0001
0010
0001
1000
0100
0010
0001
1000
0010
1000
0001
,
0010
0100
1000
0001
0100
0001
1000
0100
0010
0001
1000
0010
0100
0001
0010
0100
,
2000
0000
0000
0000
,
0000
0000
0000
0000
,
3000
0000
0000
0000
,
MMMM
0000
0000
0000
;

//---------------dance-single - ----------------
#NOTES:
     dance-single:
     :
     Challenge:
     17:
     1.000,1.000,0.045,0.221,1.000,1887.000,8.000,39.000,4.000,0.000:

0000
0000
0000
0000
,
2020
0000
0000
3030
0220
0000
0000
0330
,
0202
0000
0000
0303
2000
0000
3200
0000
,
0320
0000
0032
0203
,
0320
0000
1030
0100
0020
0000
0032
0000
,
2003
0000
0000
3000
2002
0000
0000
3003
,
0202
0000
0000
0303
0200
0000
0320
0000
,
2030
0000
3200
0320
,
0031
0000
1000
1000
1000
0000
0100
0010
,
0001
1000
0100
1000
0010
0100
0001
0010
0100
1000
0001
0100
0001
1000
0100
0010
,
0001
1000
0010
1000
0001
0100
0010
1000
0100
0010
0001
1000
0010
1000
0100
0010
,
0001
1000
0010
0100
0001
0010
0001
1000
0100
0010
0001
1000
0100
1000
0001
0100
,
0010
1000
0100
1000
0010
0100
0001
0010
0100
0010
0001
1000
0100
1000
0001
0100
,
0010
1000
0100
1000
0010
0100
0001
0010
0100
1000
0001
0100
0001
1000
0100
0010
,
0100
1000
0001
0100
0001
1000
0100
1000
0010
0100
0001
0010
0100
0010
0001
1000
,
0100
1000
0001
0100
0010
1000
0100
0010
0001
1000
0010
1000
0001
0010
0100
1000
,
0001
0100
0001
1000
0100
0010
0001
0100
0001
0010
0100
1000
0001
0100
0001
0010
,
0100
1000
0010
0100
0001
1000
0100
1000
0010
0100
0001
0010
0100
0010
0001
0000
,
1000
0100
1000
0010
0100
0001
0010
0100
1000
0001
0100
0001
0010
0100
1000
0001
,
1000
0100
1000
0010
1000
0001
1000
0100
1000
0100
0010
0001
1000
0001
0100
0001
0010
0001
1000
0100
1000
0001
1000
0100
,
1000
0100
1000
0010
0100
0001
0010
0100
1000
0001
0100
0001
1000
0100
0010
0001
,
1000
0010
1000
0001
0010
0001
1000
0100
1000
0001
0100
0001
1000
0100
0010
0001
,
1000
0010
0100
0001
1000
0100
1000
0001
0100
0001
0010
0100
1000
0001
0100
0001
,
1000
0100
1000
0010
0100
0010
0100
0001
0100
0001
0010
0100
0010
0001
1000
0001
0100
0001
0010
0001
1000
0001
0100
0001
,
0010
0100
1000
0010
0100
0001
0010
0100
1000
0001
0100
0001
1000
0100
0010
0001
,
1000
0010
1000
0001
0010
0001
1000
0100
0010
0001
1000
0010
0100
0001
0010
0100
,
1000
0001
0100
0001
1000
0100
0010
0001
1000
0010
0100
0001
0010
0001
1000
0100
,
0010
0001
0100
0001
0010
0001
1000
0100
1000
0001
1000
0010
1000
0010
0100
0001
0100
0001
0010
0001
1000
0100
0010
0001
,
1000
0100
1000
0010
0100
0001
0010
0100
1000
0001
0100
0001
1000
0100
0010
0001
,
1000
0010
1000
0001
0010
0100
1000
0001
0100
0010
1000
0100
1000
0010
0100
0001
,
0010
0100
0010
0001
1000
0100
1000
0001
0100
0001
0010
0100
1000
0001
0100
0010
,
1000
0100
0010
0001
0010
0001
1000
0010
1000
0100
1000
0001
0100
0001
0010
0001
0100
0001
0010
0100
0010
0001
1000
0100
,
1000
0100
1000
0010
0100
0001
0010
0001
1000
0100
0010
0001
1000
0001
0100
0001
,
0010
0000
0000
0100
0000
0000
1000
0000
0000
0001
0000
0000
0100
0000
0000
0001
0000
0000
1000
0000
0000
0100
0000
0000
0010
0000
0001
0000
0100
0000
0001
0000
0010
0000
0001
0000
1000
0000
0100
0000
1000
0000
0001
0000
1000
0000
0100
0000
,
0010
0001
1000
0100
1000
0010
0010
0100
,
0001
1000
0100
0100
1000
0010
0100
0001
,
0101
0000
1000
0100
0020
0030
0011
0000
,
0202
0000
0000
0303
0010
0010
0010
0010
,
1000
0100
1000
0010
0100
0001
0010
0001
1000
0100
1000
0001
0100
0001
0010
0100
,
1000
0001
0100
0001
1000
0010
1000
0100
0010
0001
1000
0010
0100
0001
0010
0001
,
1000
0100
0010
0001
1000
0100
1000
0010
0100
0010
1000
0100
0010
0001
1000
0001
,
0010
0100
1000
0001
0100
0001
1000
0100
0010
0001
1000
0010
0100
0001
1000
0100
,
1000
0001
1000
0100
1000
0010
0100
0001
0010
0001
1000
0100
0010
0001
1000
0010
,
0100
0001
1000
0100
1000
0001
0100
0010
1000
0100
1000
0010
0100
0001
0010
0100
,
1000
0001
0100
0001
1000
0100
0010
0001
1000
0100
1000
0010
0100
0001
0010
0100
,
1000
0001
0100
0001
1000
0100
0010
0001
1000
0010
1000
0001
0010
0100
1000
0001
,
0100
0001
1000
0100
0010
0001
1000
0010
0100
0001
1000
0100
1000
0010
0100
0001
,
0010
0100
1000
0001
0100
0001
1000
0100
0010
0001
1000
0010
1000
0001
0100
0010
,
1000
0100
0010
0001
1000
0010
0100
0001
0010
0001
1000
0100
0010
0001
1000
0010
,
0100
0001
1000
0100
1000
0010
0100
0001
0010
0100
1000
0100
0010
0001
1000
0100
,
2000
0000
0000
0000
3010
0100
0001
1000
0200
0000
0000
0000
2000
0000
3300
0000
,
1000
0100
1000
0010
0100
0001
0010
0001
1000
0100
0010
0001
1000
0010
1000
0001
,
0100
0010
1000
0100
1000
0001
0100
0001
0010
0100
1000
0001
0100
0001
1000
0100
,
0010
0001
1000
0010
1000
0001
0010
0001
1000
0100
0010
0001
1000
0010
0100
0001
,
0010
0100
1000
0001
0100
0001
1000
0100
0010
0001
1000
0010
0100
0001
1000
0100
,
1000
0001
1000
0100
1000
0010
0100
0001
0010
0001
1000
0100
0010
0001
1000
0010
,
0100
0001
1000
0100
1000
0010
0100
0010
1000
0100
0010
0001
1000
0001
0100
0001
,
0010
0100
0010
0001
1000
0100
0010
0001
1000
0010
0100
0001
0010
0001
1000
0100
,
0010
0001
0100
0001
0010
0100
1000
0001
0100
0001
1000
0100
0010
0001
1000
0010
,
0100
0001
0010
0001
1000
0100
0010
0001
1000
0010
0100
0001
1000
0100
1000
0001
,
1000
0100
0010
0001
0010
0001
1000
0010
0100
0001
0010
0001
1000
0100
1000
0100
0010
0001
1000
0010
1000
0001
0100
0001
,
0010
0100
1000
0010
0100
0001
0010
0100
1000
0001
0100
0001
1000
0100
0010
0001
,
1000
0010
1000
0100
0010
0001
1000
0010
0100
0001
0010
0001
1000
0100
0010
0001
,
1000
0100
1000
0001
0100
0001
0010
0100
1000
0010
0100
0001
0010
0100
1000
0001
,
1000
0100
1000
0010
0100
0010
1000
0100
0010
0001
1000
0001
0100
0001
0010
0001
1000
0100
0010
0100
1000
0001
1000
0100
,
1000
0100
1000
0001
0100
0001
0010
0100
1000
0010
0100
0001
1000
0100
0010
0001
,
1000
0010
1000
0001
0100
0010
1000
0100
0010
0001
1000
0010
0100
0001
0010
0001
,
1000
0100
0010
0001
1000
0100
1000
0001
0100
0010
1000
0100
0010
0001
1000
0010
,
1000
0100
1000
0010
0100
0010
1000
0100
0010
0001
1000
0001
0100
0001
0010
0001
1000
0100
1000
0001
1000
0010
1000
0001
,
1000
0100
1000
0010
0100
0001
0010
0100
1000
0001
0100
0010
1000
0100
1000
0010
,
0100
0001
0010
0100
0010
0001
1000
0100
0010
0001
1000
0010
1000
0001
0010
0100
,
1000
0001
0100
0001
1000
0100
0010
0001
1000
0010
0100
0010
1000
0100
0010
0001
,
1000
0010
0100
0010
1000
0100
1000
0001
1000
0010
1000
0100
0010
0001
1000
0001
0100
0001
0010
0001
1000
0001
0100
0001
,
0010
0100
1000
0010
0100
0001
0010
0100
1000
0001
0100
0010
1000
0100
1000
0010
,
0100
0001
0010
0100
0010
0001
1000
0100
0010
0001
1000
0010
0100
0001
1000
0100
,
0010
0001
1000
0100
1000
0001
0100
0001
0010
0100
1000
0010
0100
0001
1000
0100
,
0010
0001
0100
0001
1000
0100
1000
0010
0100
0001
0010
0001
1000
0100
0010
0001
,
1000
0100
1000
0010
0100
0001
0010
0100
0010
0001
1000
0100
0010
0100
1000
0001
,
0100
0001
0010
0100
1000
0000
0001
1000
0100
0010
0001
0100
0001
0010
0001
1000
,
0100
0010
0001
0100
0001
0010
0001
1000
0100
1000
0010
0100
0001
0010
0100
1000
,
0001
1000
0100
1000
0010
0100
0001
0010
0001
1000
0100
0010
0001
1000
0010
1000
,
0001
0010
0001
1000
0100
0010
0001
1000
0010
0100
0010
1000
0100
0010
0001
0100
,
0001
0010
0100
1000
0001
0100
0001
1000
0100
1000
0010
0100
0001
0010
0100
1000
,
0001
0100
0001
0010
0100
1000
0010
0100
0001
1000
0100
1000
0010
0100
0001
1000
,
0100
1000
0010
0100
0001
0010
0100
1000
0001
0100
0001
1000
0100
0010
0001
1000
,
0010
0100
0001
1000
0100
1000
0010
0100
0001
0010
0100
1000
0001
0100
0001
1000
,
0100
0010
0001
0010
0100
1000
0001
0100
0001
1000
0100
1000
0010
0100
0001
0010
,
0100
1000
0001
0100
0010
1000
0100
0010
0001
1000
0100
1000
0001
0100
0010
1000
,
0100
1000
0010
0100
0001
0010
0100
0010
0001
1000
0100
1000
0001
0100
0010
1000
,
0100
1000
0010
0100
0001
0010
0100
0010
0001
1000
0010
0100
0001
1000
0002
0000
,
1003
0100
1000
0010
1000
0100
0010
0001
1000
0001
0100
0001
0010
0100
1000
0010
1000
0001
1000
0100
1000
0100
0010
0001
,
1000
0010
1000
0100
1000
0001
0100
0001
1000
0010
0100
0001
0010
0100
1000
0001
,
0100
0010
1000
0100
1000
0010
0100
0001
0010
0100
1000
0001
0100
0001
0010
0001
,
1000
0100
0010
0001
1000
0010
1000
0001
0010
0100
1000
0001
0100
0001
1000
0100
,
0010
0001
1000
0010
1000
0100
0010
0001
1000
0001
0100
0010
1000
0100
0010
0001
,
1000
0100
0010
0001
1000
0100
1000
0001
0100
0001
0010
0100
1000
0010
0100
0001
,
1000
0100
1000
0010
0100
0001
0010
0100
0010
0001
1000
0100
0010
0001
1000
0001
,
0010
0100
1000
0010
0100
0010
1000
0100
1000
0001
0100
0001
0010
0100
1000
0001
,
2000
0000
3200
0000
0320
0000
0031
0001
,
1000
0100
0010
0001
1000
0100
0010
0001
1000
0010
0100
0001
1000
0010
0100
0001
,
1000
0100
0010
0001
1000
0100
0010
0001
1000
0010
0100
0001
1000
0010
0100
0001
,
1000
0100
1000
0001
0100
0001
0010
0001
1000
0100
0010
0001
1000
0010
0100
0001
,
1000
0100
1000
0010
0100
0001
0010
0100
1000
0001
0100
0001
1000
0100
0010
0001
,
1000
0010
0100
0001
1000
0100
1000
0010
0100
0001
0010
0100
0010
0001
1000
0100
,
1000
0001
0100
0010
1000
0100
1000
0010
0100
0001
0010
0100
0010
0001
1000
0100
,
1000
0001
0100
0001
0010
0100
1000
0010
0100
0001
1000
0100
1000
0010
0100
0001
,
0010
0100
0010
0001
1000
0100
1000
0010
0100
0001
0010
0100
1000
0001
0100
0001
,
2000
3200
2300
3002
,
1003
0010
0100
0001
0100
0001
0010
0100
1000
0010
1000
0001
1000
0100
1000
0010
0100
0010
0100
0001
0010
0100
1000
0001
,
1000
0100
1000
0010
0100
0001
0010
0100
1000
0001
0100
0001
1000
0100
1000
0010
,
0100
0001
0010
0001
1000
0100
0010
0001
1000
0010
1000
0001
0010
0100
1000
0010
,
1000
0001
0100
0001
0010
0100
1000
0010
0100
0001
1000
0100
1000
0001
0100
0001
,
1000
0100
0010
0100
1000
0010
1000
0100
0010
0001
1000
0001
0100
0001
0100
0010
1000
0100
0010
0001
1000
0001
1000
0100
,
1000
0100
1000
0010
0100
0001
0010
0100
0010
0001
1000
0100
1000
0010
0100
0001
,
0010
0001
1000
0100
0010
0001
1000
0010
1000
0001
0010
0100
0010
0001
1000
0100
,
1000
0001
0100
0001
1000
0010
0100
0001
0010
0100
0010
0001
1000
0100
1000
0001
,
1000
0100
1000
0010
0100
0010
1000
0100
0010
0001
1000
0001
1000
0100
1000
0100
0010
0001
1000
0010
1000
0010
0100
0001
,
1000
0001
1000
0100
1000
0010
0100
0001
0010
0001
1000
0100
0010
0001
1000
0010
,
1000
0001
0100
0001
0010
0100
1000
0001
0100
0001
1000
0100
1000
0010
0100
0001
,
0010
0001
1000
0100
0010
0001
1000
0010
1000
0001
0010
0100
1000
0001
0100
0001
,
1000
0100
0010
0001
1000
0001
1000
0010
0100
0001
0010
0100
1000
0010
1000
0100
0010
0001
1000
0001
0100
0001
0010
0100
,
1000
0100
1000
0010
0100
0001
0010
0001
1000
0100
0010
0001
1000
0010
1000
0001
,
0010
0100
1000
0001
0100
0001
1000
0100
0010
0001
1000
0010
0100
0001
0010
0100
,
2000
0000
0000
0000
,
0000
0000
0000
0000
,
3000
0000
0000
0000
,
MMMM
0000
0000
0000
;
