#TITLE:Boss machine;
#SUBTITLE:;
#ARTIST:DM Ashura;
#TITLETRANSLIT:;
#SUBTITLETRANSLIT:;
#ARTISTTRANSLIT:;
#CREDIT:Aoreo;
#BANNER:../Beast - bn.png;
#BACKGROUND:../Beast - bg.png;
#LYRICSPATH:;
#CDTITLE:!dan23title.png;
#MUSIC:Boss Machine.ogg;
#OFFSET:-1.547;
#SAMPLESTART:78.020;
#SAMPLELENGTH:15.000;
#SELECTABLE:YES;
#BPMS:0.000=160.000;
#STOPS:;
#BGCHANGES:;
// cache tags:
#FIRSTBEAT:12.000;
#LASTBEAT:334.000;
#SONGFILENAME:Songs/Beast Aoreo BEAST! 2/Boss Machine - [Aoreo]/Boss Machine.sm;
#HASMUSIC:1;
#HASBANNER:1;
#MUSICLENGTH:105.000;
// end cache tags

//---------------dance-single - ----------------
#NOTES:
     dance-single:
     :
     Challenge:
     13:
     1.000,1.000,0.000,0.371,1.000,1154.000,0.000,39.000,0.000,0.000:
0000
0000
0000
0000
,
0000
0000
0000
0000
,
0000
0000
0000
0000
,
1000
0100
1000
0000
0001
0000
0100
0001
0100
0000
0010
0000
1000
0010
1000
0000
,
0001
0100
0010
0000
1000
0010
0100
0000
0001
0010
0001
0000
1000
0100
0010
0000
,
0100
1000
0100
0000
1000
0000
0001
0100
0001
0000
0100
0000
0010
1000
0010
0000
,
0100
0001
0010
0000
0001
1000
0100
0000
1000
0010
0100
0000
0001
1000
0001
0000
,
0100
0001
0100
0000
0001
0000
1000
0100
1000
0000
0010
0000
0100
0001
0100
0000
,
0001
1000
0100
0000
1000
0010
0100
0000
0001
0100
0010
0000
0100
0001
1000
0000
,
0010
0100
0010
0000
0100
0000
0001
1000
0001
0000
1000
0000
0010
0100
0010
0000
,
1000
0100
0010
0000
0001
0100
0010
0000
1000
0010
0100
0000
0001
0100
0010
0000
,
0100
0000
0001
0000
0001
0000
1000
0000
0100
0000
0100
0000
1000
0000
0001
0100
,
0020
0030
0000
0000
0200
0300
0000
0000
0002
0003
0000
0000
2000
3000
0000
0000
0200
0300
0000
0000
2000
3000
0000
0000
0020
0000
0030
0000
0100
0000
0000
0000
,
0001
0000
0001
0000
0100
0000
0010
0000
0010
0000
1000
0000
0100
0000
1000
0001
,
0200
0300
0000
0000
0002
0003
0000
0000
2000
3000
0000
0000
0200
0300
0000
0000
0020
0000
0000
0000
0000
0000
0000
0000
0032
0000
0000
0000
0000
0000
0000
0000
,
1003
0000
0100
0000
0100
0000
1000
0000
0010
0000
0010
0000
0100
0000
0001
1000
,
0100
1000
0010
0100
0001
0010
0100
0010
,
0001
0000
0000
0100
0000
0000
0001
0000
0000
1000
0000
0000
0010
0000
0000
0100
0000
0000
0001
0000
1000
0000
0001
0000
1000
0000
0000
0100
0000
0000
0010
0000
0000
0100
0000
0000
1000
0000
0000
0001
0000
0000
0100
0000
0001
0000
0100
0000
,
0010
0000
0000
0100
0000
0000
0001
0000
0000
1000
0000
0000
0010
0000
0000
0100
0000
0000
0001
0000
1000
0000
0100
0000
1000
0000
0000
0001
0000
0000
0100
0000
0000
0010
0000
0000
1000
0000
0010
0000
0100
0000
0001
0000
0010
0000
0100
0000
,
1000
0001
1000
0100
0010
0100
1000
0001
0100
0010
1000
0001
0100
0010
0100
0001
,
1000
0100
1000
0001
0010
0100
0010
0001
1000
0001
0100
0010
0100
0001
1000
0100
,
0010
0100
1000
0001
1000
0010
0100
0001
0010
0001
1000
0100
1000
0010
0100
0001
,
1000
0100
0010
0100
1000
0001
0100
0010
0100
0001
1000
0001
0010
0100
1000
0001
,
0100
0001
0100
0010
1000
0001
1000
0100
0010
0100
1000
0001
1000
0100
0010
0001
,
1000
0001
0010
0100
1000
0010
0100
0010
1000
0001
1000
0010
0100
0001
0010
0001
,
1000
0100
0010
0100
1000
0001
0100
0010
0100
0001
1000
0001
0010
0100
1000
0001
,
1000
0100
0010
0001
1000
0001
1000
0010
0100
0010
1000
0001
0010
0100
0010
0001
,
1000
0100
0010
0100
1000
0001
1000
0010
0100
0001
0100
0010
1000
0001
0100
0010
,
1000
0001
0010
0001
1000
0100
1000
0010
0100
0001
0010
0001
0100
0010
1000
0100
,
0010
0001
1000
0001
1000
0010
0100
0001
0100
0010
1000
0001
1000
0001
0100
0010
,
1000
0100
1000
0010
0100
0001
0010
0001
0100
0010
1000
0100
1000
0010
0100
0001
,
0010
0001
1000
0001
1000
0100
0010
0001
0010
0100
1000
0001
1000
0010
0100
0010
,
1000
0001
0010
0001
1000
0100
0010
0100
1000
0001
1000
0010
0100
0001
1000
0010
,
0100
0000
0000
0001
0000
0000
0100
0000
0000
0010
0000
0000
1000
0000
0000
0001
0000
0000
1000
0000
0010
0000
0100
0000
0001
0000
0000
0100
0000
0000
0001
0000
0000
1000
0000
0000
0100
0000
0000
1000
0000
0000
0001
0000
0100
0000
0010
0000
,
0100
0000
0000
0001
0000
0000
1000
0000
0000
0010
0000
0000
0100
0000
0000
0010
0000
0000
1000
0000
0100
0000
0010
0000
0001
0000
0000
1000
0000
0000
0001
0000
0000
0100
0000
0000
0010
0000
1000
0000
0001
0000
0010
0000
0100
0000
1000
0000
,
0001
1000
0010
0100
0010
1000
0001
0010
0100
0010
0001
1000
0100
0010
0100
1000
,
0001
0100
0010
0100
0001
1000
0010
0100
0010
1000
0001
1000
0100
0010
0001
1000
,
0001
0010
0001
0100
0010
0100
0001
1000
0100
0010
0100
1000
0001
0010
0100
1000
,
0001
1000
0100
0010
0001
1000
0010
0100
0010
1000
0001
0100
0010
0100
0001
0010
,
0100
1000
0001
0010
0001
1000
0100
0010
0001
1000
0100
1000
0010
0100
0010
1000
,
0001
0010
0001
1000
0010
0100
0010
1000
0001
1000
0100
0010
0001
1000
0001
0010
,
0100
1000
0001
0100
0010
0100
0001
1000
0100
0010
0100
1000
0001
0100
0001
1000
,
0010
1000
0010
0100
0001
1000
0001
0010
0100
0010
0001
1000
0100
1000
0010
0100
,
0001
0100
0001
1000
0001
0010
0100
1000
0010
0100
0001
1000
0100
0010
0001
0100
,
0010
1000
0001
1000
0010
1000
0100
0010
0001
0100
0001
0100
0010
1000
0100
0010
,
0001
0100
0010
0100
0001
1000
0100
0010
0001
1000
0010
1000
0001
0100
0010
1000
,
0001
0010
0100
1000
0010
0100
0001
1000
0100
0010
0001
0010
0100
1000
0100
0010
,
0100
1000
0010
0100
0001
0100
0001
1000
0010
1000
0100
0010
0001
0100
0010
1000
,
0001
0100
0010
1000
0001
0010
0100
1000
0001
0010
0100
1000
0010
0100
0001
1000
,
0010
0000
0000
0100
0000
0000
0001
0000
0000
1000
0000
0000
0010
0000
0000
1000
0000
0000
0001
0000
1000
0000
0100
0000
0010
0000
0000
0100
0000
0000
1000
0000
0000
0001
0000
0000
0100
0000
0000
0001
0000
0000
0010
0000
0100
0000
1000
0000
,
0001
0000
0000
1000
0000
0000
0100
0000
0000
1000
0000
0000
0010
0000
0000
0100
0000
0000
0001
0000
1000
0000
0010
0000
0100
0000
0000
0001
0000
0000
1000
0000
0000
0100
0000
0000
1000
0000
0010
0000
0100
0000
0001
0000
0010
0000
0100
0000
,
1000
0100
0010
0100
1000
0001
0100
0010
0100
0001
1000
0001
0010
0100
1000
0001
,
1000
0100
0010
0100
1000
0001
0100
0010
1000
0001
1000
0100
0010
0100
1000
0001
,
0100
0010
1000
0001
0100
0010
0100
0001
1000
0100
1000
0001
0010
0100
0010
0001
,
1000
0001
0100
0010
0100
0001
1000
0100
0010
0100
1000
0001
1000
0010
0100
0001
,
0010
0001
1000
0100
1000
0010
0100
0001
1000
0100
0010
0100
1000
0001
0100
0010
,
0100
0001
1000
0001
0010
0100
1000
0001
0100
0001
0100
0010
1000
0001
1000
0100
,
0010
0100
1000
0001
1000
0100
0010
0001
1000
0001
0010
0100
1000
0010
0100
0010
,
1000
0001
1000
0010
0100
0001
0010
0001
1000
0100
0010
0100
1000
0001
0100
0010
,
0100
0001
1000
0001
0010
0100
1000
0001
1000
0100
0010
0001
1000
0001
1000
0010
,
0100
0010
1000
0001
0010
0100
0010
0001
1000
0100
0010
0100
1000
0001
1000
0010
,
0100
0001
0010
0001
0100
0010
1000
0100
0010
0001
1000
0001
1000
0010
0100
0001
,
0100
0010
1000
0001
1000
0001
0100
0010
1000
0100
1000
0010
0100
0001
0010
0001
,
0100
0010
1000
0100
1000
0010
0100
0001
0010
0001
1000
0001
1000
0100
0010
0001
,
0010
0100
1000
0001
1000
0010
0100
0010
1000
0001
0010
0001
1000
0100
0010
0100
,
1000
0000
0000
0001
0000
0000
0100
0000
0000
0001
0000
0000
1000
0000
0000
0010
0000
0000
0100
0000
0001
0000
1000
0000
0010
0000
0000
0100
0000
0000
0001
0000
0000
1000
0000
0000
0100
0000
0000
1000
0000
0000
0001
0000
0010
0000
0100
0000
,
1000
0000
0000
0001
0000
0000
0100
0000
0000
0010
0000
0000
0100
0000
0000
0001
0000
0000
1000
0000
0001
0000
0100
0000
0010
0000
0000
0100
0000
0000
0001
0000
0000
1000
0000
0000
0001
0000
0010
0000
0100
0000
1000
0000
0010
0000
0100
0000
,
0001
0010
0100
0010
0001
1000
0010
0100
0010
1000
0001
1000
0100
0010
0001
1000
,
0001
0010
0100
0010
0001
1000
0010
0100
0001
1000
0001
0010
0100
0010
0001
1000
,
0010
0100
0001
1000
0010
0100
0010
1000
0001
0010
0001
1000
0100
0010
0100
1000
,
0001
1000
0010
0100
0010
1000
0001
0010
0100
0010
0001
1000
0001
0100
0010
1000
,
0100
1000
0001
0010
0001
0100
0010
1000
0001
0010
0100
0010
0001
1000
0010
0100
,
0010
1000
0001
1000
0100
0010
0001
1000
0010
1000
0010
0100
0001
1000
0001
0010
,
0100
0010
0001
1000
0001
0010
0100
1000
0001
1000
0100
0010
0001
0100
0010
0100
,
0001
1000
0001
0100
0010
1000
0100
1000
0001
0010
0100
0010
0001
1000
0010
0100
,
0001
0000
1000
0000
1000
0000
0001
0000
0010
0000
0010
0000
0001
0000
1000
0010
,
0200
0300
0000
0000
0020
0030
0000
0000
2000
3000
0000
0000
0002
0003
0000
0000
0020
0030
0000
0000
0002
0003
0000
0000
0200
0300
0000
0000
0010
0000
0000
0000
,
1000
0000
1000
0000
0010
0000
0100
0000
0100
0000
0001
0000
0010
0000
0001
1000
,
0020
0030
0000
0000
2000
3000
0000
0000
0002
0003
0000
0000
0020
0030
0000
0000
0200
0000
0000
0000
0000
0000
0000
0000
2300
0000
0000
0000
0000
0000
0000
0000
,
3001
0000
0010
0000
0010
0000
0001
0000
0100
0000
0100
0000
0010
0000
1000
0001
,
0020
0030
0000
0000
0002
0003
0000
0000
0200
0300
0000
0000
0020
0030
0000
0000
2000
3000
0000
0000
0200
0300
0000
0000
0020
0030
0000
0000
0100
0000
0000
0000
,
1000
0000
0010
0000
0010
0000
0100
0000
0001
0000
0001
0000
1000
0000
0001
0100
,
0020
0030
0000
0000
0200
0300
0000
0000
0002
0003
0000
0000
2000
3000
0000
0000
0020
0000
0000
0000
0000
0000
0000
0000
0130
0000
0000
0000
0000
0000
0000
0000
,
0002
0000
0003
0000
;
