#TITLE:Reality;
#SUBTITLE:;
#ARTIST:The Berzerker;
#TITLETRANSLIT:;
#SUBTITLETRANSLIT:;
#ARTISTTRANSLIT:;
#CREDIT:;
#BANNER:Reality-bn.png;
#BACKGROUND:Reality-bg.png;
#LYRICSPATH:;
#CDTITLE:super_sonic.png;
#MUSIC:Reality.mp3;
#OFFSET:0.040;
#SAMPLESTART:29.580;
#SAMPLELENGTH:12.500;
#SELECTABLE:YES;
#BPMS:0.000=259.000;
#STOPS:;
#BGCHANGES:;
// cache tags:
#FIRSTBEAT:50.000;
#LASTBEAT:340.333;
#SONGFILENAME:Songs/Definitive Keyboard Megapack/Reality(SonicX)/Reality.sm;
#HASMUSIC:1;
#HASBANNER:1;
#MUSICLENGTH:80.694;
// end cache tags

//---------------dance-single - ----------------
#NOTES:
     dance-single:
     :
     Hard:
     14:
     1.000,1.000,0.025,0.074,1.000,714.000,2.000,6.000,0.000,0.000:
0000
0000
0000
0000
,
0000
0000
0000
0000
,
0000
0000
0000
0000
,
0000
0000
0000
0000
,
0000
0000
0000
0000
,
0000
0000
0000
0000
,
0000
0000
0000
0000
,
0000
0000
0000
0000
,
0000
0000
0000
0000
,
0000
0000
0000
0000
,
0000
0000
0000
0000
,
0000
0000
0000
0000
,
0000
0000
1000
0001
,
0100
0010
1000
0010
,
0100
0000
0000
0000
0001
1000
0001
1000
0001
0000
0000
0000
1000
0000
0000
0000
,
0010
0000
0100
0000
0001
0010
0100
1000
,
0001
0000
1000
0010
1000
0000
0000
0000
1000
0000
0010
0000
0100
0000
0001
0000
,
1000
0100
0010
0001
0010
0100
1000
0001
,
0100
0000
0001
0000
1000
0100
1000
0000
0001
0000
0010
0000
0100
0000
1000
0000
,
0100
0010
0001
0100
0010
1000
0100
0010
,
0001
1000
0001
0000
1000
0100
1000
0001
,
0010
0001
0100
0010
1000
0100
0010
0001
,
0010
0001
1000
0100
0010
0100
1000
0010
,
1000
0001
1000
0000
0010
0000
0100
0000
0001
0000
0100
0000
0010
0000
1000
0000
,
0100
0010
0001
0100
0010
1000
0001
0010
,
0001
1000
0010
1000
0001
0010
0100
1000
,
0001
0100
0010
1000
0100
1000
0001
0010
,
0001
0100
0010
1000
0100
0010
0001
0100
,
0010
1000
0010
1000
0001
0010
0100
1000
,
0010
0100
0001
0100
0010
1000
0100
0010
,
0001
1000
0100
1000
0001
0010
0100
0010
,
0001
0000
0100
0000
0010
0000
1000
0001
1000
0000
0010
0000
0100
0000
0001
0000
,
1000
0010
1000
0010
1000
0010
1000
0010
2000
0000
0000
0000
0000
0000
0000
0000
,
3000
0000
0000
0000
,
0000
0000
0000
0000
0001
1000
0001
1000
0001
0000
0000
0000
0000
0000
0000
0000
,
0000
0000
0000
0000
1000
0100
0010
0001
,
1000
0000
0001
0010
0001
0000
0000
0000
1000
0001
1000
0001
1000
0001
1000
0001
,
1000
0100
1000
0100
1000
0100
1000
0100
1000
0010
1000
0010
1000
0010
1000
0010
,
0100
0010
0100
0010
0100
0010
0100
0010
0100
0001
0100
0001
0100
0001
0100
0001
,
0010
0001
0010
0001
0010
0001
0010
0001
0100
0010
0100
0010
0100
0010
0100
0010
,
1000
0001
1000
0001
1000
0001
1000
0000
0010
0000
0000
0000
1000
0000
0000
0000
,
0010
0100
0001
1000
,
0010
0100
0001
0010
,
0100
1000
0100
0010
,
0001
0000
1000
0010
,
1000
0001
0100
0001
,
1000
0100
1000
0001
,
0010
0001
0100
0010
,
1000
0000
0000
0000
0000
0000
0000
0000
0001
1000
0001
1000
0001
1000
0001
1000
,
0001
0010
0001
0010
0001
0010
0001
0010
0001
0100
0001
0100
0001
0100
0001
0100
,
0010
0100
0010
0100
0010
0100
0010
0100
0010
1000
0010
1000
0010
1000
0010
1000
,
0100
1000
0100
1000
0100
1000
0100
1000
0001
0010
0001
0010
0001
0010
0001
0010
,
0001
1000
0001
1000
0001
1000
0001
1000
0010
0100
0010
0100
0010
0100
0010
0100
,
0010
1000
0010
1000
0010
1000
0010
1000
0100
1000
0100
1000
0100
1000
0100
1000
,
0001
0100
0001
0100
0001
0100
0001
0100
0010
0100
0010
0100
0010
0100
0010
0100
,
0001
1000
0001
1000
0001
1000
0001
1000
0001
0100
0001
0100
0001
0100
0001
0100
,
0010
1000
0010
1000
0010
1000
0010
1000
0010
0000
0100
0000
0001
0000
0010
0000
,
0100
1000
0100
0010
0001
0100
0010
1000
,
0100
0010
0001
1000
0010
1000
0001
0100
,
0001
1000
0100
0010
0001
0100
0010
1000
,
0001
0010
0001
0000
1000
0100
0010
0001
,
1000
0010
1000
0001
0010
0100
1000
0001
,
0010
0100
1000
0010
0100
0001
1000
0010
,
0100
0001
1000
0000
0001
0010
0100
0010
,
0001
1000
0001
0000
0220
0000
0000
0000
,
0330
0000
0000
0000
0001
1000
0001
1000
0001
0000
0000
0000
0000
0000
0000
0000
,
0000
0100
1000
0001
0010
0000
0000
0000
,
0000
0000
0000
0000
0001
1000
0001
1000
0001
0000
0100
0010
0100
0000
0001
0000
,
1000
0010
1000
0010
2000
0000
0000
3000
0001
0010
0001
0010
0001
0010
0001
0010
,
0100
1000
0100
1000
0100
1000
0100
1000
0010
0100
0010
0100
0010
0100
0010
0100
,
0001
0100
0001
0100
0001
0100
0001
0100
0010
1000
0010
1000
0010
1000
0010
1000
,
0001
1000
0001
1000
0001
1000
0001
1000
0010
0100
0010
0100
0010
0100
0010
0100
,
0001
1000
0001
1000
0001
1000
0001
1000
0001
0100
0001
0100
0001
0100
0001
0100
,
0010
1000
0010
1000
0010
1000
0010
1000
0001
0010
0001
0010
0001
0010
0001
0010
,
0100
1000
0100
1000
0100
1000
0100
1000
0001
0100
0001
0100
0001
0100
0001
0100
,
0001
1000
0001
1000
0001
1000
0001
1000
0010
1000
0010
1000
0010
1000
0010
1000
,
0010
0100
0010
0100
0010
0100
0010
0100
0001
0010
0001
0010
0001
0010
0001
0010
,
0100
0010
0100
0010
0100
0010
0100
0010
0100
1000
0100
1000
0100
1000
0100
1000
,
0001
1000
0001
1000
0001
1000
0001
1000
0001
0010
0001
0010
0001
0010
0001
0010
,
0001
0100
0001
0100
0001
0100
0001
0100
0010
1000
0010
1000
0010
1000
0010
1000
,
0100
1000
0100
1000
0100
1000
0100
1000
0001
1000
0001
1000
0001
1000
0001
1000
,
0010
0100
0010
0100
0010
0100
0010
0100
0001
0100
0001
0100
0001
0100
0001
0100
,
0010
1000
0010
1000
0010
1000
0010
1000
0010
0000
0100
0000
0001
0000
1000
0000
,
0010
1000
0010
0100
0001
0010
0100
0010
,
2002
0000
0000
0000
0000
0000
0000
0000
0000
0000
0000
3000
,
0000
0003
0000
0000
0000
0000
0000
0000
0000
0000
0000
0000
;

//---------------dance-single - ----------------
#NOTES:
     dance-single:
     :
     Challenge:
     15:
     1.000,1.000,1.000,0.074,1.000,721.000,224.000,6.000,0.000,0.000:
0000
0000
0000
0000
,
0000
0000
0000
0000
,
0000
0000
0000
0000
,
0000
0000
0000
0000
,
0000
0000
0000
0000
,
0000
0000
0000
0000
,
0000
0000
0000
0000
,
0000
0000
0000
0000
,
0000
0000
0000
0000
,
0000
0000
0000
0000
,
0000
0000
0000
0000
,
0000
0000
0000
0000
,
0000
0000
0110
1100
,
1001
0101
0110
1010
,
1001
0000
0000
0000
1000
0010
0100
0001
1000
0000
0000
0000
0110
0000
0000
0000
,
0011
0000
0110
0000
1100
0110
0011
0101
,
0110
0000
1000
0100
0010
0000
0000
0000
1100
0000
0110
0000
0011
0000
0101
0000
,
0110
1010
1001
0011
0110
1100
0110
0011
,
0101
0000
0110
0000
1000
0100
0010
0000
1100
0000
0110
0000
0101
0000
1010
0000
,
1100
0011
0101
1010
0201
0010
1000
0001
,
0010
1000
0001
0300
1001
0110
1001
0101
,
0110
1010
1100
0101
0110
1001
0110
0101
,
0110
0011
1100
1001
0110
1100
0101
1010
,
0001
0010
0100
0000
0110
0000
1001
0000
0110
0000
1100
0000
0110
0000
0011
0000
,
0110
0101
1010
0101
0110
1100
0110
0011
,
1010
0101
0110
1010
0110
1100
1001
0110
,
0101
1010
0011
1001
0110
1100
0101
0011
,
1010
1001
0110
1001
1010
0110
0011
1100
,
0110
1001
0101
1010
0011
0110
1100
0110
,
1001
0011
0110
1001
1010
0110
0101
0110
,
1010
0101
1010
0110
0011
0110
1100
0101
,
1001
0000
0101
0000
0110
0000
1000
0100
0010
0000
0110
0000
0101
0000
1001
0000
,
0010
0100
0001
0010
0100
0010
0001
1000
0200
0000
0000
0000
0000
0000
0000
0000
,
0300
0000
0000
0000
,
0000
0000
0000
0000
1000
0001
1000
0001
1000
0000
0000
0000
0000
0000
0000
0000
,
0000
0000
0000
0000
1100
0110
0101
0011
,
0101
0000
1000
0010
0100
0000
0000
0000
1000
0100
0010
0001
0010
0100
1000
0010
,
0100
0001
0100
0010
1000
0001
0010
0100
1000
0001
0100
0010
1000
0001
0010
0001
,
0100
0010
1000
0100
0010
0001
0010
0100
1000
0010
0100
0001
0100
0010
1000
0100
,
0010
0100
1000
0001
0100
0010
1000
0010
0100
0001
0100
0010
0100
0010
1000
0100
,
0010
0001
1000
0010
0100
0001
1000
0000
1100
0000
0000
0000
0011
0000
0000
0000
,
1100
0011
0110
1001
,
0101
1010
0011
0101
,
1010
1001
0110
1001
,
0110
0000
1100
0011
,
1100
0101
1010
0101
,
0110
1001
1100
0011
,
1010
0101
1010
0110
,
1010
0000
0000
0000
0000
0000
0000
0000
0010
0100
0001
0100
0010
1000
0001
0010
,
0100
1000
0010
0100
0001
0010
0001
0100
0010
1000
0001
0100
0010
1000
0100
0010
,
0001
0100
0010
1000
0001
0010
0100
1000
0010
0100
0001
1000
0100
0010
0001
0100
,
0010
1000
0001
1000
0010
0100
0001
0010
0100
1000
0001
0100
0010
1000
0100
0010
,
0100
1000
0010
0100
0001
0010
0001
0100
0010
1000
0001
0100
0010
1000
0010
0100
,
0001
1000
0100
0010
0001
1000
0100
0010
0001
0010
0100
1000
0001
0010
0100
1000
,
0010
0100
0010
1000
0010
0100
0001
0010
0100
1000
0010
0100
0001
0100
0010
1000
,
0100
0010
0001
0100
0010
1000
0001
0010
0100
1000
0010
0100
0001
1000
0100
1000
,
0010
0100
0001
0100
0010
1000
0001
1000
0010
0000
0110
0000
1001
0000
0110
0000
,
0101
1010
1001
0101
0011
1010
1100
0101
,
1010
0011
1001
1100
0110
0011
1010
1001
,
0110
1010
0101
0011
1100
0011
1010
0110
,
0101
1001
1100
0000
1010
0101
0110
1010
,
0011
1001
1100
0110
0011
1010
1001
1100
,
0110
0101
1001
1100
0110
0011
1001
1100
,
0101
0011
1100
0000
1010
1001
1010
0110
,
0011
0101
1001
0000
0220
0000
0000
0000
,
0330
0000
0000
0000
0001
1000
0001
1000
0001
0000
0000
0000
0000
0000
0000
0000
,
0000
0100
1000
0001
0010
0000
0000
0000
,
0000
0000
0000
0000
0100
0010
0100
0010
0100
0000
0001
0010
0100
0000
1000
0000
,
0010
0000
0100
0000
0001
0000
1000
0000
0001
0010
0100
1000
0001
0010
0100
1000
0001
0000
0010
0000
0100
0000
1000
0000
0001
0000
0010
0000
0100
0000
1000
0000
,
0010
0100
0001
1000
0010
0100
0001
0100
0010
1000
0100
0010
0001
0010
0100
1000
,
0100
0010
0001
0100
0010
1000
0001
0100
0010
1000
0100
0010
0100
1000
0100
0010
,
0001
0010
0100
0010
0100
1000
0001
0010
0100
1000
0001
0100
0010
1000
0001
0100
,
0010
1000
0010
0100
0001
0100
0010
1000
0100
0010
0001
0010
0001
0100
0010
1000
,
0010
1000
0100
0010
0001
0100
0010
1000
0100
0010
0001
0100
0010
1000
0001
0100
,
0001
1000
0010
1000
0001
0100
0010
1000
0100
0010
0001
0010
0100
1000
0001
0100
,
0001
1000
0010
0100
0010
1000
0001
0100
0010
1000
0100
0010
0001
1000
0001
1000
,
0100
0010
0001
0010
0100
1000
0010
0100
0001
0100
0010
1000
0100
0010
0100
0010
,
0001
0010
0100
1000
0001
0100
0010
1000
0100
1000
0010
0100
0010
1000
0001
0100
,
0010
1000
0010
0100
0001
0010
0100
1000
0100
0010
0001
0010
0100
1000
0001
0010
,
0001
0100
0010
1000
0100
0010
0001
0010
0100
1000
0100
0010
0001
0010
0100
0010
,
0100
1000
0001
0100
0010
1000
0010
0100
0001
0010
0100
1000
0001
0010
0100
1000
,
0010
0100
0001
0010
0100
0010
0001
0100
0010
1000
0001
0100
0001
1000
0100
0010
,
0100
1000
0010
0100
0010
1000
0001
1000
0001
0000
0010
0000
0100
0000
1000
0000
,
0010
1000
0010
0100
1001
0010
0100
0010
,
2002
0000
0000
0000
0000
0000
0000
0000
0000
0000
0000
3000
,
0000
0003
0000
0000
0000
0000
0000
0000
0000
0000
0000
0000
;
