#TITLE:グリーンヒルゾーン【Crystiara Remix】;
#SUBTITLE:VCP 12 [PAD/KB];
#ARTIST:初音ミク;
#TITLETRANSLIT:Green Hill Zone (Crystiara Remix);
#SUBTITLETRANSLIT:;
#ARTISTTRANSLIT:Hatsune Miku;
#CREDIT:owenviau1;
#BANNER:BN.PNG;
#BACKGROUND:BG.PNG;
#LYRICSPATH:;
#CDTITLE:ov1_title.png;
#MUSIC:Hatsune Miku - Green Hill Zone (Crystiara Remix).mp3;
#OFFSET:-1.240;
#SAMPLESTART:87.008;
#SAMPLELENGTH:29.999;
#SELECTABLE:YES;
#BPMS:0.000=134.010;
#STOPS:;
#BGCHANGES:;
// cache tags:
#FIRSTBEAT:0.000;
#LASTBEAT:784.000;
#SONGFILENAME:Songs/Owenviau1 Simfiles 4/Hatsune Miku - Green Hill Zone (Crystiara Remix) [owenviau1]/Hatsune Miku - Green Hill Zone (Crystiara Remix).sm;
#HASMUSIC:1;
#HASBANNER:1;
#MUSICLENGTH:355.247;
// end cache tags

//---------------dance-single - ----------------
#NOTES:
     dance-single:
     :
     Challenge:
     11:
     0.862,0.910,0.155,0.045,0.957,2073.000,55.000,16.000,41.000,0.000:
1000
0000
0100
0000
0010
0000
0001
0000
1000
0000
0000
0010
0100
0000
0000
0000
,
0001
0000
1000
0000
0010
0000
0100
0000
0001
0000
0000
1000
0001
0000
0000
0000
,
0100
0000
0010
0000
1000
0000
0010
0000
0100
0000
0000
0001
0010
0000
0000
0000
,
1000
0000
0100
0000
0010
0000
0001
0000
1000
0000
0000
0001
0100
0000
0000
0000
,
0001
0000
1000
0000
0010
0000
0100
0000
0001
0000
0000
1000
0100
0000
0000
0000
,
0010
0000
0001
0000
1000
0000
0010
0000
0100
0000
0000
0001
0010
0000
0000
0000
,
1000
0000
0100
0000
0001
0000
0100
0000
1000
0000
0000
0010
0100
0000
0000
0000
,
0001
0000
0010
0000
0100
0000
1000
0000
0010
0000
0000
1000
0001
0000
0000
0000
,
1001
0000
0100
0000
0010
0000
0001
0000
0100
0000
0000
1000
0010
0000
0000
0000
,
0100
0000
0001
0000
0010
0000
0100
0000
1000
0000
0000
0001
0100
0000
0000
0000
,
0010
0000
1000
0000
0100
0000
0010
0000
0001
0000
0000
1000
0100
0000
0000
0000
,
0010
0000
0001
0000
1000
0000
0010
0000
0100
0000
0000
0001
0010
0000
0000
0000
,
0100
0000
1000
0000
0100
0000
0010
0000
0001
0000
0000
1000
0010
0000
0000
0000
,
0100
0000
0001
0000
0010
0000
0100
0000
1000
0000
0000
0001
1000
0000
0000
0000
,
0001
0000
1000
0000
0010
0000
0100
0000
0001
0000
0000
1000
0100
0000
0000
0000
,
1000
0100
0010
0001
1000
0010
1000
0100
0010
0001
0010
0100
1000
0001
0100
0010
,
1001
0000
0100
0010
0001
0000
1000
0010
0100
0000
0001
0100
0010
0000
1000
0010
,
0100
0000
0001
0010
0100
0000
1000
0100
0010
0000
0001
0010
0100
0000
1000
0001
,
0100
0000
0001
1000
0100
0000
1000
0001
0100
0000
0001
1000
0100
0000
1000
0001
,
0010
0000
0001
1000
0010
0000
1000
0001
0010
0000
0001
1000
0010
0000
1000
0100
,
1000
0000
0010
0100
0010
0000
0001
0010
0001
0000
1000
0001
1000
0000
0100
0010
,
0100
0000
1000
0100
1000
0000
0001
0100
0001
0000
1000
0001
1000
0000
0100
0001
,
0100
0000
1000
0010
1000
0000
0001
0100
0001
0000
1000
0010
0100
0000
0001
0100
,
0010
0000
1000
0010
0100
0000
0001
0100
0010
0000
1000
0001
0100
0000
0010
0100
,
1001
0000
0010
1000
0001
0000
0010
0100
1000
0000
0001
0100
0010
0000
1000
0001
,
0010
0000
1000
0100
1000
0000
0010
0100
0001
0000
1000
0001
0100
0000
0010
1000
,
0001
0000
0100
0010
1000
0000
0001
0100
0010
0000
1000
0100
0010
0000
0001
0100
,
0010
0000
1000
0001
0100
0000
0010
1000
0001
0000
0100
0010
1000
0000
0001
0100
,
0010
0000
1000
0100
0010
0000
0001
0010
0100
0000
1000
0100
0010
0000
0001
1000
,
0010
0000
0100
0001
1000
0000
0010
0100
0001
0000
1000
0010
0100
0000
0001
0100
,
0010
0000
1000
0100
0010
0000
0001
0010
0100
0000
1000
0001
0100
0000
0001
1000
,
0100
0000
1000
0001
0100
0000
0010
0100
0001
0010
0100
1000
0001
0100
0001
1000
,
0110
0001
0010
0100
1001
0000
0110
0000
,
1000
0001
0110
0010
1000
0000
1001
0000
,
0001
0010
0110
0100
1000
0000
1001
0000
,
0001
0100
0110
0010
1000
0000
1001
0000
,
1000
0100
1100
0100
0010
0000
0011
0000
,
1000
0100
0101
0100
1000
0000
0110
0000
,
0001
0010
0011
0001
1000
0000
1001
0000
,
1010
0000
0000
1001
0000
0000
1010
0000
0000
0000
0110
0000
0000
0000
1001
0000
,
0101
0000
0010
1000
0100
0000
0010
0001
0100
0000
0010
1000
0100
0000
0001
1000
,
0100
0000
1000
0001
0100
0000
0010
0100
1000
0000
0001
0100
0010
0000
1000
0100
,
0010
0000
0001
0010
0100
0000
1000
0100
0010
0000
0001
1000
0010
0000
1000
0001
,
0100
0000
0010
1000
0001
0000
0001
0100
0010
0000
1000
0010
0100
0000
0001
0010
,
0100
0000
1000
0001
0100
0000
0010
0100
0001
0000
0010
0100
1000
0000
0001
1000
,
0010
0000
0001
1000
0100
0000
0010
0100
0001
0000
1000
0100
0010
0000
0001
1000
,
0010
0100
1000
0001
0100
0010
1000
0001
0010
0100
1000
0001
1000
0100
0010
0100
,
1001
0000
0000
0110
0000
0000
1100
0000
0000
0000
1001
0000
0000
0000
0110
0000
,
1100
0000
0001
1000
0100
0000
0010
0001
0100
0000
0010
1000
0100
0000
0001
1000
,
0100
0000
1000
0001
0100
0000
0010
0100
1000
0000
0001
0100
0010
0000
1000
0100
,
0010
0000
0001
0010
0100
0000
1000
0100
0010
0000
0001
1000
0010
0000
1000
0001
,
0100
0000
0010
1000
0001
0000
0001
0100
0010
0000
1000
0010
0100
0000
0001
0010
,
0100
0000
1000
0001
0100
0000
0010
0100
0001
0000
0010
0100
1000
0000
0001
1000
,
0010
0000
0001
1000
0100
0000
0010
0100
0001
0000
1000
0100
0010
0000
0001
1000
,
0100
0000
0010
0001
0100
0000
0010
1000
0100
0000
0001
1000
0100
0000
1000
0001
,
0100
0000
0010
0100
1000
0000
0001
0100
0010
0000
1000
0100
0010
0000
0001
0010
,
0100
0000
1000
0100
0010
0000
0001
1000
0010
0000
1000
0001
0100
0000
0010
1000
,
0001
0000
0001
0100
0010
0000
1000
0010
0100
0000
0001
0010
0100
0000
1000
0001
,
0100
0000
0010
0100
0001
0000
0010
0100
1000
0000
0001
1000
0010
0000
0001
1000
,
0100
0000
0010
0100
0001
0000
1000
0100
0010
0000
0001
1000
0010
0000
0100
0001
,
0010
0000
0100
1000
0001
0000
0010
0100
1000
0000
0100
0010
0001
0000
1000
0001
,
0100
0000
0001
1000
0100
0000
0010
1000
0001
0000
1000
0010
0100
0000
0001
1000
,
0100
0010
0001
1000
0010
1000
0001
0100
0001
0010
0100
1000
0100
0010
0001
1000
,
0100
0000
0000
1000
0000
0000
0001
0000
0000
0100
0000
0000
0010
0000
0000
1000
0000
0000
0100
0000
0000
0010
0000
0000
0001
0000
0000
0000
0000
0000
0010
0000
0100
0000
0010
0000
0100
0000
0000
0000
0000
0000
1000
0000
0001
0000
1000
0000
,
0001
0000
0010
0100
1000
0000
0001
0100
0010
0000
1000
0001
0100
0000
0001
1000
,
0100
0000
0010
0001
0100
0000
0010
1000
0100
0000
0001
1000
0100
0000
1000
0001
,
0100
0000
0010
0100
1000
0000
0001
0100
0010
0000
1000
0100
0010
0000
0001
0010
,
0100
0000
1000
0100
0010
0000
0001
1000
0010
0000
1000
0001
0100
0000
0010
1000
,
0001
0000
0001
0100
0010
0000
1000
0010
0100
0000
0001
0010
0100
0000
1000
0001
,
0100
0000
0010
0100
0001
0000
0010
0100
1000
0000
0001
1000
0010
0000
0001
1000
,
0100
0000
0010
0100
0001
0000
1000
0100
0010
0000
0001
1000
0100
0000
0010
0001
,
0100
0000
0010
1000
0100
0000
0001
1000
0100
0000
1000
0001
0100
0000
0010
0100
,
1000
0000
0001
0100
0010
0000
1000
0100
0010
0000
0001
0010
0100
0000
1000
0100
,
0010
0000
0001
1000
0010
0000
1000
0001
0100
0000
0010
1000
0001
0000
0001
0100
,
0010
0000
1000
0010
0100
0000
0001
0010
0100
0000
1000
0001
0100
0000
0010
0100
,
0001
0000
0010
0100
1000
0000
0001
1000
0010
0000
0001
1000
0100
0000
0010
0100
,
0001
0000
1000
0100
0010
0000
0001
1000
0010
0000
0100
0001
0010
0000
0100
1000
,
0001
0000
0010
0100
1000
0000
0100
0010
0001
0000
1000
0001
0100
0000
0001
1000
,
0100
0000
0010
1000
0001
0000
1000
0010
0100
0000
0001
1000
0010
0000
0100
0001
,
0010
0000
1000
0001
0100
0000
0010
0100
1000
0000
0100
0010
0001
0000
1000
0001
,
0110
0000
1000
0000
0100
0000
0010
0000
0001
0000
1000
0001
0010
0000
0100
0000
,
1000
0000
0100
0000
0010
0000
0001
0000
1000
0000
0010
0100
0001
0000
1000
0000
,
0001
0000
0100
0000
0010
0000
1000
0000
0001
0000
1000
0100
0010
0000
0001
0000
,
1000
0000
0010
0000
1000
0000
0100
0000
0010
0000
0001
1000
0010
0000
0100
0000
,
1000
0000
0001
0000
0100
0000
0010
0000
1000
0000
1000
0001
0100
0000
0010
0000
,
1000
0000
0100
0000
0010
0000
0001
0000
1000
0000
0010
0100
1000
0000
0001
0000
,
1000
0000
0100
0000
0010
0000
0001
0000
1000
0000
0001
0010
0100
0000
1000
0000
,
0010
0000
0100
0000
0001
0000
0010
0000
0100
0000
1000
0100
0010
0000
0001
0000
,
0110
0000
1000
0100
0000
0100
0010
0000
0010
0001
0000
0001
,
0010
0000
0010
0100
0000
0100
1000
0000
0001
1000
0000
0010
,
0100
0000
0001
0010
0000
0100
1000
0000
0010
0100
0000
1000
,
0001
0000
0100
0010
0000
1000
0100
0000
0100
0010
0000
0001
,
1000
0000
1000
0010
0000
0010
0100
0000
0100
0001
0000
0001
,
0010
0000
0010
0100
0000
1000
0001
0000
0100
0010
0000
0001
,
0100
0000
0010
1000
0000
0100
0010
0000
0001
0100
0000
0010
,
0100
0000
0000
0000
0000
0000
0000
0000
1000
0000
0000
0000
0001
0000
0000
0000
0000
0000
0000
0000
0100
0000
0000
0000
1000
0000
0000
0100
0000
0000
0010
0000
0000
0001
0000
0000
1000
0000
0000
0010
0000
0000
0100
0000
0000
0010
0000
0000
,
1001
0000
0000
0000
2000
3200
0000
0320
,
0032
0000
2003
3020
0000
0230
0000
0000
,
0000
0000
0000
0300
,
0000
0000
0000
0000
,
0000
0000
0000
0000
2000
3002
0000
0203
,
0320
0000
2030
3200
0000
0320
0000
0000
,
0000
0000
0000
0030
,
1000
0000
0000
0100
0000
0000
0010
0000
0000
0000
0001
0000
0000
0000
1000
0000
,
1001
0000
0010
0100
1000
0000
0001
1000
0100
0000
1000
0001
0010
0000
0100
1000
,
0001
0000
0010
0100
1000
0000
0100
0010
0001
0000
1000
0010
0100
0000
0001
0100
,
0010
0000
1000
0001
0100
0000
0010
1000
0001
0000
0010
0100
1000
0000
0100
0010
,
0001
0000
1000
0010
0100
0000
0001
0100
0010
0000
1000
0001
0100
0000
0010
1000
,
0001
0000
1000
0001
0100
0000
0010
1000
0001
0000
1000
0100
1000
0000
0010
0100
,
0010
0000
0001
0010
0001
0000
1000
0001
1000
0000
0100
0010
0001
0000
1000
0100
,
0010
0000
0001
1000
0100
0000
0010
0001
1000
0000
0100
0010
0001
0000
0010
0100
,
1000
0100
0010
0001
1000
0010
1000
0001
0100
0001
1000
0100
0010
0001
0010
0100
,
1000
0000
0001
1000
0100
0000
0010
0001
0100
0000
0010
1000
0100
0000
0001
1000
,
0100
0000
1000
0001
0100
0000
0010
0100
1000
0000
0001
0100
0010
0000
1000
0100
,
0010
0000
0001
0010
0100
0000
1000
0100
0010
0000
0001
1000
0010
0000
1000
0001
,
0100
0000
0010
1000
0001
0000
0001
0100
0010
0000
1000
0010
0100
0000
0001
0010
,
0100
0000
1000
0001
0100
0000
0010
0100
0001
0000
0010
0100
1000
0000
0001
1000
,
0010
0000
0001
1000
0100
0000
0010
0100
0001
0000
1000
0100
0010
0000
0001
1000
,
0100
0000
0010
0001
0100
0000
0010
1000
0100
0000
0001
1000
0100
0000
1000
0001
,
0100
0000
0010
0100
1000
0000
0001
0100
0010
0000
1000
0100
0010
0000
0001
0010
,
1001
0000
1000
0100
0010
0000
0001
1000
0010
0000
1000
0001
0100
0000
0010
1000
,
0001
0000
0001
0100
0010
0000
1000
0010
0100
0000
0001
0010
0100
0000
1000
0001
,
0100
0000
0010
0100
0001
0000
0010
0100
1000
0000
0001
1000
0010
0000
0001
1000
,
0100
0000
0010
0100
0001
0000
1000
0100
0010
0000
0001
1000
0010
0000
0100
0001
,
0010
0000
0100
1000
0001
0000
0010
0100
1000
0000
0100
0010
0001
0000
1000
0001
,
0100
0000
0001
1000
0100
0000
0010
1000
0001
0000
1000
0010
0100
0000
0001
1000
,
0100
0000
0001
1000
0010
0000
1000
0100
0010
0000
0001
0010
0100
0000
1000
0001
,
0110
0000
1001
0000
0011
0000
0110
0000
1100
0010
0001
1000
0010
0100
0001
0010
,
1001
0000
0001
1000
0100
0000
0010
0001
0100
0000
0010
1000
0100
0000
0001
1000
,
0100
0000
1000
0001
0100
0000
0010
0100
1000
0000
0001
0100
0010
0000
1000
0100
,
0010
0000
0001
0010
0100
0000
1000
0100
0010
0000
0001
1000
0010
0000
1000
0001
,
0100
0000
0010
1000
0001
0000
0001
0100
0010
0000
1000
0010
0100
0000
0001
0010
,
0100
0000
1000
0001
0100
0000
0010
0100
0001
0000
0010
0100
1000
0000
0001
1000
,
0010
0000
0001
1000
0100
0000
0010
0100
0001
0000
1000
0100
0010
0000
0001
1000
,
0100
0000
0010
0001
0100
0000
0010
1000
0100
0000
0001
1000
0100
0000
1000
0001
,
0100
0000
0010
0100
1000
0000
0001
0100
0010
0000
1000
0100
0010
0000
0001
0010
,
1001
0000
1000
0100
0010
0000
0001
1000
0010
0000
1000
0001
0100
0000
0010
1000
,
0001
0000
0001
0100
0010
0000
1000
0010
0100
0000
0001
0010
0100
0000
1000
0001
,
0100
0000
0010
0100
0001
0000
0010
0100
1000
0000
0001
1000
0010
0000
0001
1000
,
0100
0000
0010
0100
0001
0000
1000
0100
0010
0000
0001
1000
0010
0000
0100
0001
,
0010
0000
0100
1000
0001
0000
0010
0100
1000
0000
0100
0010
0001
0000
1000
0001
,
0100
0000
0001
1000
0100
0000
0010
1000
0001
0000
1000
0010
0100
0000
0001
1000
,
0100
0000
0001
1000
0010
0000
1000
0100
0010
0000
0001
0010
0100
0000
0010
0100
,
1000
0100
0010
0001
1000
0010
1000
0001
0100
0001
0010
0100
1000
0100
0010
0001
,
1100
0000
0010
0001
1000
0000
0100
0010
0001
0000
0010
1000
0001
0000
0100
0010
,
1000
0000
0001
0100
0001
0000
0010
1000
0010
0000
1000
0100
1000
0000
0001
0010
,
0001
0000
1000
0001
0100
0000
1000
0001
0010
0000
1000
0001
0100
0000
0010
0100
,
1000
0000
0100
0010
0001
0000
1000
0001
0100
0000
0010
1000
0001
0000
0010
0100
,
1000
0000
0100
0010
0001
0000
1000
0010
0100
0000
0001
1000
0001
0000
0100
0010
,
0100
0000
1000
0001
0100
0000
0010
1000
0001
0000
0100
0010
0001
0000
1000
0010
,
0100
0000
0001
0100
0010
0000
1000
0001
0100
0000
0010
1000
0001
0000
1000
0100
,
0010
0000
0001
0010
0100
0000
1000
0010
0100
0000
0001
0100
0010
0000
1000
0100
,
1001
0000
0010
0100
0001
0000
1000
0010
0100
0000
0001
0100
0010
0000
1000
0010
,
0100
0000
0001
0010
0100
0000
1000
0100
0010
0000
0001
0010
0100
0000
1000
0100
,
0010
0000
0001
0100
0001
0000
1000
0010
1000
0000
0100
0010
0100
0000
0001
1000
,
0001
0000
1000
0100
1000
0000
0001
0010
0001
0000
1000
0001
0100
0000
0010
1000
,
0001
0000
0100
0010
0001
0000
1000
0010
0100
0000
0001
0100
0010
0000
1000
0001
,
0100
0000
0010
1000
0001
0000
0100
0001
1000
0000
0100
1000
0001
0000
0010
0100
,
1000
0000
0100
0010
0001
0000
1000
0010
0100
0000
0001
0100
0010
1000
0100
0001
,
1010
0000
0000
0110
0000
0000
0101
0000
1001
0100
0010
0001
1000
0010
0100
0001
,
1000
0000
0001
1000
0100
0000
0010
0001
0100
0000
0010
1000
0100
0000
0001
1000
,
0100
0000
1000
0001
0100
0000
0010
0100
1000
0000
0001
0100
0010
0000
1000
0100
,
0010
0000
0001
0010
0100
0000
1000
0100
0010
0000
0001
1000
0010
0000
1000
0001
,
0100
0000
0010
1000
0001
0000
0001
0100
0010
0000
1000
0010
0100
0000
0001
0010
,
0100
0000
1000
0001
0100
0000
0010
0100
0001
0000
0010
0100
1000
0000
0001
1000
,
0010
0000
0001
1000
0100
0000
0010
0100
0001
0000
1000
0100
0010
0000
0001
1000
,
0100
0000
0010
0001
0100
0000
0010
1000
0100
0000
0001
1000
0100
0000
1000
0001
,
0100
0000
0010
0100
1000
0000
0001
0100
0010
0000
1000
0100
0010
0000
0001
0010
,
0100
0000
1000
0100
0010
0000
0001
1000
0010
0000
1000
0001
0100
0000
0010
1000
,
0001
0000
0001
0100
0010
0000
1000
0010
0100
0000
0001
0010
0100
0000
1000
0001
,
0100
0000
0010
0100
0001
0000
0010
0100
1000
0000
0001
1000
0010
0000
0001
1000
,
0100
0000
0010
0100
0001
0000
1000
0100
0010
0000
0001
1000
0010
0000
0100
0001
,
0010
0000
0100
1000
0001
0000
0010
0100
1000
0000
0001
0100
0010
0000
1000
0001
,
0100
0000
0010
1000
0001
0000
0010
0100
1000
0000
0100
0010
0001
0000
0010
0100
,
1000
0100
0010
0001
1000
0010
1000
0001
0100
0001
0010
0100
1000
0100
0010
0001
,
1000
0000
0001
0010
0100
0000
1000
0010
0100
0000
0001
0100
0010
0000
1000
0100
,
1001
0000
0001
1000
0100
0000
0010
0001
0100
0000
0010
1000
0100
0000
0001
1000
,
0100
0000
1000
0001
0100
0000
0010
0100
1000
0000
0001
0100
0010
0000
1000
0100
,
0010
0000
0001
0010
0100
0000
1000
0100
0010
0000
0001
1000
0010
0000
1000
0001
,
0100
0000
0010
1000
0001
0000
0001
0100
0010
0000
1000
0010
0100
0000
0001
0010
,
0100
0000
1000
0001
0100
0000
0010
0100
0001
0000
0010
0100
1000
0000
0001
1000
,
0010
0000
0001
1000
0100
0000
0010
0100
0001
0000
1000
0100
0010
0000
0001
1000
,
0100
0000
0010
0001
0100
0000
0010
1000
0100
0000
0001
1000
0100
0000
1000
0001
,
0100
0000
0010
0100
1000
0000
0001
0100
0010
0000
1000
0100
0010
0000
0001
0010
,
0100
0000
1000
0100
0010
0000
0001
1000
0010
0000
1000
0001
0100
0000
0010
1000
,
0001
0000
0001
0100
0010
0000
1000
0010
0100
0000
0001
0010
0100
0000
1000
0001
,
0100
0000
0010
0100
0001
0000
0010
0100
1000
0000
0001
1000
0010
0000
0001
1000
,
0100
0000
0010
0100
0001
0000
1000
0100
0010
0000
0001
1000
0010
0000
0100
0001
,
0010
0000
0100
1000
0001
0000
0010
0100
1000
0000
0001
0100
0010
0000
1000
0001
,
0100
0000
0010
1000
0001
0000
0010
0100
1000
0000
0100
0010
0001
0000
0010
0100
,
1000
0100
0010
0001
0100
0001
1000
0010
1000
0100
0010
0001
0010
0100
1000
0010
,
1001
0000
0000
0110
0000
0000
1100
0000
0000
0000
1001
0000
0000
0000
0110
0000
,
2002
0000
0000
0000
,
0000
0000
0000
0000
,
3003
0000
0000
0000
M00M
M00M
M00M
0000
0000
0MM0
0MM0
0MM0
0000
M00M
M00M
M00M
,
0000
0000
0000
0000
MMM0
M000
M000
M00M
M00M
M00M
M00M
M00M
M00M
M00M
M000
M000
,
0MM0
0000
0000
0000
;

//---------------dance-single - ----------------
#NOTES:
     dance-single:
     :
     Hard:
     9:
     0.656,0.792,0.419,0.070,0.111,1458.000,149.000,25.000,0.000,0.000:
1000
0000
0100
0000
0010
0000
0001
0000
1000
0000
0000
0010
0100
0000
0000
0000
,
0001
0000
1000
0000
0010
0000
0100
0000
0001
0000
0000
1000
0001
0000
0000
0000
,
0100
0000
0010
0000
1000
0000
0010
0000
0100
0000
0000
0001
0010
0000
0000
0000
,
1000
0000
0100
0000
0010
0000
0001
0000
1000
0000
0000
0001
0100
0000
0000
0000
,
0001
0000
1000
0000
0010
0000
0100
0000
0001
0000
0000
1000
0100
0000
0000
0000
,
0010
0000
0001
0000
1000
0000
0010
0000
0100
0000
0000
0001
0010
0000
0000
0000
,
1000
0000
0100
0000
0001
0000
0100
0000
1000
0000
0000
0010
0100
0000
0000
0000
,
0001
0000
0010
0000
0100
0000
1000
0000
0010
0000
0000
1000
0001
0000
0000
0000
,
1001
0000
0100
0000
0010
0000
0001
0000
0100
0000
0000
1000
0010
0000
0000
0000
,
0100
0000
0001
0000
0010
0000
0100
0000
1000
0000
0000
0001
0100
0000
0000
0000
,
0010
0000
1000
0000
0100
0000
0010
0000
0001
0000
0000
1000
0100
0000
0000
0000
,
0010
0000
0001
0000
1000
0000
0010
0000
0100
0000
0000
0001
0010
0000
0000
0000
,
0100
0000
1000
0000
0100
0000
0010
0000
0001
0000
0000
1000
0010
0000
0000
0000
,
0100
0000
0001
0000
0010
0000
0100
0000
1000
0000
0000
0001
1000
0000
0000
0000
,
0001
0000
1000
0000
0010
0000
0100
0000
0001
0000
0000
1000
0100
0000
0001
0000
,
0010
0001
1000
0010
0100
0001
0010
0100
,
1001
0010
0100
0001
0010
0100
0010
0001
,
1000
0100
1000
0001
0100
0001
0010
0100
,
0010
0001
1000
0100
1000
0001
0100
0001
,
0010
0100
0010
0001
1000
0010
0100
0001
,
0010
1001
0010
0001
0100
0010
1000
0010
,
0100
0001
0010
0100
0010
0001
1000
0010
,
0100
1001
0001
0100
0010
1000
0010
0100
,
0001
0010
0100
1000
0001
0100
1000
0010
,
1001
0001
0010
0100
0010
0001
0010
0100
,
1000
0001
0100
1000
0010
0100
0001
0010
,
0100
0010
0001
1000
0001
1000
0010
0100
,
0010
1000
0010
0100
0001
0010
0100
0001
,
1001
0001
0100
0010
1000
0010
0100
0001
,
0010
0100
0010
0001
1000
0100
0010
0001
,
1000
0010
0100
0010
1000
0001
0100
0010
,
1000
0001
0100
0001
1000
0001
1000
0001
,
0100
0010
1000
0001
0010
0100
0110
0000
,
0001
1000
0001
0100
0010
1000
1001
0000
,
0001
1000
0100
0010
0100
1000
0101
0000
,
0001
0010
0100
0001
1000
0010
0011
0000
,
0001
1000
0010
0100
1000
0010
0101
0000
,
0001
0010
0100
0010
0001
0100
1001
0000
,
0001
0100
0010
1000
0010
0100
0001
0000
,
1000
0000
0000
0001
0000
0000
0010
0000
0000
0000
1001
0000
0000
0000
0110
0000
,
1100
0001
0010
0100
1000
0100
0010
0001
,
1000
0010
0100
0010
1000
0010
0100
0001
,
0100
0010
0100
0001
0010
0100
0010
0001
,
1000
0100
0010
0100
0010
0001
0010
0100
,
1001
0001
0100
0010
1000
0010
0100
0001
,
0010
0100
1000
0001
0100
0001
1000
0100
,
0010
0001
0010
0100
0010
0001
0010
0100
,
1001
0000
0000
1010
0000
0000
0110
0000
0000
0000
1001
0000
0000
0000
0101
0000
,
0110
1000
0001
0010
1100
0011
1000
0110
,
1010
0001
0101
0011
0100
1001
0001
0100
,
0010
1000
0010
1100
0110
0011
0010
1001
,
0101
1000
1001
0100
1010
0001
1100
0010
,
1001
1000
0001
0100
1010
0110
0001
0011
,
0110
1000
1001
0101
0010
1010
0010
0100
,
0001
0010
0100
1001
0101
0110
0010
1010
,
0110
0001
1001
0101
0001
1100
0100
0010
,
1001
0001
0100
0010
1010
0110
0001
1001
,
0101
0001
1100
0110
0001
0011
0001
1000
,
0010
0100
0010
1100
0110
0011
0100
1001
,
0101
0001
1010
0110
0001
1000
0011
0100
,
1001
0010
0101
0001
1100
0110
0001
1001
,
0101
0010
1010
0110
0001
1001
0001
1000
,
0100
0010
0001
0010
0100
1000
0001
0100
,
0001
1000
0010
0100
0001
1001
0001
0101
,
0110
0010
1010
0001
0010
0100
0010
0001
,
0010
0100
1001
0001
0100
0010
1000
0010
,
0100
1001
0001
0100
0010
1000
0100
0010
,
0100
1001
0001
0100
0010
1000
0010
0100
,
0001
0011
0001
1000
0100
0010
0100
1000
,
0001
0101
0001
0010
0100
1000
0001
0100
,
0010
1010
0010
0100
0001
0010
0100
0010
,
0001
0100
1001
0001
0100
0001
1000
0010
,
0110
0001
1001
0001
1000
0100
0110
0100
,
1000
0001
0101
0001
0010
0100
1001
0001
,
0100
0010
1010
0010
0100
0001
0011
0001
,
1000
1100
0100
0110
0010
0011
0001
1001
,
0001
0100
0010
1000
0010
0100
1001
0001
,
1000
0100
0010
0100
0010
0001
1001
0001
,
0100
0010
1000
0010
0100
0001
1001
0001
,
1000
1100
0100
0110
0010
0011
0001
1001
,
0101
0010
1000
0010
0100
0001
0010
0100
,
0010
0001
1000
0001
0100
0010
1000
0010
,
0100
0001
0010
0100
0010
0001
1001
0001
,
0100
0010
1000
0010
0100
1001
0001
1000
,
0100
0010
0001
0010
0100
0001
1000
0001
,
0100
0010
1000
0010
0100
1001
0001
0100
,
0010
1000
0010
0100
0001
0011
0001
1000
,
0001
1000
0010
0001
0010
1100
0001
0010
,
1010
0000
1000
0100
0000
0100
0010
0000
0010
0001
0000
0001
,
1000
0000
1000
0010
0000
0010
0100
0000
0100
0001
0000
0001
,
0010
0000
0010
0100
0000
0100
1000
0000
1000
0010
0000
0010
,
0100
0000
0100
0001
0000
0001
1000
0000
1000
0010
0000
0010
,
0100
0000
0100
0001
0000
0001
0010
0000
0010
0100
0000
0100
,
1000
0000
1000
0001
0000
0001
0100
0000
0100
0010
0000
0010
,
1000
0000
1000
0001
0000
0001
0010
0000
0010
0100
0000
0100
,
1000
0000
0000
0000
0002
0000
0000
0000
0000
0000
0000
0000
0000
0000
0000
0000
2003
3000
0020
0030
2000
3000
0020
0030
2000
3000
0020
0030
2000
3000
0020
0030
,
1001
0000
0000
0000
2000
3200
0000
0320
,
0032
0000
2003
3020
0000
0230
0000
0000
,
0000
0000
0000
0300
,
0000
0000
0000
0000
,
0000
0000
0000
0000
2000
3002
0000
0203
,
0320
0000
2030
3200
0000
0320
0000
0000
,
0000
0000
0000
0030
,
1000
0000
0000
0100
0000
0000
0010
0000
0000
0000
0001
0000
0000
0000
0100
0000
,
1001
0000
0000
1000
0000
0100
0000
0000
0000
0100
0000
0010
0000
0000
0000
0010
0000
0001
0000
0000
0000
0001
0000
1000
,
0000
0000
0000
1000
0000
0010
0000
0000
0000
0010
0000
0100
0000
0000
0000
0100
0000
0001
0000
0000
0000
0001
0000
1000
,
0000
0000
0000
1000
0000
0010
0000
0000
0000
0010
0000
0100
0000
0000
0000
0100
0000
0001
0000
0000
0000
0001
0000
1000
,
0000
0000
0000
1000
0000
0010
0000
0000
0000
0010
0000
0100
0000
0000
0000
0001
0000
1000
0000
0000
0000
1000
0000
0010
,
0000
0000
0000
0010
0000
0100
0000
0000
0000
0100
0000
0001
0000
0000
0000
0001
0000
0010
0000
0000
0000
0010
0000
0100
,
0000
0000
0000
0100
0000
1000
0000
0000
0000
1000
0000
0001
0000
0000
0000
0001
0000
0100
0000
0000
0000
0100
0000
0010
,
0000
0000
0000
0010
0000
1000
0000
0000
0000
1000
0000
0001
0000
0000
0000
0001
0000
0100
0000
0000
0000
0010
0000
0000
,
1000
0100
0010
0001
1000
0010
0100
0001
,
1001
0010
0100
0001
0010
0100
1000
0001
,
0100
0010
1000
0010
0100
0001
0010
0100
,
1000
0001
0000
0100
1010
0010
0100
0001
,
0010
0100
0010
0001
1000
0100
0010
0000
,
0001
1001
0101
0010
0000
1010
0100
0001
,
0010
0100
0010
0001
1000
0010
0100
0001
,
0010
0100
0010
0001
1000
0010
0100
0010
,
1000
0010
0100
0001
0010
0100
0010
0001
,
1001
0001
0100
0010
1000
0010
0100
0001
,
0010
0100
0010
0001
1000
0100
0010
0001
,
1000
0001
0100
0000
0010
1000
0010
0101
,
0010
0100
0010
0001
1000
0001
0100
0010
,
1010
0010
0100
0001
0010
0100
0010
0001
,
1000
0001
0100
0010
1000
0001
0100
0001
,
1000
0100
0010
0100
1000
0001
0100
0001
,
0010
0100
0010
0001
1000
0010
0100
0010
,
1001
0100
0010
0001
1000
0010
0100
0010
,
1000
0001
0010
0100
0010
0001
1000
0001
,
0100
0010
1000
0100
0010
0001
0100
0010
,
1000
0010
0100
0001
0010
0100
0001
1000
,
1001
0100
0001
0100
0010
1000
0010
0001
,
0010
0100
0010
0001
1000
0100
1000
0001
,
0100
0001
1000
0010
0100
0010
1000
0100
,
0010
0100
1000
0001
0100
0001
0010
0100
,
1010
0100
0001
0100
0010
1000
0010
0001
,
0010
0100
1000
0001
0100
0010
1000
0100
,
0010
0100
1000
0001
0100
0010
0100
0001
,
0010
0100
1000
0010
1001
0001
0100
0001
,
1000
0010
0100
0001
0010
1000
0010
0001
,
0010
0100
0010
1000
0001
1000
0001
0010
,
0001
1000
0010
0001
0100
1000
0001
0100
,
0001
0010
0100
1000
0001
1000
0010
0100
,
1001
0010
0100
0001
1000
0001
0100
0010
,
1000
0010
0100
0001
0010
0100
0010
0001
,
1000
0010
0100
0010
1000
0001
1000
0001
,
0100
0010
1000
0100
0010
0100
1000
0010
,
1001
0010
0100
0001
0010
0100
0010
0001
,
0100
0010
0100
0001
0010
0001
1000
0001
,
0100
0010
1000
0010
0100
0001
0010
0100
,
0010
0001
1000
0001
0100
0001
0010
0100
,
1001
0001
0100
0010
1000
0010
0100
0001
,
0010
0100
1000
0001
0100
0010
1000
0010
,
0100
0001
0010
0100
0010
0001
1000
0100
,
1000
0010
0100
0001
0010
0001
0100
0001
,
1000
0010
0100
0010
1000
0100
0010
0001
,
1000
0100
1000
0010
0100
0001
0010
0100
,
1000
0010
1000
0100
1000
0001
0100
0001
,
0010
0001
0100
0010
1000
0010
0100
0001
,
1100
0010
1000
0001
0100
0001
1000
0010
,
0100
0010
1000
0100
0010
0001
0010
0100
,
1000
0001
0100
0001
1000
0100
0010
0001
,
0010
1000
0010
0001
0010
0100
0010
0001
,
1001
0001
0100
0010
1000
0010
0100
0010
,
1000
0100
0010
0001
0010
0100
0010
0001
,
1000
0001
0100
0001
0010
0100
1000
0010
,
0100
0001
0010
0100
1000
0010
0100
0010
,
1001
0001
0100
0010
1000
0100
0010
0001
,
1000
0001
0100
0010
1000
0100
0010
0100
,
1000
0001
0100
0001
0010
0100
1000
0100
,
0010
0001
0100
0010
1000
0010
0100
0001
,
0010
0100
1000
0100
0010
0001
1000
0010
,
1000
0001
0100
0001
1000
0100
0010
0001
,
0010
0100
1000
0001
0100
0001
1000
0010
,
1001
0000
0000
0110
0000
0000
1001
0000
0000
0000
1100
0000
0000
0000
0011
0000
,
1100
0001
0100
0001
1000
0010
0100
0001
,
0010
0001
1000
0100
0010
0001
1000
0010
,
0100
0001
0010
0001
0100
0010
1000
0100
,
0010
0100
1000
0001
0100
0010
1000
0100
,
1001
0010
0100
0001
0010
0100
0010
0001
,
1000
0010
0100
0001
0010
0001
0100
0010
,
1000
0010
0100
0001
0010
0100
1000
0010
,
0100
0010
0001
0010
1000
0001
0010
0100
,
1001
0001
0100
0010
1000
0010
0100
0001
,
0010
0100
0010
0001
1000
0001
0100
0010
,
1000
0100
0010
0100
1000
0001
0100
0001
,
1000
0010
0100
0010
1000
0100
0010
0001
,
1001
0001
0100
0010
1000
0010
0100
0010
,
1000
0100
0010
0001
0010
0100
1000
0001
,
0100
0010
1000
0010
0100
0001
0010
0100
,
1010
0000
0000
0101
0000
0000
0011
0000
0000
0000
1100
0000
0000
0000
0110
0000
,
2002
0000
0000
0000
,
0000
0000
0000
0000
,
3003
0000
0000
0000
;
