#TITLE:John citron;
#SUBTITLE:;
#ARTIST:LU-I;
#TITLETRANSLIT:;
#SUBTITLETRANSLIT:;
#ARTISTTRANSLIT:;
#CREDIT:;
#BANNER:john citron bn.png;
#BACKGROUND:john citron bg.png;
#LYRICSPATH:;
#CDTITLE:;
#MUSIC:John citron.ogg;
#OFFSET:-0.696;
#SAMPLESTART:96.175;
#SAMPLELENGTH:22.588;
#SELECTABLE:YES;
#DISPLAYBPM:170.000;
#BPMS:0.000=170.000,63.000=85.000,63.125=170.000,63.250=340.000,63.750=170.000,63.875=85.000,64.000=170.000,201.500=340.000,202.000=170.000,202.500=340.000,203.000=170.000,203.500=340.000,207.000=170.000,208.500=340.000,208.625=170.000,208.688=85.000,208.813=170.000,208.875=340.000,209.000=170.000,209.500=340.000,209.625=170.000,209.688=85.000,209.813=170.000,209.875=340.000,210.000=170.000,210.500=340.000,210.625=170.000,210.688=85.000,210.813=170.000,210.875=340.000,211.000=170.000,211.500=340.000,211.625=170.000,211.688=85.000,211.813=170.000,211.875=340.000,212.000=170.000,212.500=340.000,212.625=170.000,212.688=85.000,212.813=170.000,212.875=340.000,213.000=170.000,213.500=340.000,213.625=170.000,213.688=85.000,213.813=170.000,213.875=340.000,214.000=170.000,214.500=340.000,214.625=170.000,214.688=85.000,214.813=170.000,214.875=340.000,215.500=170.000,215.750=85.000,216.000=170.000,216.500=340.000,216.625=170.000,216.688=85.000,216.813=170.000,216.875=340.000,217.000=170.000,217.500=340.000,217.625=170.000,217.688=85.000,217.813=170.000,217.875=340.000,218.000=170.000,218.500=340.000,218.625=170.000,218.688=85.000,218.813=170.000,218.875=340.000,219.000=170.000,219.500=340.000,219.625=170.000,219.688=85.000,219.813=170.000,219.875=340.000,220.000=170.000,220.500=340.000,220.625=170.000,220.688=85.000,220.813=170.000,220.875=340.000,221.000=170.000,221.500=340.000,221.625=170.000,221.688=85.000,221.813=170.000,221.875=340.000,222.000=170.000,222.500=340.000,222.625=170.000,222.688=85.000,222.813=170.000,222.875=340.000,223.500=170.000,223.750=85.000,224.000=170.000,224.500=340.000,224.625=170.000,224.688=85.000,224.813=170.000,224.875=340.000,225.000=170.000,225.500=340.000,225.625=170.000,225.688=85.000,225.813=170.000,225.875=340.000,226.000=170.000,226.500=340.000,226.625=170.000,226.688=85.000,226.813=170.000,226.875=340.000,227.000=170.000,227.500=340.000,227.625=170.000,227.688=85.000,227.813=170.000,227.875=340.000,228.000=170.000,228.500=340.000,228.625=170.000,228.688=85.000,228.813=170.000,228.875=340.000,229.000=170.000,229.500=340.000,229.625=170.000,229.688=85.000,229.813=170.000,229.875=340.000,230.000=170.000,230.500=340.000,230.625=170.000,230.688=85.000,230.813=170.000,230.875=340.000,231.500=170.000,231.750=85.000,232.000=170.000,232.500=340.000,232.625=170.000,232.688=85.000,232.813=170.000,232.875=340.000,233.000=170.000,233.500=340.000,233.625=170.000,233.688=85.000,233.813=170.000,233.875=340.000,234.000=170.000,234.500=340.000,234.625=170.000,234.688=85.000,234.813=170.000,234.875=340.000,235.000=170.000,235.500=340.000,235.625=170.000,235.688=85.000,235.813=170.000,235.875=340.000,237.000=170.000,237.500=85.000,238.000=340.000,238.250=68.000,238.333=340.000,238.583=68.000,238.667=340.000,238.917=68.000,239.000=340.000,239.250=68.000,239.333=340.000,239.583=68.000,239.667=340.000,239.917=68.000,240.000=170.000,240.500=340.000,240.625=170.000,240.688=85.000,240.813=170.000,240.875=340.000,241.000=170.000,241.500=340.000,241.625=170.000,241.688=85.000,241.813=170.000,241.875=340.000,242.000=170.000,242.500=340.000,242.625=170.000,242.688=85.000,242.813=170.000,242.875=340.000,243.000=170.000,243.500=340.000,243.625=170.000,243.688=85.000,243.813=170.000,243.875=340.000,244.000=170.000,244.500=340.000,244.625=170.000,244.688=85.000,244.813=170.000,244.875=340.000,245.000=170.000,245.500=340.000,245.625=170.000,245.688=85.000,245.813=170.000,245.875=340.000,246.000=170.000,246.500=340.000,246.625=170.000,246.688=85.000,246.813=170.000,246.875=340.000,247.000=85.000,247.063=170.000,247.125=340.000,247.375=170.000,247.438=85.000,247.563=170.000,247.625=340.000,247.875=170.000,247.938=85.000,248.000=170.000,248.500=340.000,248.625=170.000,248.688=85.000,248.813=170.000,248.875=340.000,249.000=170.000,249.500=340.000,249.625=170.000,249.688=85.000,249.813=170.000,249.875=340.000,250.000=170.000,250.500=340.000,250.625=170.000,250.688=85.000,250.813=170.000,250.875=340.000,251.000=170.000,251.500=340.000,251.625=170.000,251.688=85.000,251.813=170.000,251.875=340.000,252.000=170.000,252.500=340.000,252.625=170.000,252.688=85.000,252.813=170.000,252.875=340.000,253.000=170.000,253.500=340.000,253.625=170.000,253.688=85.000,253.813=170.000,253.875=340.000,254.000=170.000,254.500=340.000,254.625=170.000,254.688=85.000,254.813=170.000,254.875=340.000,255.500=170.000,255.750=85.000,256.000=170.000,256.500=340.000,256.625=170.000,256.688=85.000,256.813=170.000,256.875=340.000,257.000=170.000,257.500=340.000,257.625=170.000,257.688=85.000,257.813=170.000,257.875=340.000,258.000=170.000,258.500=340.000,258.625=170.000,258.688=85.000,258.813=170.000,258.875=340.000,259.000=170.000,259.500=340.000,259.625=170.000,259.688=85.000,259.813=170.000,259.875=340.000,260.000=170.000,260.500=340.000,260.625=170.000,260.688=85.000,260.813=170.000,260.875=340.000,261.000=170.000,261.500=340.000,261.625=170.000,261.688=85.000,261.813=170.000,261.875=340.000,262.000=170.000,262.500=340.000,262.625=170.000,262.688=85.000,262.813=170.000,262.875=340.000,263.500=170.000,263.750=85.000,264.000=170.000,264.500=340.000,264.625=170.000,264.688=85.000,264.813=170.000,264.875=340.000,265.000=170.000,265.500=340.000,265.625=170.000,265.688=85.000,265.813=170.000,265.875=340.000,266.000=170.000,266.500=340.000,266.625=170.000,266.688=85.000,266.813=170.000,266.875=340.000,267.000=170.000,267.500=340.000,267.625=170.000,267.688=85.000,267.813=170.000,267.875=340.000,268.000=170.000,367.000=85.000,367.125=170.000,367.250=340.000,367.750=170.000,367.875=85.000,368.000=170.000,368.500=340.000,368.625=170.000,368.688=85.000,368.813=170.000,368.875=340.000,369.000=170.000,369.500=340.000,369.625=170.000,369.688=85.000,369.813=170.000,369.875=340.000,370.000=170.000,370.500=340.000,370.625=170.000,370.688=85.000,370.813=170.000,370.875=340.000,371.000=170.000,371.500=340.000,371.625=170.000,371.688=85.000,371.813=170.000,371.875=340.000,372.000=170.000,372.500=340.000,372.625=170.000,372.688=85.000,372.813=170.000,372.875=340.000,373.000=170.000,373.500=340.000,373.625=170.000,373.688=85.000,373.813=170.000,373.875=340.000,374.000=170.000,374.500=340.000,374.625=170.000,374.688=85.000,374.813=170.000,374.875=340.000,375.000=170.000,375.500=340.000,375.625=170.000,375.688=85.000,375.813=170.000,375.875=340.000,376.000=170.000,376.500=340.000,376.625=170.000,376.688=85.000,376.813=170.000,376.875=340.000,377.000=170.000,377.500=340.000,377.625=170.000,377.688=85.000,377.813=170.000,377.875=340.000,378.000=170.000,378.500=340.000,378.625=170.000,378.688=85.000,378.813=170.000,378.875=340.000,379.000=170.000,379.500=340.000,379.625=170.000,379.688=85.000,379.813=170.000,379.875=340.000,380.000=170.000,380.500=340.000,380.625=170.000,380.688=85.000,380.813=170.000,380.875=340.000,381.000=170.000,381.500=340.000,381.625=170.000,381.688=85.000,381.813=170.000,381.875=340.000,382.000=170.000,382.500=340.000,382.625=170.000,382.688=85.000,382.813=170.000,382.875=340.000,383.000=170.000,383.500=340.000,383.625=170.000,383.688=85.000,383.813=170.000,383.875=340.000,384.000=170.000,384.500=340.000,384.625=170.000,384.688=85.000,384.813=170.000,384.875=340.000,385.000=170.000,385.500=340.000,385.625=170.000,385.688=85.000,385.813=170.000,385.875=340.000,386.000=170.000,386.500=340.000,386.625=170.000,386.688=85.000,386.813=170.000,386.875=340.000,387.000=170.000,387.500=340.000,387.625=170.000,387.688=85.000,387.813=170.000,387.875=340.000,388.000=170.000,388.500=340.000,388.625=170.000,388.688=85.000,388.813=170.000,388.875=340.000,389.000=170.000,389.500=340.000,389.625=170.000,389.688=85.000,389.813=170.000,389.875=340.000,390.000=170.000,390.500=340.000,390.625=170.000,390.688=85.000,390.813=170.000,390.875=340.000,391.000=170.000,391.500=340.000,391.625=170.000,391.688=85.000,391.813=170.000,391.875=340.000,392.000=170.000,392.500=340.000,392.625=170.000,392.688=85.000,392.813=170.000,392.875=340.000,393.000=170.000,393.500=340.000,393.625=170.000,393.688=85.000,393.813=170.000,393.875=340.000,394.000=170.000,394.500=340.000,394.625=170.000,394.688=85.000,394.813=170.000,394.875=340.000,395.000=170.000,395.500=340.000,395.625=170.000,395.688=85.000,395.813=170.000,395.875=340.000,396.000=170.000,396.500=340.000,396.625=170.000,396.688=85.000,396.813=170.000,396.875=340.000,397.000=170.000,397.500=340.000,397.625=170.000,397.688=85.000,397.813=170.000,397.875=340.000,398.000=170.000,398.500=340.000,398.625=170.000,398.688=85.000,398.813=170.000,398.875=340.000,399.000=170.000,399.500=340.000,399.625=170.000,399.688=85.000,399.813=170.000,399.875=340.000,400.000=170.000;
#STOPS:201.500=0.088
,202.500=0.089
,203.500=0.088
,204.000=0.088
,204.500=0.088
,205.000=0.088
,205.500=0.088
,206.000=0.045
,206.250=0.044
,206.500=0.044
,206.750=0.044
;
#BGCHANGES:;
// cache tags:
#FIRSTBEAT:23.500;
#LASTBEAT:399.500;
#SONGFILENAME:Songs/Index Tournament 1/John citron/John citron.sm;
#HASMUSIC:1;
#HASBANNER:1;
#MUSICLENGTH:145.705;
// end cache tags

//---------------dance-single - CondorTalon----------------
#NOTES:
     dance-single:
     CondorTalon:
     Challenge:
     10:
     0.764,0.823,0.027,0.570,0.549,692.000,4.000,83.000,0.000,0.000:
0000
0000
0000
0000
,
0000
0000
0000
0000
,
0000
0000
0000
0000
,
0000
0000
0000
0000
,
0000
0000
0000
0000
,
0000
0000
0000
0000
0000
0000
0000
0001
,
1000
0000
0100
0000
0010
0000
0100
2000
0000
0000
3001
0000
0100
0000
0010
0000
,
0200
0000
0000
0302
0000
0000
0013
0000
0100
0000
1000
0001
0100
0001
1000
0000
,
0001
0000
0010
0000
0100
1000
0001
0000
0100
0000
0010
0000
1000
0100
0010
0000
,
0001
0000
1000
0000
0010
0100
0001
0000
2000
0000
0000
3020
0000
0000
1030
0000
,
0100
0000
0010
0001
0000
1000
0001
0000
0100
0000
0010
1000
0000
0010
0100
0000
,
0001
0000
1000
0100
0010
0000
0001
1000
0001
0000
0100
0010
1000
0000
0001
0010
,
0001
0000
1000
0000
0010
0100
0001
1000
0100
0010
0000
0002
0000
0000
1003
0010
,
0100
0000
0001
0000
1000
0100
0010
0001
2000
0000
0000
3020
0000
0000
0130
0000
,
0001
1000
0010
1000
0001
1000
0100
0010
0001
0010
0100
1000
0001
0100
0010
0100
,
0004
0000
0000
2003
,
3001
0000
0010
0000
0100
0000
0010
0002
0000
0000
1003
0000
0010
0000
0100
0000
,
0001
0000
0010
0000
0200
0000
0000
2300
0000
0000
0000
0000
3000
0000
0000
0000
,
0000
0000
0001
0000
1000
0000
0010
0200
0000
0000
0301
0000
1000
0000
0100
0000
,
0020
0000
0000
0000
0000
0000
0000
0000
0030
0000
0000
0000
0000
0000
0001
1000
,
0001
0000
0100
0000
0010
0000
1000
0200
0000
0000
0000
0000
0300
0000
0010
0001
,
1000
0000
0010
0000
0100
0000
0001
0020
0000
0000
0000
0000
0030
0000
0100
1000
,
0002
0000
0000
0203
0000
0310
1000
0100
,
0010
0000
0000
0000
0000
0000
0001
0000
0000
2000
0000
0000
0000
0000
0000
0000
0000
0000
0000
0000
0000
0000
0000
0000
0000
0000
0000
0000
0000
0000
0000
0000
0000
0000
0000
0000
3000
0000
0000
0000
0000
0000
0000
0000
0001
0000
0010
0000
,
0100
0000
1000
0000
0010
0000
0100
0002
0000
0000
1003
0000
0100
0000
0010
0000
,
0001
0000
1000
0000
0001
0000
0100
0020
0000
0000
0000
0000
0030
0000
0000
0000
,
0000
0000
1000
0000
0001
0000
0100
0020
0000
0000
1030
0000
0100
0000
0010
0000
,
0002
0000
0000
0000
0000
0000
0000
0000
0003
0000
0000
0000
0000
0000
1000
0001
,
0100
0000
0010
0000
1000
0000
0100
0020
0000
0000
0000
0000
0030
0000
0001
1000
,
0001
0000
0100
0000
0010
0000
1000
0200
0000
0000
0000
0000
0300
0000
0010
0000
,
0002
0000
0000
0000
0000
0000
1003
0000
0020
0000
0000
0230
0000
0000
0301
0000
,
1000
0000
0100
0020
0000
0000
0000
0000
0000
0000
0000
0000
0030
0000
0000
0000
,
1001
0000
0000
0000
,
0000
0000
0000
0000
0000
0001
0100
0010
,
2000
0000
0000
0000
3001
0000
0010
0200
0000
0000
1300
0000
0001
0000
0100
0000
,
0010
0000
1000
0000
0001
0000
0010
0200
0000
0000
0000
0000
0300
0000
0010
0001
,
1000
0000
0010
0000
0100
0000
0001
0020
0000
0000
0031
0000
1000
0000
0010
0000
,
0100
0000
0001
0000
1000
0000
0100
0020
0000
0000
0000
0000
0030
0000
0001
1000
,
0010
0000
1000
0000
0100
0000
0010
0002
0000
0000
0000
0000
0003
0000
1000
0000
,
0010
0000
0100
0000
0010
0000
1000
0200
0000
0000
0000
0000
0300
0000
0010
0001
,
1000
0000
0001
0000
0010
0000
0100
0020
0000
0000
0031
0000
1000
0000
0010
0000
,
0100
0000
0001
0200
0000
0000
0000
0000
0300
0000
0001
0000
0010
0000
0100
0000
,
0020
0000
0000
0000
0031
0000
1000
0020
0000
0000
0130
0000
0001
0000
0010
0000
,
0100
0000
1000
0000
0001
0000
0100
0020
0000
0000
0000
0000
0030
0000
1000
0001
,
0100
0000
0010
0000
1000
0000
0001
0020
0000
0000
0130
0000
1000
0000
0001
0000
,
0100
0000
0010
0000
1000
0000
0100
0020
0000
0000
0000
0000
0030
0000
0001
1000
,
0001
0000
0100
0000
0010
0000
1000
0002
0000
0000
0000
0000
0003
0000
0010
0100
,
1000
0000
0001
0000
0100
0000
0010
2000
0000
0000
0000
0000
3000
0000
0001
0000
,
0100
0000
0010
0000
1000
0000
0100
2000
0000
0000
3001
0000
0100
0000
0010
0000
,
0200
0000
0000
0302
0000
0000
1003
0000
0200
0000
0000
0000
0000
0000
0000
0000
,
0000
0000
0000
0010
0000
0010
0000
0010
,
1300
0000
0100
0000
1000
0000
0100
0000
1000
0001
0100
0010
0100
0001
0010
0100
,
1000
0000
0001
0000
0001
0000
0010
0100
0000
0010
0001
0000
1000
0000
0010
0100
,
0000
0001
1000
0100
0000
0010
0002
0000
,
1003
0000
0010
0000
0000
0000
0100
0000
0001
1000
0100
0000
0010
0000
0001
0000
,
0000
0000
1000
0010
1000
0000
0100
0010
0000
0000
0001
0000
0200
0000
0000
0000
,
0301
0000
1000
0010
1000
0000
0100
0010
0000
0000
0001
0000
1000
0000
0010
0000
,
0100
0001
0100
0000
0010
0000
1000
0000
0100
0000
0010
0000
0002
0000
0000
0000
,
0003
0000
0010
0000
0010
0000
0001
1000
0000
0001
0100
0000
0010
0000
1000
0001
,
2000
0000
0000
0000
0000
0000
3001
0100
0001
1000
0100
1000
,
0001
0000
1000
0000
1000
0000
0100
0010
0000
0100
1000
0000
0001
0000
0100
0010
,
0000
0000
1000
0000
0001
0000
0010
0000
0000
0000
0100
0000
1000
0200
0310
0200
,
1300
0000
0010
0000
0000
0000
0100
0000
0001
1000
0100
0000
0010
0000
0001
0000
,
0000
0000
1000
0010
1000
0000
0100
0010
0000
0000
0001
0000
0200
0000
0000
0000
,
0301
0000
1000
0010
1000
0000
0100
0010
0000
0000
0001
0000
1000
0000
0010
0000
,
0100
0001
0100
0000
0010
0000
1000
0000
0100
0000
0010
0000
0002
0000
0000
0000
,
0003
0000
1000
0000
1000
0000
0001
0100
0000
0010
1000
0000
0100
0000
0010
0001
,
4000
0000
0000
0000
0000
0000
0000
0000
0000
0000
3001
0000
0100
0010
1000
0001
,
2000
0000
0000
0000
3001
0000
0010
0200
0000
0000
1300
0000
0001
0000
0100
0000
,
0010
0000
1000
0000
0001
0000
0010
0200
0000
0000
0000
0000
0300
0000
0010
0001
,
1000
0000
0010
0000
0100
0000
0001
0020
0000
0000
0031
0000
1000
0000
0010
0000
,
0100
0000
0001
0000
1000
0000
0100
0020
0000
0000
0000
0000
0030
0000
0001
1000
,
0010
0000
1000
0000
0100
0000
0010
0002
0000
0000
0000
0000
0003
0000
1000
0000
,
0010
0000
0100
0000
0010
0000
1000
0200
0000
0000
0000
0000
0300
0000
0010
0001
,
1000
0000
0001
0000
0010
0000
0100
0020
0000
0000
0031
0000
1000
0000
0010
0000
,
0100
0000
0001
0200
0000
0000
0000
0000
0300
0000
0001
0000
1000
0000
0001
0000
,
0200
0000
0000
0000
0301
0000
1000
0200
0000
0000
0310
0000
0001
0000
0100
0000
,
0010
0000
1000
0000
0001
0000
0010
0200
0000
0000
0000
0000
0300
0000
1000
0001
,
0010
0000
0100
0000
1000
0000
0001
0200
0000
0000
0310
0000
1000
0000
0001
0000
,
0010
0000
0100
0000
1000
0000
0010
0200
0000
0000
0000
0000
0300
0000
0001
1000
,
0001
0000
0010
0000
0100
0000
1000
0002
0000
0000
0000
0000
0003
0000
0100
0010
,
1000
0000
0001
0000
0010
0000
0100
2000
0000
0000
0000
0000
3000
0000
0001
0000
,
0010
0000
0100
0000
1000
0000
0010
2000
0000
0000
3001
0000
0010
0000
0100
0000
,
0020
0000
0000
0032
0000
0000
1003
0000
0020
0000
0000
0000
0000
0000
0000
0000
,
1030
0000
0100
0000
0010
0001
1000
0000
0010
0000
0100
0000
0001
0010
0100
0000
,
1000
0000
0001
0000
0100
0010
1000
0000
0002
0000
0000
0203
0000
0000
0301
0000
,
0010
0000
0100
1000
0000
0001
1000
0000
0010
0000
0100
0001
0000
0100
0010
0000
,
1000
0000
0001
0010
0100
0000
1000
0001
1000
0000
0010
0100
0001
0000
1000
0100
,
1000
0000
0001
0000
0100
0010
1000
0001
0010
0100
0000
2000
0000
0000
3001
0100
,
0010
0000
1000
0000
0001
0010
0100
1000
0002
0000
0000
0203
0000
0000
0310
0000
,
1000
0001
0100
0001
1000
0001
0010
0100
1000
0100
0010
0001
1000
0010
0100
0010
,
4000
0000
0000
3002
,
1003
0010
0100
0001
0010
0100
1000
0100
,
1000
0001
0100
0010
0100
0001
1000
0100
,
0010
0001
1000
0001
0100
0010
1000
0001
,
1000
0100
1000
0010
1000
0001
0100
0001
,
0010
0001
1000
0100
0010
0100
1000
0010
,
0100
0001
1000
0001
0010
0100
0010
0001
,
1000
0010
0100
0001
0010
0100
1000
0100
,
1000
0001
0100
0010
1000
0100
0010
0001
;
