#TITLE:Nothing in This World;
#SUBTITLE:Sexuality Violation;
#ARTIST:Paris Hilton;
#TITLETRANSLIT:;
#SUBTITLETRANSLIT:;
#ARTISTTRANSLIT:;
#CREDIT:;
#BANNER:Nothing in This World-bn.png;
#BACKGROUND:Nothing in This World-bg.png;
#LYRICSPATH:;
#CDTITLE:;
#MUSIC:Nothing in this World.ogg;
#OFFSET:-0.475;
#SAMPLESTART:74.255;
#SAMPLELENGTH:14.980;
#SELECTABLE:YES;
#BPMS:0.000=130.000;
#STOPS:;
#BGCHANGES:;
// cache tags:
#FIRSTBEAT:14.500;
#LASTBEAT:360.500;
#SONGFILENAME:Songs/Sexuality Violation 2/Nothing in This World - [Zaia]/Nothing in This World.sm;
#HASMUSIC:1;
#HASBANNER:1;
#MUSICLENGTH:175.211;
// end cache tags

//---------------dance-single - Zaia----------------
#NOTES:
     dance-single:
     Zaia:
     Challenge:
     14:
     0.965,1.000,0.068,0.348,1.000,1110.000,12.000,61.000,0.000,2.000:

0000
0000
0000
0000
,
0000
0000
0000
0000
,
0000
0000
0000
0000
,
0000
0000
0000
0000
0000
0001
0100
0001
,
1000
0100
0010
0100
1000
0000
0001
0100
,
0010
0000
1000
0001
0000
0010
0000
0000
,
0000
0000
0100
0000
1000
0001
0000
0100
,
0000
0000
0000
0000
0000
0010
1000
0001
,
0010
0100
0010
0001
0100
0000
0010
1000
,
0001
0000
0010
0100
0000
1000
0000
0000
,
0000
0010
0100
0000
0001
1000
0000
0200
,
0000
0000
0300
0000
0000
1000
0100
0010
,
0002
0000
0000
0000
0000
0103
0010
1000
,
0200
0000
0000
0000
0000
0310
0001
0100
,
0020
0000
0000
0000
0000
0130
0001
2000
,
0000
3002
0000
0203
0000
0310
1000
0000
,
0001
0100
0010
1000
0001
0100
0010
0100
0001
1000
0001
0010
0100
1000
0100
0010
0001
1000
0010
0100
0001
1000
0010
1000
,
0001
0010
0100
0010
0001
1000
0010
1000
0001
0100
0001
1000
0100
0010
0001
1000
0001
0100
0010
1000
0001
0010
0100
1000
,
0010
0100
0001
1000
0100
0010
0100
1000
0001
1000
0010
0100
0001
1000
0001
0010
0100
0010
0001
1000
0010
0100
0001
1000
,
0010
1000
0001
0100
0010
1000
0100
0010
0100
1000
0001
0010
0100
0010
0001
1000
0001
0100
0010
0100
0001
1000
0100
1000
,
0010
0100
0001
1000
0010
0100
0010
1000
0001
1000
0100
0010
0001
0010
0100
1000
0001
0100
0010
1000
0001
0100
0001
1000
,
0100
0010
0100
1000
0001
0100
0001
1000
0010
1000
0001
0010
0100
1000
0001
1000
0010
0100
0001
1000
0100
1000
0010
0100
,
0001
1000
0001
0010
0001
1000
0010
0100
0010
1000
0100
0010
0001
1000
0001
0100
0001
1000
0100
0010
0100
1000
0001
0100
,
0001
0010
0001
1000
0100
1000
0010
1000
0001
0100
0010
1000
0010
0100
0001
1000
0001
0010
0100
1000
0001
1000
0001
0100
,
0010
0000
1000
0000
1000
0000
0000
0001
,
0000
0001
0000
0010
0200
0000
2300
0000
,
3001
0000
0100
0000
0100
0000
0000
0010
,
0000
0010
0000
1000
0002
0000
0013
0100
,
1000
0010
0100
0001
0010
0000
0100
1000
,
0002
0000
0103
0020
0000
2030
0000
3000
,
0000
0000
0001
0000
1000
0100
0000
0010
,
0000
0000
0000
0000
0000
0100
1000
1000
,
0001
0001
0100
0100
0010
0000
1000
0001
,
0020
0000
0130
2000
0000
3002
0000
0003
,
0000
0000
0100
0000
0010
1000
0000
0200
,
0000
0300
0000
0000
0000
0010
0001
1000
,
0020
0230
0302
2003
0000
3100
0010
0001
,
2000
3020
0230
0302
0000
0013
0100
1000
,
0020
0230
0302
2003
0000
3100
0010
0002
,
0000
2003
0000
3020
0000
0030
0000
0000
,
1000
0100
0010
0001
1000
0100
0010
0100
1000
0001
1000
0010
0100
0001
0100
0010
1000
0001
0010
0100
1000
0001
0010
0001
,
1000
0010
0100
0010
1000
0001
0010
0001
1000
0100
1000
0001
0100
0010
1000
0001
1000
0100
0010
0001
1000
0010
0100
0001
,
0010
0100
1000
0001
0100
0010
0100
0001
1000
0001
0010
0100
1000
0001
1000
0010
0100
0010
1000
0001
0010
0100
1000
0001
,
0010
0001
1000
0100
0010
0001
0100
0010
0100
0001
1000
0010
0100
0010
1000
0001
1000
0100
0010
0100
1000
0001
0100
0001
,
0010
0100
1000
0001
0010
0100
0010
0001
1000
0001
0100
0010
1000
0010
0100
0001
1000
0100
0010
0001
1000
0100
1000
0001
,
0100
0010
0100
0001
1000
0100
1000
0001
0010
0001
1000
0010
0100
0001
1000
0001
0010
0100
1000
0001
0100
0001
0010
0100
,
1000
0001
1000
0010
1000
0001
0010
0100
0010
0001
0100
0010
1000
0001
1000
0100
1000
0001
0100
0010
0100
0001
1000
0100
,
1000
0010
1000
0001
0100
0001
0010
0001
1000
0100
0010
0001
0010
0100
1000
0001
1000
0010
0100
0001
1000
0001
1000
0100
,
0010
0000
0001
0000
0001
0000
0000
1000
,
0000
1000
0000
0010
0200
0000
0302
0000
,
1003
0000
0100
0000
0100
0000
0000
0010
,
0000
0010
0000
0001
2000
0000
3020
0000
,
0131
0000
0101
0000
1001
1000
0001
0020
,
0000
0230
2300
3002
0203
0000
0310
0000
,
1010
0000
1010
0000
0110
0100
0001
0020
,
0000
0130
1000
0001
0100
0020
0000
1030
,
1001
0000
1001
0000
0011
0010
0100
2000
,
0000
3001
0010
0001
0200
0000
0302
0000
,
1103
0000
1100
0000
0011
0001
0100
0020
,
0000
1030
0001
0100
0001
0020
0000
0230
,
0000
2300
3200
0320
0000
0032
0203
0320
,
0000
2030
0000
3002
0000
0023
0000
0230
,
1300
0010
0100
0001
1000
0010
0100
0010
1000
0001
1000
0100
0010
0001
0010
0100
1000
0001
0100
0010
1000
0001
0100
0001
,
1000
0100
0010
0100
1000
0001
0100
0001
1000
0010
1000
0001
0010
0100
1000
0001
1000
0010
0100
0001
1000
0100
0010
0001
,
0100
0010
1000
0001
0010
0100
0010
0001
1000
0001
0100
0010
1000
0001
1000
0100
0010
0100
1000
0001
0100
0010
1000
0001
,
0100
0001
1000
0010
0100
0001
0010
0100
0010
0001
1000
0100
0010
0100
1000
0001
1000
0010
0100
0010
1000
0001
0010
0001
,
0100
0010
1000
0001
0100
0010
0100
0001
1000
0001
0010
0100
1000
0100
0010
0001
1000
0010
0100
0001
1000
0010
1000
0001
,
0010
0100
0010
0001
1000
0010
1000
0001
0100
0001
1000
0100
0010
0001
1000
0001
0100
0010
1000
0001
0010
0001
0100
0010
,
1000
0001
1000
0100
1000
0001
0100
0010
0100
0001
0010
0100
1000
0001
1000
0010
1000
0001
0010
0100
0010
0001
1000
0010
,
1000
0100
1000
0001
0010
0001
0100
0001
1000
0010
0100
0001
2000
0000
0000
0000
0000
0000
3000
0000
0000
0000
0000
0000
,
0001
0100
0010
1000
0001
0100
0010
0100
0001
1000
0001
0010
0100
1000
0100
0010
0001
1000
0010
0100
0001
1000
0010
1000
,
0001
0010
0100
0010
0001
1000
0010
1000
0001
0100
0001
1000
0100
0010
0001
1000
0001
0100
0010
1000
0001
0010
0100
1000
,
0010
0100
0001
1000
0100
0010
0100
1000
0001
1000
0010
0100
0001
1000
0001
0010
0100
0010
0001
1000
0010
0100
0001
1000
,
0010
1000
0001
0100
0010
1000
0100
0010
0100
1000
0001
0010
0100
0010
0001
1000
0001
0100
0010
0100
0001
1000
0100
1000
,
0010
0100
0001
1000
0010
0100
0010
1000
0001
1000
0100
0010
0001
0010
0100
1000
0001
0100
0010
1000
0001
0100
0001
1000
,
0100
0010
0100
1000
0001
0100
0001
1000
0010
1000
0001
0010
0100
1000
0001
1000
0010
0100
0001
1000
0100
1000
0010
0100
,
0001
1000
0001
0010
0001
1000
0010
0100
0010
1000
0100
0010
0001
1000
0001
0100
0001
1000
0100
0010
0100
1000
0001
0100
,
0001
0010
0001
1000
0100
1000
0010
1000
0001
0100
0010
1000
0010
0100
0001
1000
0001
0010
0100
1000
0001
1000
0001
0100
,
0010
1000
0001
1000
0010
0100
0010
0100
0001
0100
0001
0100
0010
1000
0001
0010
,
0100
1000
0001
0100
0010
1000
0001
0010
0001
1000
0100
1000
0010
0100
0001
1000
,
0100
0010
0001
1000
0100
0010
0100
0010
0001
0010
0001
0010
0100
1000
0001
0100
,
0010
1000
0001
0010
0100
1000
0001
0100
0001
1000
0010
1000
0100
0010
0001
1000
,
0010
1000
0001
1000
0010
0100
0010
0100
0001
0100
0001
0100
0010
1000
0001
0010
,
0100
1000
0001
0100
0010
1000
0001
0010
0001
1000
0100
1000
0010
0100
0001
1000
,
0100
0010
0001
1000
0100
0010
0100
0010
0001
0010
0001
0010
0100
1000
0001
0100
,
0010
1000
0001
0010
0100
1000
0001
0100
0001
1000
0010
1000
0100
0010
0001
1000
,
0001
0000
0100
0000
0010
0010
1000
0000
,
0001
0000
0010
0000
0100
0100
1000
0000
,
0010
0000
0100
0000
0001
0001
0010
0000
,
0100
0000
1000
0000
0001
0001
0100
0020
,
0000
0030
0000
0000
0000
0000
0000
0000
;

//---------------dance-single - Zaia----------------
#NOTES:
     dance-single:
     Zaia:
     Hard:
     11:
     0.759,0.849,0.068,0.348,0.902,858.000,12.000,61.000,0.000,2.000:
0000
0000
0000
0000
,
0000
0000
0000
0000
,
0000
0000
0000
0000
,
0000
0000
0000
0000
0000
0001
0100
0001
,
1000
0100
0010
0100
1000
0000
0001
0100
,
0010
0000
1000
0001
0000
0010
0000
0000
,
0000
0000
0100
0000
1000
0001
0000
0100
,
0000
0000
0000
0000
0000
0010
1000
0001
,
0010
0100
0010
0001
0100
0000
0010
1000
,
0001
0000
0010
0100
0000
1000
0000
0000
,
0000
0010
0100
0000
0001
1000
0000
0200
,
0000
0000
0300
0000
0000
1000
0100
0010
,
0002
0000
0000
0000
0000
0103
0010
1000
,
0200
0000
0000
0000
0000
0310
0001
0100
,
0020
0000
0000
0000
0000
0130
0001
2000
,
0000
3002
0000
0203
0000
0310
1000
0000
,
0001
0100
0010
1000
0001
0010
0100
0010
0001
0100
0010
1000
0001
0010
0001
1000
,
0100
1000
0001
0100
0010
1000
0001
0100
0001
1000
0100
0010
0001
1000
0100
1000
,
0010
0100
0001
1000
0100
1000
0001
0100
0001
1000
0100
0010
0001
1000
0001
0100
,
0010
1000
0001
1000
0100
0010
0100
1000
0001
1000
0010
0100
0001
1000
0001
0010
,
0100
0010
0100
1000
0001
0100
0010
0100
0001
0100
0010
1000
0001
0100
0001
1000
,
0010
1000
0001
0010
0100
1000
0001
0010
0001
1000
0010
0100
0001
1000
0100
1000
,
0010
0100
0010
0100
0001
1000
0100
1000
0010
0100
0010
0100
0001
0010
0001
1000
,
0100
1000
0010
1000
0001
0100
0001
0010
0100
1000
0001
1000
0010
0100
0001
1000
,
0010
0000
1000
0000
1000
0000
0000
0001
,
0000
0001
0000
0010
0200
0000
2300
0000
,
3001
0000
0100
0000
0100
0000
0000
0010
,
0000
0010
0000
1000
0002
0000
0013
0100
,
1000
0010
0100
0001
0010
0000
0100
1000
,
0002
0000
0103
0020
0000
2030
0000
3000
,
0000
0000
0001
0000
1000
0100
0000
0010
,
0000
0000
0000
0000
0000
0100
1000
1000
,
0001
0001
0100
0100
0010
0000
1000
0001
,
0020
0000
0130
2000
0000
3002
0000
0003
,
0000
0000
0100
0000
0010
1000
0000
0200
,
0000
0300
0000
0000
0000
0010
0001
1000
,
0020
0230
0302
2003
0000
3100
0010
0001
,
2000
3020
0230
0302
0000
0013
0100
1000
,
0020
0230
0302
2003
0000
3100
0010
0002
,
0000
2003
0000
3020
0000
0030
0000
0000
,
1000
0100
0010
0001
1000
0010
0100
0010
1000
0100
0010
0001
1000
0010
1000
0001
,
0100
0001
1000
0100
0010
0001
1000
0100
1000
0001
0100
0010
1000
0001
0100
0001
,
0010
0100
1000
0001
0100
0001
1000
0100
1000
0001
0100
0010
1000
0001
1000
0100
,
0010
0001
1000
0001
0100
0010
0100
0001
1000
0001
0010
0100
1000
0001
1000
0010
,
0100
0010
0100
0001
1000
0100
0010
0100
1000
0100
0010
0001
1000
0100
1000
0001
,
0010
0001
1000
0010
0100
0001
1000
0010
1000
0001
0010
0100
1000
0001
0100
0001
,
0010
0100
0010
0100
1000
0001
0100
0001
0010
0100
0010
0100
1000
0010
1000
0001
,
0100
0001
0010
0001
1000
0100
1000
0010
0100
0001
1000
0001
0010
0100
1000
0001
,
0010
0000
0001
0000
0001
0000
0000
1000
,
0000
1000
0000
0010
0200
0000
0302
0000
,
1003
0000
0100
0000
0100
0000
0000
0010
,
0000
0010
0000
0001
2000
0000
3020
0000
,
0131
0000
0101
0000
1001
1000
0001
0020
,
0000
0230
2300
3002
0203
0000
0310
0000
,
1010
0000
1010
0000
0110
0100
0001
0020
,
0000
0130
1000
0001
0100
0020
0000
1030
,
1001
0000
1001
0000
0011
0010
0100
2000
,
0000
3001
0010
0001
0200
0000
0302
0000
,
1103
0000
1100
0000
0011
0001
0100
0020
,
0000
1030
0001
0100
0001
0020
0000
0230
,
0000
2300
3200
0320
0000
0032
0203
0320
,
0000
2030
0000
3002
0000
0023
0000
0230
,
1300
0010
0100
0001
1000
0100
0010
0100
1000
0010
0100
0001
1000
0100
1000
0001
,
0010
0001
1000
0010
0100
0001
1000
0010
1000
0001
0010
0100
1000
0001
0010
0001
,
0100
0010
1000
0001
0010
0001
1000
0010
1000
0001
0010
0100
1000
0001
1000
0010
,
0100
0001
1000
0001
0010
0100
0010
0001
1000
0001
0100
0010
1000
0001
1000
0100
,
0010
0100
0010
0001
1000
0010
0100
0010
1000
0010
0100
0001
1000
0010
1000
0001
,
0100
0001
1000
0100
0010
0001
1000
0100
1000
0001
0100
0010
1000
0001
0010
0001
,
0100
0010
0100
0010
1000
0001
0010
0001
0100
0010
0100
0010
1000
0100
1000
0001
,
0010
0001
0100
0001
1000
0010
1000
0100
2000
0000
0000
0000
3000
0000
0000
0000
,
0001
0100
0010
1000
0001
0010
0100
0010
0001
0100
0010
1000
0001
0010
0001
1000
,
0100
1000
0001
0100
0010
1000
0001
0100
0001
1000
0100
0010
0001
1000
0100
1000
,
0010
0100
0001
1000
0100
1000
0001
0100
0001
1000
0100
0010
0001
1000
0001
0100
,
0010
1000
0001
1000
0100
0010
0100
1000
0001
1000
0010
0100
0001
1000
0001
0010
,
0100
0010
0100
1000
0001
0100
0010
0100
0001
0100
0010
1000
0001
0100
0001
1000
,
0010
1000
0001
0010
0100
1000
0001
0010
0001
1000
0010
0100
0001
1000
0100
1000
,
0010
0100
0010
0100
0001
1000
0100
1000
0010
0100
0010
0100
0001
0010
0001
1000
,
0100
1000
0010
1000
0001
0100
0001
0010
0100
1000
0001
0100
0010
1000
0001
0100
,
0010
1000
0001
1000
0100
0010
0100
0010
0001
0010
0001
0010
0100
1000
0001
0100
,
0010
1000
0001
0010
0100
1000
0001
0100
0001
1000
0010
1000
0100
0010
0001
1000
,
0010
0100
0001
1000
0010
0100
0010
0100
0001
0100
0001
0100
0010
1000
0001
0010
,
0100
1000
0001
0100
0010
1000
0001
0010
0001
1000
0100
1000
0010
0100
0001
1000
,
0100
1000
0001
1000
0100
0010
0100
0010
0001
0010
0001
0010
0100
1000
0001
0100
,
0010
1000
0001
0010
0100
1000
0001
0100
0001
1000
0010
1000
0100
0010
0001
1000
,
0010
0100
0001
1000
0010
0100
0010
0100
0001
0100
0001
0100
0010
1000
0001
0010
,
0100
1000
0001
0100
0010
1000
0001
0010
0001
1000
0100
1000
0010
0100
0001
1000
,
0001
0000
0100
0000
0010
0010
1000
0000
,
0001
0000
0010
0000
0100
0100
1000
0000
,
0010
0000
0100
0000
0001
0001
0010
0000
,
0100
0000
1000
0000
0001
0001
0100
0020
,
0000
0030
0000
0000
0000
0000
0000
0000
;
