#TITLE:Goretrance 3;
#SUBTITLE:;
#ARTIST:Goreshit;
#TITLETRANSLIT:;
#SUBTITLETRANSLIT:;
#ARTISTTRANSLIT:;
#CREDIT:;
#BANNER:bn.png;
#BACKGROUND:bg.png;
#LYRICSPATH:;
#CDTITLE:cd-aoreo & parrax.png;
#MUSIC:Goretrance 3.ogg;
#OFFSET:0.904;
#SAMPLESTART:31.309;
#SAMPLELENGTH:12.000;
#SELECTABLE:YES;
#BPMS:0.000=201.000;
#STOPS:;
#BGCHANGES:;
// cache tags:
#FIRSTBEAT:3.000;
#LASTBEAT:2096.000;
#SONGFILENAME:Songs/Index Tournament 1/Goretrance 3 - [Aoreo & Parrax!]/Goretrance-3.sm;
#HASMUSIC:1;
#HASBANNER:1;
#MUSICLENGTH:626.671;
// end cache tags

//---------------dance-single - 19.2 (Aoreo & Parrax----------------
#NOTES:
     dance-single:
     19.2 (Aoreo & Parrax:
     Challenge:
     19:
     1.000,1.000,0.013,0.096,1.000,8019.000,8.000,60.000,0.000,1.000:

0000
0000
0000
2000
,
3001
0100
0001
1000
0010
0100
0010
1000
0001
0100
0001
0010
0100
1000
0001
1000
,
0010
0100
0001
0100
0010
1000
0001
1000
0100
0010
0001
0100
0001
1000
0001
0100
,
0010
1000
0010
0100
0001
1000
0001
0010
0100
1000
0001
1000
0100
0010
0001
1000
,
0001
0010
0100
1000
0001
0100
0001
0010
0100
1000
0001
0100
0001
1000
0010
1000
,
0100
0010
0001
1000
0010
0100
0001
1000
0010
1000
0100
0010
0001
1000
0001
0100
,
0010
1000
0010
0100
0001
1000
0001
0010
0100
1000
0001
0100
0001
1000
0100
1000
,
0001
0100
0010
0100
0001
1000
0001
0010
0001
1000
0100
0010
0001
1000
0010
1000
,
0100
0010
0001
1000
0001
0100
0010
0100
0001
0010
0001
1000
0100
1000
0010
1000
,
0001
0100
0010
1000
0010
0100
0001
1000
0001
0010
0100
1000
0001
0100
0001
1000
,
0100
1000
0001
0100
0010
1000
0001
0010
0001
1000
0010
0100
0001
1000
0100
1000
,
0010
0100
0001
1000
0001
0100
0010
0100
0001
1000
0100
0010
0001
1000
0001
0010
,
0100
1000
0001
1000
0010
0100
0010
1000
0001
1000
0100
0010
0001
1000
0100
1000
,
0010
0100
0001
1000
0010
0100
0001
0100
0010
1000
0001
0100
0001
1000
0010
1000
,
0100
0010
0001
1000
0010
0100
0001
0010
0001
1000
0100
0010
0001
1000
0001
0100
,
0001
1000
0010
0100
0001
1000
0100
1000
0010
0100
0001
0100
0010
1000
0001
1000
,
0100
0010
0001
0100
0001
1000
0010
1000
0001
0010
0100
0010
0001
0100
0010
1000
,
0001
0001
0001
0001
,
1000
0000
0001
0000
1000
0000
0000
0000
1000
0001
0100
0010
1000
0001
0100
0010
,
1000
0100
0010
0100
1000
0001
0100
0010
0100
0001
1000
0010
1000
0001
0010
0100
,
1000
0001
0010
0001
1000
0010
0100
0010
1000
0001
0010
0001
1000
0010
1000
0001
,
0100
0010
0100
0001
1000
0010
1000
0001
0010
0100
0010
0001
1000
0100
1000
0001
,
0010
0100
1000
0001
0010
0001
1000
0010
0100
0010
1000
0001
0100
0001
1000
0010
,
1000
0010
0100
0001
1000
0001
0010
0100
1000
0001
0010
0001
1000
0010
1000
0001
,
0100
0010
0100
0001
1000
0100
0010
0100
1000
0001
0010
0001
1000
0010
1000
0001
,
0100
0001
1000
0010
1000
0010
0100
0001
1000
0010
1000
0001
0010
0100
0010
0001
,
1000
0000
0000
0100
0000
0000
1000
0000
0000
0001
0000
0000
0010
0000
0000
0100
0000
0000
1000
0000
0000
0001
0000
0000
0010
0000
0000
0001
0000
0000
1000
0000
0000
0010
0000
0000
0100
0000
0000
0001
0000
0000
1000
0000
0010
0000
1000
0000
,
0001
0100
0010
0100
0001
1000
0100
0010
0100
1000
0010
0100
0001
0100
0010
1000
,
0001
0010
0100
0010
0001
0100
0010
0100
0001
1000
0100
1000
0010
0100
0010
1000
,
0001
0010
0100
1000
0001
0100
0010
0100
0001
0010
0100
1000
0010
1000
0001
0100
,
0010
0100
0001
1000
0010
0100
0010
1000
0001
0010
0100
0010
0001
1000
0010
0100
,
0010
1000
0001
0010
0100
1000
0010
1000
0001
0100
0010
0100
0001
0010
0100
1000
,
0001
0100
0001
1000
0010
1000
0001
0010
0100
0010
0001
1000
0100
1000
0010
0100
,
0010
1000
0001
0010
0100
0010
0001
0100
0010
0100
0001
1000
0010
1000
0100
0010
,
0001
0000
0000
1000
0000
0000
0010
0000
0000
1000
0000
0000
0001
0000
0000
0010
0000
0000
0100
0000
0000
0010
0000
0000
0001
0000
0000
0100
0000
0000
0010
0000
0000
0100
0000
0000
0001
0000
0000
1000
0000
0000
0010
0000
1000
0000
0001
0000
,
0100
0001
1000
0001
0100
0010
1000
0010
0100
0001
1000
0001
0010
0100
1000
0001
,
1000
0010
1000
0001
0100
0010
0100
0001
1000
0010
1000
0001
0010
0100
1000
0001
,
0100
0010
0100
0001
0100
0010
1000
0001
1000
0100
1000
0001
0010
0100
0010
0001
,
0100
0010
0100
0001
1000
0010
0100
0010
1000
0100
0010
0001
1000
0001
1000
0010
,
0100
0001
0100
0010
1000
0100
0010
0100
1000
0010
0100
0010
1000
0001
0010
0100
,
0010
0001
0100
0010
0100
0010
1000
0001
0100
0010
0100
0001
1000
0100
0010
0100
,
1000
0001
0100
0001
1000
0010
0100
0010
1000
0001
0010
0100
0010
0001
1000
0100
,
1000
0001
0100
0010
0100
0001
1000
0100
0010
0100
1000
0001
0100
0001
1000
0100
,
0010
0001
1000
0010
0100
0010
1000
0001
0010
0001
1000
0100
0010
0001
1000
0010
,
0100
0010
1000
0001
0100
0001
1000
0010
0100
0001
0010
0001
1000
0010
0100
0001
,
1000
0100
1000
0100
0010
0001
1000
0001
0100
0010
0100
0001
0010
0001
1000
0100
,
1000
0100
0010
0001
1000
0010
0100
0001
0100
0001
1000
0010
0100
0010
1000
0100
,
0010
0100
0010
0001
1000
0010
0100
0010
1000
0001
0010
0001
1000
0100
0010
0001
,
1000
0010
1000
0010
0100
0001
1000
0001
0010
0100
1000
0001
0010
0001
1000
0010
,
0100
0010
0100
0001
1000
0100
1000
0100
0010
0001
1000
0010
1000
0001
0010
0100
,
0010
0001
1000
0010
0100
0010
1000
0001
0100
0001
1000
0100
1000
0010
0100
0010
,
1000
0001
0010
0100
0010
0001
1000
0010
1000
0100
0010
0001
1000
0001
0100
0010
,
0100
0001
1000
0100
0010
0100
1000
0010
0100
0001
0100
0001
1000
0100
0010
0001
,
0100
0010
0100
0001
1000
0100
0010
0100
1000
0001
0100
0010
0100
0001
1000
0100
,
1000
0001
0100
0010
0100
0001
1000
0001
0010
0100
1000
0001
0100
0010
0100
0001
,
1000
0100
0010
0001
1000
0010
0100
0010
1000
0001
0100
0001
1000
0100
0010
0001
,
0100
0001
1000
0100
0010
0100
1000
0001
0100
0010
0100
0001
1000
0100
0010
0001
,
1000
0001
0100
0010
0100
0001
1000
0100
0010
0100
1000
0001
0100
0010
0100
0001
,
1000
0100
1000
0001
0010
0100
0010
0001
1000
0010
1000
0001
0100
0010
1000
0001
,
0100
0001
1000
0100
0010
0100
1000
0001
0100
0001
1000
0100
0010
0001
1000
0010
,
0100
0000
0000
0010
0000
0000
1000
0000
0000
0001
0000
0000
0100
0000
0000
0001
0000
0000
1000
0000
0000
0100
0000
0000
0010
0000
0000
0100
0000
0000
1000
0000
0000
0001
0000
0000
0010
0000
0000
0100
0000
0000
1000
0000
0001
0000
1000
0000
,
0001
0100
0010
1000
0001
0100
0001
1000
0100
1000
0001
0100
0010
0100
0001
1000
,
0100
1000
0010
0100
0001
1000
0001
0010
0100
0010
0001
1000
0010
0100
0010
1000
,
0001
0100
0001
1000
0100
0010
0001
1000
0010
0100
0010
1000
0001
0100
0001
0010
,
0100
0010
0001
1000
0100
1000
0001
0100
0010
0100
0001
1000
0010
0100
0010
1000
,
0100
0010
0100
1000
0001
0100
0001
1000
0100
0010
0001
1000
0001
0100
0010
0100
,
0001
1000
0100
0010
0100
1000
0001
0010
0001
1000
0010
0100
0010
1000
0001
0100
,
0001
1000
0100
0010
0001
1000
0010
0100
0010
1000
0001
0010
0100
0010
0001
1000
,
0010
0000
0000
0100
0000
0000
0001
0000
0000
1000
0000
0000
0001
0000
0000
0010
0000
0000
0100
0000
0000
1000
0000
0000
0001
0000
0000
0100
0000
0000
0010
0000
0000
0100
0000
0000
0001
0000
0000
1000
0000
0000
0001
0000
1000
0000
0100
0000
,
1000
0001
1000
0010
0100
0001
0100
0010
1000
0001
0010
0100
0010
0001
1000
0010
,
0100
0010
1000
0001
0010
0100
1000
0010
1000
0001
0010
0100
0010
0001
0100
0010
,
1000
0000
0001
0000
0010
0000
0100
0000
1000
0000
0001
0010
0001
1000
0001
0100
,
0010
0000
1000
0000
0100
0000
1000
0000
0001
0000
1000
0200
0000
0000
0000
0000
,
0310
0000
0001
0000
1000
0000
0010
0000
1000
0000
0001
0010
0001
1000
0001
0100
,
0010
1000
0100
0010
0100
1000
0010
0100
0001
0010
0100
1000
0010
1000
0001
0100
,
0010
1000
0001
0100
0001
1000
0010
0100
0001
1000
0100
1000
0001
0100
0010
0100
,
0001
1000
0001
0010
0100
1000
0001
0010
0001
1000
0010
0100
0001
1000
0001
0010
,
0100
1000
0001
0100
0001
1000
0010
0100
0001
1000
0100
0010
0001
1000
0001
0100
,
0010
1000
0001
0100
0001
1000
0100
0010
0001
1000
0001
0100
0010
0100
0001
1000
,
0001
0100
0010
1000
0001
0100
0001
1000
0100
0010
0100
1000
0001
0100
0001
1000
,
0010
0100
0010
1000
0001
0100
0010
0100
0001
1000
0100
1000
0001
1000
0100
0010
,
0001
1000
0001
0100
0010
0100
0001
1000
0100
0010
0001
1000
0100
1000
0001
0100
,
0010
1000
0010
0100
0001
0010
0100
1000
0001
0100
0010
1000
0010
0100
0001
0010
,
0001
1000
0100
1000
0010
1000
0001
0010
0100
1000
0001
0100
0010
1000
0010
1000
,
0001
0010
0100
1000
0001
0010
0001
1000
0100
1000
0010
0100
0001
0100
0001
1000
,
0100
0010
0001
1000
0010
1000
0100
0010
0001
1000
0100
1000
0010
1000
0001
0010
,
0001
1000
0010
0100
0001
0100
0010
1000
0001
0010
0001
1000
0100
1000
0010
0100
,
0001
1000
0001
0010
0100
1000
0001
0100
0010
1000
0010
0100
0001
1000
0100
1000
,
0001
0010
0100
1000
0010
0100
0001
0100
0001
1000
0100
1000
0001
0100
0001
0010
,
0001
1000
0010
0100
0001
1000
0100
1000
0001
0010
0100
0010
0001
1000
0010
1000
,
0001
0000
0000
0100
0000
0000
0010
0000
0000
1000
0000
0000
0001
0000
0000
0010
0000
0000
0001
0000
0000
1000
0000
0000
0100
0000
0000
1000
0000
0000
0010
0000
0000
0100
0000
0000
0001
0000
0000
0100
0000
0000
0001
0000
1000
0000
0100
0000
,
1000
0010
1000
0001
0010
0001
0100
0010
1000
0010
1000
0001
0010
0001
0100
0001
,
1000
0100
1000
0010
0100
0001
1000
0001
0010
0100
1000
0001
0100
0001
1000
0100
,
1000
0010
0100
0001
0100
0010
1000
0100
1000
0001
0010
0001
1000
0010
1000
0100
,
1000
0010
0100
0001
1000
0100
0010
0001
1000
0010
0100
0010
1000
0001
0010
0001
,
0100
0001
1000
0100
1000
0001
0010
0100
1000
0010
0100
0001
1000
0001
0010
0100
,
0010
0001
1000
0010
0100
0001
1000
0010
1000
0001
0010
0001
0100
0001
1000
0100
,
1000
0010
0100
0001
1000
0100
0010
0100
1000
0001
1000
0010
0100
0001
1000
0100
,
0010
0000
0000
0000
0000
0000
0000
0000
0000
0000
0000
0000
0001
0000
0000
0000
0000
0000
0000
0000
0000
0000
0000
0000
1000
0000
0000
0000
0000
0000
0000
0000
0000
0000
0000
0000
0010
0000
0000
0000
0000
0000
0000
0000
0000
0000
0000
0000
0100
0000
0000
0000
0000
0000
0000
0000
0000
0000
0000
0000
0001
0000
0000
0000
0000
0000
0000
0000
0000
0000
0000
0000
1000
0000
0000
0000
0000
0000
0000
0000
0000
0000
0000
0000
0010
0000
0000
0000
0000
0000
0000
0000
0000
0000
0000
0000
1000
0000
0000
0000
0000
0000
0000
0000
0000
0000
0000
0000
0001
0000
0000
0000
0000
0000
0000
0000
0000
0000
0000
0000
0100
0000
0000
0000
0000
0000
0000
0000
0000
0000
0000
0000
0001
0000
0000
0000
0000
0000
0000
0000
0000
0000
0000
0000
1000
0000
0000
0000
0000
0000
0000
0000
0000
0000
0100
0000
0000
0000
0000
0000
0000
0000
0000
1000
0000
0000
0000
0000
0000
0000
0000
0000
0000
0010
0000
0000
0000
0000
0000
0000
0000
0000
0100
0000
0000
0000
0000
0000
0000
0000
0000
0000
,
0001
0010
0100
1000
0001
0100
0010
1000
0010
0100
0001
0010
0001
1000
0100
0010
,
0001
1000
0010
0100
0010
1000
0001
0010
0001
1000
0010
1000
0001
0100
0001
1000
,
0100
1000
0001
0010
0001
1000
0100
1000
0001
0100
0010
1000
0010
1000
0001
0010
,
0001
1000
0010
1000
0001
0010
0100
1000
0001
1000
0010
1000
0001
0010
0100
1000
,
0001
1000
0100
1000
0001
0100
0010
1000
0010
0100
0001
1000
0100
1000
0001
0010
,
0001
1000
0010
1000
0001
0100
0010
0100
0001
1000
0100
0010
0001
1000
0001
0010
,
0001
1000
0010
0100
0001
0100
0010
1000
0001
0010
0100
1000
0001
0010
0100
1000
,
0001
0100
0010
0100
0001
1000
0100
0010
0100
0010
0001
1000
0010
1000
0001
0100
,
0001
1000
0100
1000
0001
0010
0100
1000
0001
0010
0100
1000
0001
0100
0010
0100
,
0001
1000
0100
1000
0001
1000
0010
0100
0001
1000
0100
0010
0001
1000
0010
0100
,
0001
0100
0010
1000
0001
0010
0100
1000
0001
0010
0100
1000
0001
0100
0010
0100
,
0001
0010
0001
1000
0100
1000
0001
0010
0001
0100
0010
1000
0001
1000
0100
0010
,
0001
1000
0010
1000
0001
0100
0010
1000
0001
0010
0100
1000
0001
0010
0100
1000
,
0001
0100
0010
1000
0010
0100
0001
1000
0100
1000
0001
0010
0001
0100
0010
1000
,
0010
1000
0001
0010
0001
1000
0100
0010
0001
1000
0100
0010
0001
1000
0010
0100
,
0001
1000
0100
0010
0001
0100
0001
1000
0001
0010
0100
1000
0001
0010
0100
1000
,
0010
0100
0001
1000
0001
0100
0010
1000
0001
0010
0100
1000
0001
0010
0001
0100
,
0001
1000
0100
0010
0001
1000
0010
1000
0100
1000
0001
0100
0010
1000
0010
0100
,
0001
1000
0100
1000
0001
0010
0001
0100
0010
1000
0001
1000
0100
0010
0100
1000
,
0001
0100
0001
0010
0001
1000
0100
1000
0001
0100
0010
1000
0001
0010
0100
0010
,
0001
1000
0010
1000
0100
1000
0001
0010
0001
0100
0010
1000
0010
1000
0001
0010
,
0001
0100
0010
0100
0010
1000
0001
0010
0001
1000
0100
1000
0001
0100
0010
1000
,
0001
0010
0100
1000
0001
0010
0001
0100
0010
1000
0001
1000
0100
0010
0100
1000
,
0001
0100
0001
0010
0001
1000
0010
1000
0001
0010
0100
0010
0100
1000
0001
0100
,
0001
1000
0010
1000
0001
0100
0001
0010
0001
1000
0100
0010
0001
0100
0010
1000
,
0001
1000
0100
0010
0100
1000
0001
0100
0001
1000
0010
0100
0001
1000
0100
0010
,
0100
0010
0001
1000
0010
1000
0001
0100
0001
1000
0100
0010
0100
0010
0001
1000
,
0010
1000
0001
0100
0001
1000
0100
1000
0001
0010
0100
1000
0001
0100
0001
1000
,
0010
1000
0001
0100
0001
1000
0100
1000
0001
0010
0001
1000
0010
0100
0001
0100
,
0010
1000
0001
0010
0001
1000
0100
1000
0001
0100
0010
0100
0001
1000
0010
1000
,
0001
0010
0100
0010
0001
1000
0100
1000
0010
1000
0001
0100
0001
1000
0100
0010
,
0001
1000
0010
1000
0001
0010
0001
0100
0001
1000
0100
1000
0001
0010
0001
1000
,
0002
1003
1000
1000
,
2002
0000
0000
0000
0000
0000
3003
0000
0000
0000
0000
0000
1000
0000
0000
0000
0000
0000
0020
0000
0000
0000
0000
0000
0230
0000
0000
0300
0000
0000
0000
0000
0000
0000
0000
0000
0200
0000
0300
0000
0000
0000
0000
0000
0000
0000
0000
0000
,
0002
0000
0003
0000
1000
0000
0002
0000
0023
0030
0000
0000
0020
0030
0000
0000
,
0200
0000
0000
0000
0000
0000
0300
0000
0000
0000
0000
0000
1000
0000
0000
0000
0000
0000
0020
0000
0000
0000
0000
0000
0200
0000
0030
0300
0000
0000
0000
0000
0000
0000
0000
0000
0200
0000
0000
0300
0000
0000
0000
0000
0000
0000
0000
0000
,
0002
0000
0003
0000
1000
0000
0002
0000
0023
0030
0000
0000
0020
0030
0000
0000
,
0110
0100
1000
0010
1000
0010
1000
0001
,
0010
0001
0100
0001
1000
0100
0010
0001
,
1000
0000
0100
0000
1000
0000
0001
0010
0001
0000
0100
0000
0010
0000
1000
0000
,
0001
1000
0001
1000
0001
1000
0100
0010
0100
1000
0010
0100
0001
0010
0100
1000
,
0010
0100
0001
1000
0001
1000
0100
0010
0001
1000
0010
1000
0100
1000
0010
0100
,
0001
1000
0001
0010
0100
1000
0001
0100
0010
1000
0010
1000
0001
0010
0100
0010
,
0001
1000
0010
1000
0100
1000
0001
0100
0001
1000
0100
0010
0001
1000
0010
0100
,
0001
0100
0010
1000
0001
0010
0001
1000
0100
1000
0001
0010
0001
1000
0010
0100
,
0001
0100
0001
1000
0100
0010
0001
1000
0001
0100
0010
1000
0001
0010
0001
0100
,
0001
1000
0100
1000
0010
0100
0001
1000
0001
0010
0100
1000
0001
0100
0010
0100
,
0001
1000
0100
1000
0001
0100
0010
1000
0001
0010
0001
0100
0001
1000
0100
0010
,
0100
0010
0001
1000
0010
1000
0100
1000
0001
0100
0001
1000
0100
0010
0001
1000
,
0020
0030
1000
0000
0100
0000
0010
0000
0001
0000
1000
0000
0010
0000
0100
0000
0001
0000
0100
0000
0010
0000
1000
0000
0001
0000
0010
0000
0100
0000
0010
0000
,
0001
1000
0010
0100
0001
0100
0001
1000
0100
1000
0001
0100
0001
1000
0100
0010
,
0002
0003
1000
0000
0010
0000
1000
0000
0100
0000
0010
0000
0001
0000
1000
0000
0001
0000
0100
0000
0001
0000
1000
0000
0100
0000
1000
0000
0001
0000
0100
0000
,
0001
1000
0100
0010
0100
0010
0001
1000
0010
1000
0001
0100
0001
1000
0100
0010
,
0002
0003
1000
0000
0010
0000
1000
0000
0100
0000
0010
0000
0001
0000
1000
0000
0001
0000
0100
0000
0010
0000
1000
0000
0010
0000
0100
0000
0001
0000
0010
0000
,
0001
1000
0100
0010
0001
1000
0010
1000
0100
1000
0001
0100
0001
1000
0100
0010
,
0002
0003
1000
0000
0010
0000
1000
0000
0100
0000
0010
0000
0001
0000
1000
0000
0001
0000
0100
0000
0001
0000
1000
0000
0100
0000
1000
0000
0010
0000
0100
0000
,
0001
0100
0001
1000
0100
1000
0001
0010
0001
1000
0010
0100
0010
1000
0001
0010
,
0001
1000
0100
0010
0001
1000
0010
0100
0001
0100
0010
1000
0001
0010
0001
1000
,
0100
1000
0010
0100
0001
1000
0001
0010
0100
1000
0001
1000
0010
0100
0010
1000
,
0001
0010
0001
0100
0001
1000
0100
1000
0001
0010
0100
0010
0001
1000
0100
1000
,
0001
0100
0010
1000
0010
1000
0001
0010
0001
1000
0010
0100
0001
1000
0010
1000
,
0001
0010
0100
0010
0100
1000
0001
0100
0001
1000
0010
1000
0001
0010
0001
0100
,
0001
1000
0100
1000
0001
0100
0010
0100
0001
1000
0100
1000
0001
0010
0001
1000
,
0010
0100
0001
0100
0001
1000
0100
0010
0001
1000
0010
0100
0010
1000
0001
0010
,
0001
1000
0010
1000
0001
0010
0100
1000
0001
0100
0010
1000
0001
0010
0001
1000
,
0020
0030
1000
0000
0100
0000
0010
0000
0001
0000
1000
0000
0100
0000
1000
0000
0001
0000
0100
0000
0010
0000
0100
0000
0001
0000
1000
0000
0010
0000
1000
0000
,
0001
0010
0001
0100
0001
1000
0100
1000
0010
0100
0001
0100
0001
1000
0100
1000
,
0020
0030
1000
0000
0100
0000
0010
0000
0001
0000
1000
0000
0100
0000
1000
0000
0010
0000
0100
0000
0001
0000
1000
0000
0001
0000
0010
0000
0100
0000
1000
0000
,
0001
0100
0001
0010
0001
1000
0010
1000
0001
0010
0100
0010
0001
1000
0010
1000
,
0200
0300
0010
0000
0001
0000
1000
0000
0001
0000
0100
0000
0010
0000
1000
0000
0001
0000
0010
0000
0100
0000
0010
0000
0001
0000
1000
0000
0100
0000
1000
0000
,
0001
0100
0010
1000
0010
0100
0001
0010
0001
1000
0010
1000
0001
0100
0001
1000
,
0020
0030
1000
0000
0100
0000
0010
0000
0001
0000
1000
0000
0001
0000
0100
0000
0001
0000
1000
0000
0100
0000
0010
0000
0001
0000
0100
0000
0010
0000
1000
0000
,
0010
1000
0001
0010
0001
1000
0100
0010
0001
1000
0001
0100
0010
1000
0001
0100
,
0001
1000
0010
0100
0001
1000
0001
0010
0100
1000
0010
1000
0001
0100
0010
1000
,
0100
0010
0001
1000
0001
0100
0010
1000
0100
0010
0001
0100
0001
1000
0010
0100
,
0001
0010
0100
1000
0001
0100
0001
1000
0001
0010
0100
1000
0001
0100
0010
0100
,
0001
1000
0100
1000
0001
0010
0001
1000
0001
0100
0010
1000
0001
0010
0100
0010
,
0001
0100
0010
1000
0001
0100
0001
1000
0001
0010
0100
1000
0001
0100
0010
0100
,
0001
1000
0100
1000
0001
0010
0001
1000
0001
0100
0010
1000
0001
0100
0001
0010
,
0001
1000
0100
1000
0001
0100
0010
1000
0010
1000
0001
0010
0001
0100
0010
1000
,
0001
1000
0100
0010
0001
0100
0010
1000
0001
0010
0100
0010
0001
1000
0100
1000
,
0001
0100
0010
1000
0010
0100
0001
0010
0001
1000
0100
1000
0001
0100
0010
0100
,
0001
1000
0100
1000
0010
1000
0001
0010
0001
0100
0010
1000
0001
0010
0001
0100
,
0001
1000
0100
0010
0001
1000
0010
0100
0001
0100
0010
1000
0100
1000
0001
0010
,
0001
1000
0010
0100
0001
1000
0100
1000
0001
0010
0100
0010
0001
1000
0010
0100
,
0001
0100
0010
1000
0001
0010
0001
0100
0001
1000
0100
0010
0001
1000
0001
0100
,
0010
1000
0001
0010
0001
1000
0010
1000
0001
0010
0100
1000
0010
0100
0001
1000
,
0001
0010
0100
0010
0001
1000
0010
0100
0001
0100
0001
1000
0100
1000
0010
1000
,
0001
0010
0100
1000
0001
0010
0100
1000
0001
0100
0001
1000
0010
1000
0001
0010
,
0001
0100
0001
1000
0100
1000
0010
0100
0001
1000
0001
0010
0100
1000
0001
0100
,
0010
1000
0010
0100
0001
1000
0100
0010
0001
1000
0100
0010
0001
0100
0010
0100
,
0001
1000
0100
1000
0010
1000
0001
0010
0001
1000
0010
0100
0010
1000
0001
0100
,
0001
1000
0001
0010
0100
0010
0001
1000
0010
0100
0001
0100
0010
1000
0001
0010
,
0001
1000
0100
1000
0001
0100
0001
0010
0001
1000
0010
0100
0001
1000
0100
0010
,
0001
1000
0010
0100
0010
1000
0001
0100
0001
1000
0100
0010
0001
1000
0100
0010
,
0001
1000
0001
0100
0010
0100
0001
1000
0001
0010
0100
1000
0001
0100
0001
1000
,
0010
0100
0001
0100
0010
1000
0010
0100
0001
1000
0001
0010
0100
1000
0001
1000
,
0010
0100
0001
0100
0010
1000
0001
0010
0100
1000
0010
0100
0001
1000
0001
0100
,
0001
1000
0100
0010
0100
1000
0001
1000
0010
0100
0010
1000
0100
1000
0001
0100
,
0001
0010
0100
1000
0001
0100
0001
1000
0010
0100
0010
1000
0001
1000
0100
0010
,
0001
1000
0001
0100
0010
1000
0010
0100
0001
1000
0100
0010
0001
1000
0001
0100
,
0010
0100
0001
1000
0100
0010
0100
1000
0001
0100
0010
1000
0001
1000
0100
1000
,
0010
0000
0000
0100
0000
0000
0001
0000
0000
1000
0000
0000
0001
0000
0000
0010
0000
0000
0100
0000
0000
1000
0000
0000
0001
0000
0000
0100
0000
0000
0010
0000
0000
1000
0000
0000
0001
0000
0000
0100
0000
0000
0001
0000
1000
0000
0001
0000
,
1000
0010
0100
0001
0100
0010
1000
0001
0010
0001
1000
0100
1000
0010
0100
0001
,
1000
0001
0010
0100
0010
0001
0100
0010
1000
0001
1000
0100
0010
0001
1000
0100
,
1000
0010
0100
0001
1000
0010
0100
0001
0010
0100
1000
0001
1000
0010
0100
0010
,
1000
0001
0010
0001
1000
0010
1000
0100
1000
0001
0100
0001
1000
0100
0010
0100
,
1000
0001
0100
0001
1000
0100
1000
0010
0100
0001
1000
0001
0010
0100
1000
0010
,
0100
0001
0100
0010
1000
0001
0010
0001
1000
0100
1000
0010
0100
0001
1000
0100
,
0010
0001
1000
0100
1000
0001
0100
0010
1000
0010
0100
0001
0010
0001
1000
0100
,
1000
0010
0100
0001
1000
0001
0010
0100
1000
0001
0100
0010
0100
0001
1000
0010
,
1000
0001
0010
0001
0100
0001
1000
0100
1000
0010
0100
0001
1000
0100
0010
0001
,
1000
0010
0100
0010
1000
0001
0010
0001
1000
0100
1000
0010
0100
0001
0100
0001
,
1000
0100
0010
0001
1000
0001
0100
0010
0100
0001
1000
0010
1000
0001
0010
0001
,
1000
0010
1000
0001
0010
0001
0100
0001
1000
0100
0010
0100
1000
0001
0010
0001
,
1000
0010
0100
0001
0100
0010
1000
0001
0010
0001
1000
0100
1000
0010
0100
0001
,
1000
0001
0010
0100
1000
0010
0100
0010
1000
0001
0010
0001
1000
0100
1000
0010
,
0100
0001
1000
0001
0010
0100
0010
0001
1000
0010
1000
0100
1000
0001
0100
0010
,
1000
0100
0010
0001
1000
0100
0010
0001
1000
0010
0100
0001
1000
0010
0100
0001
,
1000
0100
0010
0100
1000
0010
0100
0001
1000
0100
1000
0001
0100
0001
1000
0100
,
1000
0001
0100
0010
1000
0010
0100
0001
1000
0100
0010
0001
1000
0100
0010
0001
,
1000
0010
0100
0010
1000
0001
0010
0001
1000
0001
0100
0010
1000
0001
0010
0001
,
1000
0010
0100
0001
0100
0010
1000
0100
1000
0001
0010
0100
1000
0010
0100
0001
,
1000
0100
0010
0001
1000
0100
0010
0001
1000
0010
0100
0010
1000
0001
0010
0100
,
1000
0001
0100
0001
1000
0010
0100
0001
1000
0100
0010
0001
1000
0100
0010
0001
,
1000
0010
0100
0001
0100
0010
1000
0001
0010
0001
1000
0100
1000
0001
0100
0001
,
1000
0100
0010
0001
1000
0010
0100
0010
1000
0001
0010
0100
1000
0001
0100
0001
,
2000
0000
3000
0001
0100
0010
0100
0001
,
1000
0100
1000
0001
1000
0010
0100
0001
0100
0010
1000
0001
0010
0100
1000
0001
,
1000
0010
0100
0001
0100
0010
1000
0001
1000
0100
0010
0001
1000
0001
0100
0010
,
1000
0100
1000
0001
0100
0010
0100
0001
1000
0001
0010
0100
1000
0001
0100
0001
,
0010
0100
1000
0001
1000
0010
0100
0001
1000
0010
0100
0001
0010
0001
1000
0100
,
1000
0010
0100
0001
0010
0100
1000
0001
1000
0010
0100
0001
0010
0001
1000
0010
,
1000
0010
0100
0001
0010
0001
1000
0010
1000
0001
0010
0001
0100
0010
0100
0001
,
0010
0100
1000
0001
0010
0001
0100
0010
1000
0001
0100
0001
0010
0100
1000
0010
,
0100
0001
0100
0010
1000
0100
0010
0001
0100
0001
1000
0100
1000
0010
0100
0001
,
0100
0010
1000
0100
0010
0001
1000
0010
0100
0010
1000
0001
0010
0100
1000
0001
,
2000
0000
0000
3001
1000
0010
0100
0010
,
1000
0100
0010
0001
1000
0001
0010
0100
1000
0001
1000
0010
0100
0001
0100
0001
,
1000
0100
0010
0001
1000
0001
0100
0001
1000
0100
0010
0001
1000
0010
1000
0100
,
1000
0001
0100
0010
1000
0001
1000
0010
1000
0001
0010
0100
1000
0001
0100
0001
,
1000
0100
1000
0010
0100
0001
1000
0001
0010
0100
1000
0010
0100
0001
1000
0100
,
0010
0001
1000
0100
1000
0010
0100
0001
0100
0010
1000
0001
0010
0001
1000
0100
,
1000
0001
0100
0010
1000
0001
1000
0100
0010
0100
1000
0001
0100
0001
0010
0001
,
1000
0010
0100
0001
1000
0001
0010
0100
1000
0010
0100
0001
0100
0001
1000
0100
,
1000
0001
1000
0010
0100
0001
1000
0100
1000
0001
0100
0001
1000
0100
0010
0001
,
1000
0001
0100
0010
1000
0001
1000
0100
1000
0001
0100
0010
1000
0010
0100
0001
,
1000
0100
0010
0001
0100
0010
1000
0001
0010
0001
1000
0100
1000
0010
0100
0001
,
1000
0100
0010
0100
1000
0001
0100
0010
1000
0010
0100
0001
0010
0001
1000
0010
,
1000
0100
1000
0001
0100
0001
1000
0100
1000
0010
0100
0001
1000
0001
0010
0100
,
1000
0001
1000
0010
1000
0001
0010
0100
1000
0001
0100
0010
1000
0010
0100
0001
,
1000
0001
0010
0100
1000
0010
0100
0001
1000
0100
1000
0010
0100
0001
1000
0100
,
1000
0001
0100
0001
1000
0100
0010
0100
1000
0001
0100
0001
0010
0001
1000
0010
,
0100
0001
0100
0001
1000
0100
1000
0001
1000
0010
0100
0001
1000
0100
0010
0001
,
1000
0001
0100
0010
1000
0001
0010
0001
1000
0001
0100
0010
1000
0001
0010
0001
,
0100
0001
1000
0100
1000
0010
0100
0001
0100
0010
1000
0001
0010
0001
1000
0100
,
1000
0001
0100
0001
1000
0100
1000
0001
0010
0001
0100
0001
1000
0100
0010
0001
,
1000
0010
0100
0010
1000
0001
0010
0001
1000
0010
0100
0001
1000
0100
0010
0100
,
1000
0001
0010
0001
1000
0010
0100
0001
1000
0010
1000
0001
1000
0100
0010
0100
,
1000
0001
0010
0100
1000
0001
0100
0010
1000
0001
0100
0001
1000
0100
1000
0001
,
0100
0001
1000
0100
1000
0001
0100
0010
1000
0010
0100
0001
1000
0100
0010
0100
,
1000
0001
0010
0001
1000
0010
0100
0001
1000
0100
0010
0001
0100
0010
1000
0001
,
1000
0100
0010
0100
1000
0001
0010
0100
1000
0001
0100
0010
1000
0010
1000
0001
,
0010
0001
1000
0100
1000
0010
0100
0001
0010
0100
1000
0010
0100
0001
1000
0100
,
1000
0010
0100
0001
1000
0010
1000
0001
0010
0001
1000
0100
1000
0010
0100
0001
,
1000
0001
0100
0001
1000
0100
0010
0001
1000
0001
0100
0010
0100
0001
1000
0010
,
1000
0100
0010
0001
0100
0010
1000
0001
0010
0001
0100
0001
1000
0100
0010
0100
,
1000
0001
0100
0010
1000
0010
0100
0001
1000
0100
1000
0010
0100
0001
1000
0100
,
1000
0010
0100
0010
1000
0001
0010
0001
0100
0001
1000
0100
1000
0010
0100
0001
,
1000
0001
1000
0100
0010
0100
1000
0001
0100
0010
1000
0100
0010
0001
1000
0010
,
1000
0001
0010
0100
1000
0001
0010
0001
1000
0010
0100
0001
0100
0001
1000
0100
,
0010
0001
1000
0001
0100
0010
1000
0001
0010
0001
1000
0010
1000
0001
0010
0001
,
1000
0010
1000
0100
1000
0001
0100
0010
1000
0001
0010
0001
1000
0100
0010
0001
,
1000
0001
0100
0010
0100
0001
1000
0100
0010
0001
1000
0001
0100
0010
1000
0001
,
0200
0000
0302
0000
1003
0100
0010
0002
,
0000
0000
0000
1003
0010
0100
0001
0100
,
0202
0003
0302
0000
1003
0100
1000
0002
,
0000
0000
0000
1003
0010
0100
0010
1000
,
2020
0030
3002
0000
1003
0100
0010
0002
,
0000
0000
0000
1003
0100
1000
0001
0100
,
0202
0003
0302
0000
1003
0010
0100
0001
,
2000
0000
0000
3000
,
2002
0000
3000
0000
2003
0000
0000
3001
,
0010
0100
0010
0001
2000
0000
0000
0000
,
3001
0100
0010
0200
0000
0301
1000
0100
,
0000
2000
0000
0000
0000
0000
3110
0000
,
0001
1000
0001
0100
0010
0100
0001
1000
0001
0010
0100
1000
0001
1000
0010
0100
,
0001
0100
0010
1000
0010
0100
0001
1000
0001
0010
0100
1000
0001
1000
0010
0100
,
0001
0100
0010
1000
0001
1000
0010
0100
0001
0100
0010
1000
0001
0010
0100
0010
,
0001
1000
0001
0100
0010
1000
0001
1000
0100
0010
0001
1000
0001
0100
0010
0100
,
0001
1000
0001
0100
0010
1000
0001
1000
0100
0010
0001
1000
0001
0100
0001
1000
,
0010
0100
0001
1000
0001
0010
0100
1000
0001
1000
0010
1000
0001
0100
0010
0100
,
0001
1000
0100
0010
0100
1000
0010
0100
0001
0100
0010
1000
0100
0010
0100
1000
,
0010
0100
0001
1000
0001
0010
0100
1000
0010
0100
0001
1000
0100
0010
0001
1000
,
0001
0100
0010
1000
0010
1000
0001
0010
0100
1000
0001
0010
0001
1000
0100
1000
,
0010
0100
0001
1000
0100
1000
0001
0100
0010
1000
0010
0100
0001
1000
0010
1000
,
0001
1000
0100
1000
0001
0100
0010
0100
0001
1000
0100
1000
0001
0010
0001
1000
,
0010
1000
0100
1000
0001
0010
0100
1000
0001
0010
0100
1000
0001
0100
0010
1000
,
0001
0010
0001
1000
0001
0010
0100
1000
0001
0100
0010
0100
0001
1000
0100
1000
,
0001
0100
0001
0010
0001
1000
0010
0100
0001
0100
0010
1000
0001
0100
0010
1000
,
0001
0010
0001
1000
0001
0100
0010
1000
0001
0010
0100
0010
0001
1000
0010
1000
,
0001
0010
0100
1000
0001
1000
0010
0100
0001
1000
0001
0010
0001
1000
0100
1000
,
0010
0100
0001
0100
0001
1000
0100
0010
0001
1000
0010
1000
0100
1000
0001
0100
,
0001
1000
0100
0010
0001
1000
0010
1000
0001
0010
0001
1000
0001
0100
0001
1000
,
0100
1000
0001
0010
0001
1000
0010
0100
0001
0100
0001
1000
0100
1000
0010
1000
,
0001
0010
0001
1000
0001
0100
0010
1000
0001
0100
0010
1000
0001
0010
0001
0100
,
0001
1000
0100
0010
0100
1000
0001
0100
0001
1000
0100
0010
0001
1000
0010
0100
,
0001
0100
0010
1000
0001
0010
0100
0010
0001
1000
0010
1000
0001
0010
0100
0010
,
0001
1000
0010
0100
0001
1000
0100
1000
0010
0100
0001
0100
0001
1000
0100
1000
,
0001
0100
0001
0010
0001
1000
0010
0100
0001
0100
0010
1000
0100
1000
0010
1000
,
0001
0010
0100
0010
0001
1000
0010
0100
0001
0100
0010
1000
0001
0100
0010
1000
,
0001
0010
0001
0100
0001
1000
0100
0010
0001
1000
0010
0100
0001
0100
0010
1000
,
0001
0010
0100
0010
0001
1000
0100
1000
0001
0100
0010
1000
0010
1000
0001
0010
,
0001
0100
0001
1000
0001
0100
0010
1000
0001
0010
0100
0010
0001
1000
0010
1000
,
0001
0010
0100
0010
0001
1000
0001
0010
0001
1000
0010
0100
0001
0100
0010
1000
,
0001
0010
0001
0100
0010
1000
0001
0010
0001
1000
0010
1000
0100
1000
0001
0010
,
0001
1000
0010
0100
0001
0100
0010
1000
0001
0010
0100
0010
0001
1000
0010
1000
,
0100
1000
0010
0100
0001
1000
0100
1000
0001
0100
0010
1000
0010
0100
0001
0010
,
0001
1000
0100
1000
0001
0010
0100
0010
0001
1000
0010
0100
0001
0100
0001
1000
,
0100
1000
0010
1000
0001
0010
0100
1000
0010
0100
0001
1000
0100
1000
0001
0100
,
0001
1000
0010
1000
0001
0010
0100
0010
0001
1000
0010
0100
0001
0010
0100
1000
,
0001
0100
0001
1000
0100
1000
0010
1000
0001
0010
0100
0010
0001
1000
0100
1000
,
0001
0100
0010
1000
0010
0100
0001
1000
0100
0010
0100
1000
0001
0010
0100
1000
,
0010
0100
0001
1000
0100
1000
0001
0100
0001
1000
0100
0010
0001
1000
0100
1000
,
0001
0100
0010
1000
0010
1000
0001
0010
0001
1000
0100
0010
0100
1000
0001
0100
,
0001
1000
0100
1000
0010
0100
0001
1000
0100
0010
0001
1000
0001
0100
0010
1000
,
0002
0000
0000
0000
1003
0100
0010
0001
,
1000
0001
1000
0010
0100
0001
0100
0001
,
1000
0001
1000
0100
0010
0100
1000
0001
,
1000
0001
0100
0010
1000
0010
0100
0001
,
1001
1000
0001
0010
0100
1000
0100
0010
,
0001
1000
0001
1000
0010
0100
0001
0100
,
0001
1000
0001
1000
0100
0010
0100
0010
,
0001
1000
0001
1000
0010
0100
0001
0100
,
0001
1000
0100
0010
0001
1000
0001
0100
0001
1000
0010
0100
0001
1000
0010
1000
,
0001
0010
0100
1000
0001
1000
0010
1000
0001
0100
0010
1000
0010
0100
0001
1000
,
0001
0100
0010
0100
0001
1000
0100
1000
0001
0100
0010
1000
0010
0100
0001
0100
,
0010
1000
0001
0010
0100
1000
0001
0100
0001
1000
0010
0100
0010
1000
0001
0100
,
0010
1000
0100
0010
0001
1000
0010
0100
0001
1000
0100
0010
0001
0100
0010
1000
,
0001
0100
0010
1000
0100
1000
0001
0100
0001
1000
0100
0010
0001
1000
0010
0100
,
0001
0100
0010
1000
0010
1000
0001
0010
0001
1000
0010
1000
0001
0010
0001
0100
,
0001
0000
0000
0000
0000
0000
0000
0000
0000
0000
1000
0000
0000
0000
0000
0000
0000
0000
0000
0100
0000
0000
0000
0000
0000
0000
0000
0000
0000
0010
0000
0000
0000
0000
0000
0000
0000
0000
0001
0000
0000
0000
0000
0000
0000
0000
0000
0000
1000
0000
0000
0000
0000
0000
0000
0000
0000
0000
0010
0000
0000
0000
0000
0000
0000
0000
0000
1000
0000
0000
0000
0000
0000
0000
0000
0000
0000
0001
0000
0000
0000
0000
0000
0000
0000
0000
0100
0000
0000
0000
0000
0000
0000
0000
0000
0000
0001
0000
0000
0000
0000
0000
0000
0000
0000
0000
1000
0000
0000
0000
0000
0000
0000
0000
0000
0100
0000
0000
0000
0000
0000
0000
0000
0000
0000
0010
0000
0000
0000
0000
0000
0000
0000
0000
0100
0000
0000
0000
0000
0000
0000
0000
0000
0000
1000
0000
0000
0000
0000
0000
0000
0000
0000
0000
0001
0000
0000
0000
0000
0000
0000
0000
0000
0100
0000
0000
0000
0000
0000
0000
0000
0000
0000
0010
0000
0000
0000
0000
0000
0000
0000
0000
1000
0000
0000
0000
0000
0000
0000
0000
0000
0000
,
0001
0010
0001
1000
0100
0010
0100
1000
0001
0100
0010
1000
0010
0100
0001
1000
,
0100
1000
0001
0010
0001
1000
0100
1000
0010
0100
0001
0100
0001
1000
0100
1000
,
0001
0010
0001
1000
0001
0100
0010
0100
0001
1000
0100
1000
0001
0100
0010
1000
,
0001
0010
0001
0100
0001
1000
0100
1000
0010
0100
0001
1000
0001
0010
0100
1000
,
0001
0100
0010
1000
0010
0100
0001
1000
0100
1000
0001
0010
0001
1000
0010
0100
,
0001
0100
0010
1000
0001
0010
0100
0010
0001
1000
0100
1000
0001
0100
0010
1000
,
0010
1000
0001
0010
0001
1000
0100
0010
0001
1000
0001
0100
0001
1000
0100
1000
,
0001
0010
0100
0010
0001
1000
0010
0100
0001
0010
0100
1000
0001
0100
0001
1000
,
0100
0010
0001
0100
0010
1000
0001
0010
0001
1000
0100
1000
0001
0100
0010
1000
,
0010
0100
0001
0010
0100
1000
0001
0010
0001
0100
0010
1000
0010
1000
0001
0010
,
0001
1000
0100
1000
0001
0100
0010
0100
0001
1000
0010
1000
0001
0010
0100
0010
,
0001
1000
0100
0010
0001
1000
0010
1000
0100
1000
0001
0100
0001
1000
0100
0010
,
0001
1000
0010
0100
0001
1000
0010
0100
0001
1000
0100
1000
0001
0100
0010
0100
,
0001
1000
0100
1000
0001
0100
0010
1000
0010
1000
0001
0010
0001
1000
0100
0010
,
0001
0100
0010
1000
0001
0010
0001
0100
0001
1000
0100
1000
0010
0100
0001
1000
,
0100
1000
0001
0100
0001
1000
0100
0010
0001
1000
0100
0010
0001
1000
0010
0100
,
0002
0000
0000
0000
1003
0100
0010
0200
,
0000
2300
0000
0000
0000
0000
3020
2030
,
0000
3002
0000
0000
0000
0000
0023
0032
,
1003
0100
1000
0001
0100
0010
1000
0001
1000
0001
0010
0100
1000
0010
0100
0010
,
1000
0001
0100
0010
0100
0001
1000
0100
0010
0001
1000
0010
1000
0001
1000
0100
,
0010
0001
1000
0001
0100
0010
1000
0001
1000
0100
0010
0100
1000
0001
0100
0001
,
1000
0010
0100
0010
1000
0001
1000
0100
0010
0001
1000
0001
0100
0010
1000
0100
,
1000
0001
0010
0100
1000
0001
1000
0010
0100
0001
1000
0100
1000
0001
0100
0010
,
0100
0001
1000
0001
0010
0100
1000
0001
1000
0010
0100
0001
1000
0100
1000
0001
,
0100
0010
0100
0001
1000
0001
0010
0100
1000
0001
0100
0001
1000
0010
1000
0001
,
1000
0010
0100
0001
0100
0001
1000
0100
1000
0001
0100
0001
1000
0100
1000
0010
,
1000
0000
0000
0000
0000
0000
0000
0000
0000
0000
0001
0000
0000
0000
0000
0000
0000
0000
0000
0010
0000
0000
0000
0000
0000
0000
0000
0000
0000
0100
0000
0000
0000
0000
0000
0000
0000
0000
1000
0000
0000
0000
0000
0000
0000
0000
0000
0000
0001
0000
0000
0000
0000
0000
0000
0000
0000
0000
0100
0000
0000
0000
0000
0000
0000
0000
0000
0001
0000
0000
0000
0000
0000
0000
0000
0000
0000
1000
0000
0000
0000
0000
0000
0000
0000
0000
0010
0000
0000
0000
0000
0000
0000
0000
0000
0000
1000
0000
0000
0000
0000
0000
0000
0000
0000
0000
0001
0000
0000
0000
0000
0000
0000
0000
0000
0100
0000
0000
0000
0000
0000
0000
0000
0000
0000
0010
0000
0000
0000
0000
0000
0000
0000
0000
1000
0000
0000
0000
0000
0000
0000
0000
0000
0000
0100
0000
0000
0000
0000
0000
0000
0000
0000
0000
1000
0000
0000
0000
0000
0000
0000
0000
0000
0001
0000
0000
0000
0000
0000
0000
0000
0000
0000
0100
0000
0000
0000
0000
0000
0000
0000
0000
0010
0000
0000
0000
0000
0000
0000
0000
0000
0000
,
1000
0100
0010
0001
1000
0100
0010
0001
1000
0010
1000
0001
1000
0100
0010
0001
,
1000
0010
0100
0010
1000
0001
1000
0100
1000
0001
0010
0001
1000
0010
0100
0001
,
1000
0100
0010
0100
1000
0001
0100
0010
1000
0010
0100
0001
1000
0100
0010
0100
,
1000
0010
0100
0001
0100
0001
1000
0100
1000
0001
0010
0001
0100
0010
1000
0001
,
1000
0100
0010
0001
0100
0010
1000
0001
0010
0001
1000
0010
1000
0001
0100
0001
,
1000
0100
0010
0001
1000
0100
0010
0001
0100
0010
1000
0001
0100
0001
1000
0100
,
1000
0001
0010
0001
1000
0010
0100
0001
0100
0010
1000
0001
0010
0100
1000
0010
,
0100
0001
1000
0100
1000
0001
0100
0001
1000
0010
0100
0001
1000
0100
0010
0001
,
0100
0010
1000
0100
0010
0001
1000
0010
1000
0001
0100
0001
1000
0100
0010
0100
,
1000
0001
0100
0010
1000
0010
0100
0001
1000
0100
0010
0100
1000
0001
0100
0001
,
1000
0001
0100
0010
1000
0001
0010
0100
1000
0001
0010
0001
1000
0010
0100
0001
,
0100
0010
1000
0001
0100
0001
1000
0100
1000
0001
0100
0001
1000
0010
0100
0001
,
0010
0100
1000
0010
0100
0001
1000
0100
1000
0001
0010
0100
1000
0001
0100
0001
,
1000
0010
1000
0001
0010
0001
1000
0100
1000
0001
0100
0001
1000
0100
0010
0100
,
1000
0001
0010
0100
1000
0001
1000
0010
1000
0001
0100
0001
1000
0100
0010
0100
,
1000
0001
0100
0001
1000
0100
1000
0001
0100
0001
1000
0100
1000
0010
0100
0001
,
1000
0100
1000
0001
0100
0010
1000
0010
0100
0001
1000
0001
0010
0100
1000
0001
,
1000
0010
0100
0001
0100
0010
1000
0001
1000
0100
0010
0001
1000
0001
0100
0010
,
1000
0010
0100
0001
1000
0100
0010
0100
1000
0001
1000
0010
0100
0001
1000
0001
,
0010
0100
1000
0001
1000
0010
0100
0001
1000
0100
1000
0010
0100
0001
0010
0100
,
1000
0001
1000
0010
0100
0001
0100
0010
1000
0001
1000
0100
0010
0001
1000
0001
,
0100
0010
1000
0010
0100
0001
1000
0100
0010
0001
1000
0010
0100
0001
0010
0100
,
1000
0001
1000
0010
0100
0001
0100
0010
1000
0001
1000
0100
0010
0001
1000
0001
,
0010
0001
1000
0010
1000
0001
1000
0001
0100
0010
1000
0001
0010
0100
1000
0001
,
1000
0100
0010
0001
0100
0001
1000
0100
1000
0010
0100
0010
1000
0100
1000
0001
,
0010
0100
1000
0001
1000
0010
0100
0001
0010
0001
0100
0010
0100
0001
0010
0001
,
1000
0010
0100
0001
1000
0001
0010
0100
1000
0010
1000
0100
0010
0100
1000
0010
,
0100
0001
0100
0010
1000
0001
0010
0100
1000
0001
1000
0100
0010
0001
0100
0010
,
1000
0001
1000
0100
0010
0001
0100
0001
0010
0100
0010
0001
0100
0010
0100
0001
,
1000
0001
0010
0100
1000
0001
1000
0010
0100
0010
1000
0100
0010
0100
1000
0010
,
0100
0001
1000
0001
0010
0100
1000
0001
0010
0001
0100
0010
0100
0001
0010
0001
,
1000
0010
0100
0001
1000
0001
0010
0100
1000
0001
1000
0010
1000
0100
0010
0001
,
0100
0001
1000
0010
0100
0010
1000
0001
0100
0001
1000
0010
0100
0001
1000
0001
,
0100
0010
1000
0010
0100
0001
1000
0100
0010
0001
1000
0001
0100
0010
0100
0001
,
1000
0100
0010
0100
1000
0001
0100
0010
0100
0001
1000
0001
0010
0100
1000
0001
,
1000
0010
0100
0001
0100
0010
1000
0001
0100
0001
1000
0100
0010
0001
1000
0100
,
1000
0001
0100
0010
0100
0001
1000
0100
1000
0001
0100
0010
0100
0001
1000
0001
,
0010
0100
1000
0001
1000
0010
0100
0001
0100
0010
1000
0001
1000
0100
0010
0001
,
1000
0001
0100
0010
0100
0001
1000
0100
0010
0100
1000
0001
1000
0010
0100
0001
,
0100
0010
1000
0001
1000
0100
0010
0001
1000
0001
0100
0010
1000
0010
0100
0001
,
1000
0100
0010
0100
1000
0001
1000
0010
0100
0001
1000
0001
0010
0100
1000
0001
,
1000
0010
0100
0001
1000
0001
0100
0010
0100
0001
1000
0100
0010
0001
1000
0100
,
1000
0001
0100
0010
1000
0010
0100
0001
1000
0100
0010
0100
1000
0001
0100
0010
,
1000
0010
0100
0001
1000
0001
0010
0100
1000
0001
1000
0010
0100
0001
0100
0010
,
1000
0001
1000
0100
0010
0001
1000
0100
1000
0001
0100
0010
0100
0001
1000
0001
,
0010
0100
1000
0001
1000
0010
0100
0001
0100
0010
1000
0001
1000
0100
0010
0001
,
1000
0010
1000
0100
0010
0001
1000
0001
0100
0010
1000
0001
1000
0100
0010
0001
,
1000
0000
0000
0000
0000
0000
0000
0000
0000
0000
0010
0000
0000
0000
0000
0000
0000
0000
0000
1000
0000
0000
0000
0000
0000
0000
0000
0000
0000
0001
0000
0000
0000
0000
0000
0000
0000
0000
0010
0000
0000
0000
0000
0000
0000
0000
0000
0000
0100
0000
0000
0000
0000
0000
0000
0000
0000
0000
1000
0000
0000
0000
0000
0000
0000
0000
0000
0010
0000
0000
0000
0000
0000
0000
0000
0000
0000
1000
0000
0000
0000
0000
0000
0000
0000
0000
0001
0000
0000
0000
0000
0000
0000
0000
0000
0000
0100
0000
0000
0000
0000
0000
0000
0000
0000
0000
0010
0000
0000
0000
0000
0000
0000
0000
0000
0100
0000
0000
0000
0000
0000
0000
0000
0000
0000
0001
0000
0000
0000
0000
0000
0000
0000
0000
1000
0000
0000
0000
0000
0000
0000
0000
0000
0000
0001
0000
0000
0000
0000
0000
0000
0000
0000
0000
0010
0000
0000
0000
0000
0000
0000
0000
0000
0100
0000
0000
0000
0000
0000
0000
0000
0000
0000
1000
0000
0000
0000
0000
0000
0000
0000
0000
0010
0000
0000
0000
0000
0000
0000
0000
0000
0000
,
1000
0001
0010
0001
1000
0010
1000
0001
0010
0100
1000
0001
0100
0010
1000
0001
,
1000
0010
1000
0001
0010
0100
0010
0001
1000
0010
0100
0001
1000
0100
0010
0001
,
1000
0001
0100
0010
1000
0010
0100
0001
1000
0010
0100
0001
1000
0100
0010
0001
,
1000
0001
0100
0010
1000
0001
0010
0001
1000
0100
0010
0001
0100
0010
1000
0100
,
0010
0001
1000
0010
1000
0001
0010
0001
1000
0010
0100
0001
1000
0100
0010
0001
,
1000
0001
1000
0100
0010
0001
1000
0010
0100
0001
1000
0100
0010
0001
1000
0010
,
1000
0001
0010
0100
1000
0010
1000
0001
0010
0001
1000
0010
0100
0010
1000
0001
,
1000
0000
0000
0000
0000
0000
0000
0000
0000
0000
0001
0000
0000
0000
0000
0000
0000
0000
0000
1000
0000
0000
0000
0000
0000
0000
0000
0000
0000
0100
0000
0000
0000
0000
0000
0000
0000
0000
0010
0000
0000
0000
0000
0000
0000
0000
0000
0000
0001
0000
0000
0000
0000
0000
0000
0000
0000
0000
0100
0000
0000
0000
0000
0000
0000
0000
0000
0010
0000
0000
0000
0000
0000
0000
0000
0000
0000
1000
0000
0000
0000
0000
0000
0000
0000
0000
0001
0000
0000
0000
0000
0000
0000
0000
0000
0000
0010
0000
0000
0000
0000
0000
0000
0000
0000
0000
0001
0000
0000
0000
0000
0000
0000
0000
0000
0100
0000
0000
0000
0000
0000
0000
0000
0000
0000
0010
0000
0000
0000
0000
0000
0000
0000
0000
1000
0000
0000
0000
0000
0000
0000
0000
0000
0000
0001
0000
0000
0000
0000
0000
0000
0000
0000
0000
1000
0000
0000
0000
0000
0000
0000
0000
0000
0010
0000
0000
0000
0000
0000
0000
0000
0000
0000
0100
0000
0000
0000
0000
0000
0000
0000
0000
0001
0000
0000
0000
0000
0000
0000
0000
0000
0000
,
1000
0010
1000
0001
0010
0100
1000
0001
0010
0001
0100
0010
0100
0001
0010
0001
,
1000
0010
1000
0001
0010
0100
1000
0001
1000
0100
1000
0010
0100
0010
1000
0100
,
0010
0001
1000
0001
0100
0010
1000
0001
0010
0100
0010
0001
0100
0010
0100
0001
,
0010
0100
1000
0001
1000
0010
0100
0001
1000
0001
0010
0100
1000
0010
0100
0001
,
0010
0100
1000
0001
1000
0010
0100
0001
1000
0100
0010
0100
1000
0010
0100
0010
,
1000
0001
0010
0100
1000
0001
1000
0001
0010
0100
0010
0001
0100
0010
0100
0001
,
0010
0100
1000
0001
0100
0001
1000
0100
0010
0001
0100
0010
0100
0001
0010
0100
,
1000
0001
1000
0010
0100
0010
1000
0001
1000
0010
1000
0100
0010
0001
0100
0010
,
1000
0001
1000
0010
0100
0010
1000
0001
0010
0001
0100
0010
0100
0001
0010
0100
,
1000
0001
1000
0100
0010
0100
1000
0001
0100
0001
1000
0100
0010
0100
1000
0010
,
0100
0001
1000
0001
0010
0100
1000
0010
1000
0100
0010
0001
0100
0001
1000
0001
,
0100
0010
1000
0001
0010
0100
1000
0001
1000
0010
1000
0100
0010
0001
0100
0001
,
1000
0010
1000
0001
0010
0100
1000
0001
0100
0010
0100
0001
0010
0100
0010
0001
,
0100
0001
1000
0010
0100
0001
1000
0001
0010
0100
1000
0010
0100
0010
1000
0100
,
0010
0001
1000
0010
0100
0001
1000
0100
0010
0001
0100
0010
0100
0001
0010
0100
,
1000
0001
1000
0100
0010
0001
1000
0010
0100
0001
0010
0100
0010
0001
0100
0010
,
1000
0001
1000
0010
1000
0001
1000
0100
0010
0001
1000
0010
0100
0001
1000
0001
,
0010
0100
1000
0001
0010
0001
1000
0001
0100
0010
1000
0001
1000
0010
0100
0010
,
1000
0001
0010
0100
1000
0001
1000
0010
1000
0001
0010
0001
0010
0100
1000
0001
,
1000
0010
0100
0001
1000
0001
0010
0100
1000
0010
1000
0100
1000
0001
1000
0001
,
0010
0100
1000
0001
1000
0010
0100
0001
0100
0010
1000
0001
0010
0100
1000
0001
,
1000
0010
0100
0001
1000
0001
0010
0100
1000
0001
1000
0010
1000
0001
0010
0100
,
0010
0001
1000
0001
0100
0010
1000
0001
1000
0100
0010
0001
0100
0010
0100
0001
,
0010
0100
1000
0001
1000
0010
1000
0001
1000
0100
0010
0001
1000
0001
0100
0010
,
1000
0001
0010
0001
1000
0001
0010
0100
1000
0001
1000
0010
0100
0010
1000
0001
,
0010
0001
1000
0010
0100
0001
0100
0010
1000
0100
1000
0001
1000
0001
0010
0100
,
1000
0001
1000
0010
0100
0001
1000
0001
0010
0100
1000
0010
0100
0010
1000
0010
,
0100
0001
1000
0001
0010
0100
1000
0001
1000
0010
0100
0010
1000
0001
0010
0100
,
1000
0001
1000
0010
0100
0001
1000
0001
0010
0100
1000
0010
1000
0001
0100
0010
,
0100
0001
1000
0001
0010
0100
1000
0010
1000
0001
0100
0001
0010
0100
0010
0001
,
0100
0001
1000
0010
1000
0001
0010
0100
1000
0010
1000
0001
1000
0001
0010
0100
,
1000
0001
1000
0010
0100
0001
1000
0001
0010
0100
1000
0010
1000
0001
0010
0100
,
0010
0001
1000
0001
0010
0001
1000
0010
1000
0001
0010
0100
1000
0010
1000
0001
,
0100
0010
1000
0100
0010
0001
1000
0001
0100
0010
1000
0010
0100
0001
1000
0001
,
0010
0001
0100
0010
1000
0001
1000
0100
0010
0001
1000
0001
0100
0010
1000
0001
,
1000
0100
0010
0001
0100
0001
1000
0001
0010
0100
1000
0001
1000
0010
0100
0010
,
1000
0001
1000
0100
1000
0010
0100
0001
1000
0001
0010
0001
1000
0010
0100
0001
,
1000
0001
0010
0100
1000
0001
0010
0100
1000
0001
0100
0001
1000
0100
0010
0001
,
0100
0010
0100
0001
0010
0001
1000
0100
1000
0001
0100
0001
0010
0100
1000
0001
,
1000
0001
0100
0010
1000
0100
0010
0001
1000
0001
0100
0010
1000
0100
0010
0100
,
1000
0001
0100
0001
0010
0001
1000
0010
0100
0001
1000
0100
0010
0001
0100
0001
,
1000
0010
1000
0001
1000
0100
0010
0001
1000
0001
0100
0010
1000
0100
0010
0001
,
1000
0001
0100
0001
1000
0100
0010
0001
1000
0010
1000
0001
0010
0100
0010
0001
,
0100
0010
1000
0001
1000
0010
1000
0001
0100
0010
0100
0001
1000
0100
0010
0001
,
1000
0010
0100
0010
1000
0001
0010
0001
1000
0001
0010
0100
1000
0001
1000
0010
,
0100
0001
1000
0001
0010
0100
1000
0010
1000
0001
0010
0001
0100
0010
1000
0100
,
0010
0001
1000
0010
1000
0001
1000
0100
1000
0010
0100
0001
0100
0010
1000
0100
,
0010
0001
1000
0001
0010
0001
1000
0010
0100
0001
1000
0001
0010
0100
1000
0001
,
1000
0010
0100
0001
1000
0001
0010
0100
1000
0001
1000
0010
1000
0001
0010
0001
,
1000
0010
0100
0001
1000
0001
0010
0100
1000
0010
1000
0001
1000
0001
0100
0010
,
1000
0001
1000
0010
0100
0001
1000
0001
0010
0100
0010
0001
0100
0010
1000
0001
,
1000
0010
0100
0001
0010
0001
1000
0010
1000
0001
0010
0001
0100
0010
0100
0001
,
1000
0001
0010
0100
1000
0010
1000
0001
0100
0010
1000
0100
0010
0001
1000
0010
,
0100
0001
1000
0001
0010
0001
1000
0001
0100
0010
1000
0001
0010
0100
1000
0010
,
1000
0001
1000
0010
0100
0010
1000
0001
1000
0100
0010
0001
1000
0010
0100
0001
,
1000
0001
0010
0100
1000
0010
1000
0001
1000
0001
0010
0100
1000
0001
0010
0001
,
1000
0010
0100
0001
1000
0100
0010
0001
1000
0010
1000
0100
1000
0001
0010
0100
,
1000
0001
0010
0001
0100
0010
1000
0001
1000
0010
0100
0001
0010
0001
1000
0010
,
1000
0001
0100
0010
1000
0100
1000
0001
0100
0010
0100
0001
0010
0100
1000
0001
,
1000
0010
0100
0010
1000
0001
0010
0100
0010
0001
0100
0010
1000
0001
0010
0100
,
1000
0001
1000
0010
1000
0001
1000
0100
0010
0001
1000
0010
0100
0001
1000
0001
,
0010
0100
1000
0001
0010
0001
1000
0001
0100
0010
1000
0001
1000
0010
0100
0010
,
1000
0001
0010
0100
1000
0001
1000
0010
1000
0001
0010
0001
0010
0100
1000
0001
,
1000
0010
0100
0001
1000
0001
0010
0100
1000
0010
1000
0100
1000
0001
1000
0001
,
0010
0100
1000
0001
1000
0010
0100
0001
0100
0010
1000
0001
0010
0100
1000
0001
,
1000
0010
0100
0001
1000
0001
0010
0100
1000
0001
1000
0010
1000
0001
0010
0100
,
0010
0001
1000
0001
0100
0010
1000
0001
1000
0100
0010
0001
0100
0010
0100
0001
,
0010
0100
1000
0001
1000
0010
1000
0001
1000
0100
0010
0001
1000
0001
0100
0010
,
1000
0001
0010
0001
1000
0001
0010
0100
1000
0001
1000
0010
0100
0010
1000
0001
,
0010
0001
1000
0010
0100
0001
0100
0010
1000
0100
1000
0001
1000
0001
0010
0100
,
1000
0001
1000
0010
0100
0001
1000
0001
0010
0100
1000
0010
0100
0010
1000
0010
,
0100
0001
1000
0001
0010
0100
1000
0001
1000
0010
0100
0010
1000
0001
0010
0100
,
1000
0001
1000
0010
0100
0001
1000
0001
0010
0100
1000
0010
1000
0001
0100
0010
,
0100
0001
1000
0001
0010
0100
1000
0010
1000
0001
0100
0001
0010
0100
0010
0001
,
0100
0010
1000
0001
1000
0100
0010
0001
1000
0010
0100
0001
0100
0010
1000
0001
,
0010
0001
1000
0010
0100
0001
0100
0010
1000
0001
0010
0001
1000
0100
0010
0100
,
1000
0001
1000
0010
0100
0010
1000
0001
0010
0001
1000
0010
0100
0010
1000
0001
,
1000
0100
0010
0001
1000
0010
0100
0010
1000
0001
0010
0100
1000
0001
1000
0010
,
0100
0001
0100
0010
1000
0001
0010
0100
1000
0001
0010
0001
1000
0010
0100
0001
,
1000
0001
0010
0100
1000
0001
1000
0010
0100
0010
1000
0001
0010
0001
1000
0010
,
0100
0010
1000
0001
1000
0100
0010
0001
1000
0010
0100
0001
0010
0100
1000
0001
,
1000
0100
0010
0100
1000
0001
0100
0001
1000
0100
0010
0001
0010
0100
1000
0001
,
0100
0001
1000
0100
0010
0001
0010
0100
1000
0001
0100
0001
1000
0010
0100
0010
,
1000
0001
1000
0100
0010
0100
1000
0001
0100
0001
1000
0100
0010
0100
1000
0001
,
1000
0010
0100
0001
1000
0100
0010
0100
1000
0001
0100
0010
1000
0001
1000
0100
,
0010
0001
0010
0100
1000
0001
0100
0010
1000
0001
0100
0001
1000
0100
0010
0001
,
1000
0001
0100
0010
1000
0001
1000
0100
0010
0100
1000
0001
0100
0001
1000
0100
,
0010
0100
1000
0001
1000
0010
0100
0001
1000
0100
0010
0001
0100
0010
1000
0100
,
0010
0001
0100
0001
1000
0100
0010
0100
1000
0010
0100
0001
0010
0001
1000
0010
,
0100
0001
0010
0100
1000
0001
0100
0010
1000
0001
0010
0001
0100
0010
1000
0001
,
0100
0001
0010
0100
1000
0010
1000
0001
0010
0001
0100
0010
1000
0001
0010
0001
,
0100
0010
1000
0001
0100
0010
0100
0001
0010
0100
1000
0010
1000
0001
1000
0010
,
0100
0001
1000
0010
1000
0100
0010
0001
1000
0010
0100
0001
0010
0100
1000
0001
,
0100
0001
0010
0100
1000
0001
1000
0010
0100
0001
0010
0001
0100
0010
1000
0001
,
0010
0100
1000
0010
1000
0001
0010
0001
0100
0010
1000
0100
0010
0001
1000
0010
,
0100
0001
1000
0001
0010
0100
1000
0001
1000
0010
0100
0001
1000
0001
0100
0010
,
1000
0010
0100
0001
1000
0001
0010
0100
1000
0001
1000
0010
0100
0001
0100
0010
,
1000
0001
1000
0100
0010
0001
1000
0001
0100
0010
1000
0010
0100
0001
1000
0001
,
0010
0100
1000
0001
1000
0010
0100
0001
0100
0010
1000
0001
1000
0100
0010
0001
,
1000
0000
0000
0000
;
