#TITLE:Nuvole Rapide;
#SUBTITLE:[Disaster Originals];
#ARTIST:Subsonica;
#TITLETRANSLIT:;
#SUBTITLETRANSLIT:;
#ARTISTTRANSLIT:;
#CREDIT:Chart By;
#BANNER:Subsonica - Nuvole Rapide.png;
#BACKGROUND:Subsonica - Nuvole Rapide-background.png;
#LYRICSPATH:;
#CDTITLE:;
#MUSIC:Subsonica - Nuvole Rapide.mp3;
#OFFSET:0.420;
#SAMPLESTART:100.000;
#SAMPLELENGTH:12.000;
#SELECTABLE:YES;
#BPMS:0.000=132.000;
#STOPS:;
#BGCHANGES:;
// cache tags:
#FIRSTBEAT:1.500;
#LASTBEAT:374.500;
#SONGFILENAME:Songs/toune 5/Subsonica - Nuvole Rapide/Subsonica - Nuvole Rapide.sm;
#HASMUSIC:1;
#HASBANNER:1;
#MUSICLENGTH:170.736;
// end cache tags

//---------------dance-single - ----------------
#NOTES:
     dance-single:
     :
     Hard:
     6:
     0.456,0.685,0.094,0.228,0.158,490.000,16.000,39.000,0.000,0.000:
0000
0000
0000
2000
0000
0000
3200
0000
,
0000
0320
0000
0000
0000
0000
0000
0032
,
0000
0000
0000
0000
2000
0003
0000
3020
,
0000
0000
0000
0000
0000
0000
0000
0032
,
0000
0000
2003
0000
0000
3020
0000
0000
,
0000
0000
0000
0000
0000
0032
0000
0000
,
0000
0000
0000
0000
0003
2000
0000
0000
,
0000
0000
0000
0000
3000
0200
0000
0000
,
0320
0000
0000
0032
0000
0000
0000
0000
,
0000
2003
0000
0000
0000
0000
3020
0000
,
0000
0230
0000
0000
0000
0000
0000
0000
,
0000
2300
0000
0000
3020
0000
0000
0032
,
0000
0000
0000
0000
0000
0000
0000
2003
,
0000
0000
0000
0000
,
0000
0000
0000
3000
,
0000
0000
0000
0000
1000
0100
0010
0001
,
0010
0100
1000
0100
0010
0001
0000
0000
,
0000
0000
1000
0100
0010
0001
1000
0001
,
0010
0100
1000
1001
0000
0000
0000
0000
,
1000
0010
0100
0001
0010
0100
1000
0010
,
0100
0001
2000
0000
0000
0000
0000
0000
,
0000
0000
3000
0000
0000
1000
0010
0200
,
0000
0000
0000
0000
0000
0300
1000
0100
,
0001
0100
1000
0100
0010
0001
0010
0100
,
0000
0000
0000
0000
1000
0001
1000
0010
,
0100
0010
0100
1000
0100
0001
0000
0000
,
0000
0000
1000
0001
0010
0100
1000
0100
,
0010
0000
0001
0000
1000
0000
0001
0000
2000
0000
0000
0000
0000
0000
0000
0001
,
0000
0000
0001
0000
0000
0100
0000
0000
0000
0100
3000
0000
0000
0000
0000
0000
,
0000
0000
0100
0100
0000
0100
0100
0000
1000
0000
0100
0000
0010
0000
0001
0000
,
1000
0001
0010
0100
1000
0010
0100
0001
,
1000
0010
0100
0001
1000
0100
1000
0100
,
0001
0010
0001
0010
0100
0010
0100
0010
,
1000
0100
0010
0001
0010
0100
0010
0100
,
1000
0100
0010
0001
1000
0001
0010
0100
,
1000
0001
1000
0100
0010
0001
0010
0100
,
0010
1000
0010
0200
0000
0000
0000
0000
,
0000
0300
1000
0100
0010
0001
0010
0001
,
0100
0001
0010
0100
0000
0000
0000
0000
,
1000
0001
0100
0010
1000
0100
0010
0011
,
0010
0110
0000
0000
0000
0000
1000
0100
,
0010
0100
1000
0001
1000
0010
1000
0100
,
0002
0000
0000
0000
,
0000
0000
0003
1000
0001
2000
0000
0000
,
0000
0000
3000
0000
0010
0001
0100
1000
,
0010
0001
0100
1000
0010
0110
0000
0000
,
0000
0000
0001
0010
1000
0100
0001
0010
,
1000
0100
0001
0011
0000
0000
0000
0000
,
1000
0100
0010
1001
0100
0010
0001
0100
,
1000
2200
0000
0000
0000
0000
0000
0000
,
0000
0000
3300
0000
0000
1000
0100
2000
,
0000
0000
0000
0000
0000
0000
0000
0000
0000
0000
0000
0000
3000
0000
0010
0100
,
0010
0100
1000
0100
1000
0000
0100
0010
0000
0001
0010
0001
0010
0000
0100
1000
,
0000
0100
0010
0001
0010
0000
1000
0100
0000
0100
0010
0100
0010
0000
0001
1000
,
0000
0001
1000
0001
1000
0000
0100
0010
0000
0001
0100
0001
0100
0000
1000
0100
,
0000
0100
0010
0100
0010
0000
0001
1000
0000
0001
0100
0001
0100
0000
1000
0001
,
0000
1000
0001
1000
0001
0000
0100
0001
0000
0001
1000
0001
1000
0000
1000
0100
,
0000
0100
0010
0100
0010
0000
0010
0001
0000
0001
0100
0001
0100
0000
0100
1000
,
0000
0100
1000
0100
1000
0000
0100
0001
0000
0100
0001
0100
0001
0000
0001
1000
,
0000
0001
1000
0001
1000
0000
0010
0100
0000
0010
0100
0010
0100
0000
1000
0001
,
0000
1000
0100
0001
0010
0100
1000
0001
,
1000
0010
1000
0100
1000
0001
1000
0001
,
0010
0001
0100
0001
1000
0001
0100
1000
,
0100
0001
0100
1000
0100
0001
0010
0100
,
1000
0001
0010
0100
0010
0001
0100
1000
,
0001
0100
0001
1000
0001
0010
0100
0010
,
0001
1000
0100
0010
1000
0100
0001
0010
,
0100
1000
0001
1000
0001
0000
0100
0200
,
0000
0000
0000
0000
0000
0300
1000
0100
,
0010
0001
1000
0001
0100
0010
1000
0001
,
0000
0000
0000
0000
0001
0010
0001
0100
,
0001
1000
0001
0100
0001
0010
0000
0000
,
0000
0000
0100
1000
0100
0010
0100
1000
,
0100
0010
0100
2200
0000
0000
0000
0000
,
0000
0000
0000
0000
0000
0000
3300
1000
,
0100
0002
0000
0000
0000
0000
0000
0003
,
0100
0010
0001
1000
1000
0001
0010
0100
,
0100
0011
0000
0000
0000
0000
1000
1000
,
0100
0010
0001
0001
0010
0001
0010
1100
,
0000
0000
0000
0000
1000
0001
0010
0100
,
1000
0011
0010
0110
0100
2200
0000
0000
,
0000
0000
0000
0000
,
3300
0001
1000
0002
0000
0000
0000
0000
,
0000
0000
0013
0100
1000
0001
0010
0100
,
1000
0100
0010
1100
0000
0000
0000
0000
,
1000
0001
1000
0001
0100
0010
0100
0010
,
0001
0110
0000
0000
0000
0000
0001
0100
,
1000
0100
0001
0100
1000
0100
0001
2002
,
0000
0000
0000
0000
,
0000
0000
0000
0000
,
0000
3003
0000
1000
0001
1000
0000
0100
,
0000
0100
0010
0000
0001
0100
0000
0000
,
0000
0000
0000
1000
0100
0010
0001
1000
,
0000
0100
0010
0000
0000
0001
0000
0000
;
