#TITLE:~Asterisk~;
#SUBTITLE:Bleach opening theme 1;
#ARTIST:Orange Range;
#TITLETRANSLIT:;
#SUBTITLETRANSLIT:;
#ARTISTTRANSLIT:;
#CREDIT:;
#BANNER:;
#BACKGROUND:bleach_021.jpg;
#LYRICSPATH:;
#CDTITLE:;
#MUSIC:Bleach - Opening Theme 1 -  Asterisk (Orange Range).mp3;
#OFFSET:0.000;
#SAMPLESTART:29.928;
#SAMPLELENGTH:12.000;
#SELECTABLE:YES;
#DISPLAYBPM:200.480;
#BPMS:0.000=200.480;
#STOPS:192.500=0.360
;
#BGCHANGES:;
// cache tags:
#FIRSTBEAT:7.000;
#LASTBEAT:296.333;
#SONGFILENAME:Songs/juju steps/Copy of Bleach - Opening Theme 1 -  Asterisk (Orange Range)/Bleach - Opening Theme 1 -  Asterisk (Orange Range).sm;
#HASMUSIC:1;
#HASBANNER:0;
#MUSICLENGTH:95.036;
// end cache tags

//---------------dance-single - ----------------
#NOTES:
     dance-single:
     :
     Medium:
     6:
     0.371,0.468,0.116,0.074,0.447,229.000,11.000,7.000,0.000,0.000:
0000
0000
0000
0000
,
0000
0000
0000
1000
,
0100
0000
0000
0001
0000
0000
0000
1000
,
0000
0000
0000
0100
0000
0000
0001
0000
,
0000
1000
0000
0010
0000
0000
0000
1000
,
0000
0100
0000
0001
1000
0000
0000
0000
,
1000
0001
0000
1000
0000
0100
0010
0000
,
0001
1000
0000
0000
0100
0000
0000
0000
,
0000
1000
0000
0000
0100
0000
0000
0001
,
0000
0000
0010
0000
0000
1000
0000
0000
,
0000
0100
0000
0000
0001
0000
0100
0000
,
0000
0000
1000
0100
,
0001
1000
0000
0000
0000
1000
0001
0000
,
1000
0000
0100
0010
0000
0001
1000
0000
,
0100
0100
0000
0000
2000
0000
0000
0000
,
0001
0000
0000
0000
0000
0001
0000
0000
0000
0000
0001
0000
,
0000
0000
0000
0001
0000
0000
0000
0000
0001
0000
0000
0000
,
0000
0001
0000
0000
0000
0001
0000
0000
0000
0000
0002
3000
,
0000
1000
0000
0000
0000
0000
1000
0000
0000
0000
0000
1000
,
0000
0000
0000
1000
0000
0000
0000
0000
1000
0000
0000
0000
,
0000
1000
0000
0000
0000
0000
1000
0000
0000
0000
0000
2000
,
0003
0000
0000
0001
0000
0000
0000
0000
0001
0000
0000
0000
,
0000
0001
0000
0000
0000
0000
0001
0000
0000
0000
0000
0000
,
0001
0000
0000
0000
0001
0000
0000
0000
0000
0001
0000
0000
,
0000
0000
0002
3000
0000
0000
0000
1000
0000
0000
0000
0000
,
1000
0000
0000
0000
0000
1000
0000
0000
0000
1000
0000
0000
,
0000
0000
1000
0000
0000
0000
1000
0000
0000
0000
0000
0000
,
0000
0003
0000
0000
0000
0000
1000
0000
0000
0000
0000
0100
,
0000
0000
0000
0001
0000
0000
1000
0000
0100
0000
0000
0000
,
0000
0000
0010
0000
0000
0000
0001
0000
0000
0010
0000
0001
,
0000
0000
1000
0000
0001
0000
0000
0000
0000
1000
0000
0000
,
0000
0000
0100
0000
0000
0000
0000
0001
0000
0010
0000
0001
,
0000
0000
0000
0000
0000
1000
0000
0000
0000
0100
0000
0000
,
0001
0000
0010
0000
0000
0000
0001
0000
0000
0000
0000
0000
,
1000
0000
0000
0000
0000
0100
0000
0000
0000
0000
0001
0000
,
0000
0010
0000
0000
0000
0000
0000
0001
0000
0000
0000
0000
,
1000
0000
0000
0000
0000
0100
0000
0000
0000
0000
0001
0000
,
0000
0000
0000
1000
0000
0000
0000
0100
0000
0000
0001
0000
,
1000
0000
0000
0000
0000
0000
0000
0000
1000
0000
1000
0000
,
0000
1000
0000
1001
0000
0000
0200
0000
0000
0000
0000
0000
,
0000
0000
0000
0300
0000
0000
1000
0000
0000
0000
0000
0100
,
0000
0000
0000
0000
0001
0000
0000
0000
0010
0000
0000
0000
,
0000
1000
0000
0000
0100
0000
0001
0000
0000
0000
0000
0100
,
0000
0001
0000
0000
1000
0000
0001
0000
0000
1000
0000
0000
,
0000
0100
0000
0000
0010
0000
0001
0000
0000
0010
0000
0100
,
0000
0000
0000
0000
0010
0000
0100
0000
0000
0010
0000
1000
,
0000
0001
0000
2002
0000
0000
0000
0000
0000
0000
0000
0000
,
0000
0000
0000
3003
,
0000
0000
1000
0100
0000
0010
0000
0000
,
0100
0000
0001
0010
0000
1000
0000
0100
,
0010
0000
0001
0000
0100
0010
0000
0100
,
0000
0000
0000
0000
1000
0000
0000
1000
,
0000
0000
0001
0000
0000
0001
0000
0000
,
0000
1000
0000
0000
0001
0000
0000
1000
,
1001
1001
1001
0000
0000
0000
1000
0000
,
0100
0010
0001
1000
,
0100
0001
0000
0100
0000
0001
0100
0001
,
0000
0010
0000
1000
0000
0000
0000
0000
,
0100
0000
0000
0010
0000
0001
0000
0000
,
1000
0000
0100
0000
,
0010
0001
0000
1000
0001
0000
1000
1000
,
0000
1000
0000
0000
0000
0100
0010
0001
,
0000
0000
0000
0000
0100
0000
0000
0010
0000
0001
0000
0100
,
0000
0000
0010
0000
0000
0001
0100
0000
0000
0001
0000
0000
,
0000
0000
0000
0000
0000
1000
0000
0000
0000
0000
0100
0000
,
0000
0000
0001
0000
0000
0000
0000
0010
0000
0000
0000
0000
,
1000
0000
0000
0000
0001
0000
0000
0000
0000
0000
1001
1001
,
0000
0000
1001
1001
0000
0000
0000
0000
1000
0000
0000
0000
,
0100
0000
0000
0010
0001
0000
0000
0100
0000
0000
0010
0000
,
0000
0001
0000
0100
0000
0000
1000
0000
0100
0000
0001
0000
,
0011
0000
0000
0000
0100
0000
0000
0000
0000
0000
1000
0000
,
0100
0000
0001
0000
0000
0100
0000
0100
0000
0000
0001
0000
,
0000
0000
0000
0000
0000
1000
0000
0001
0000
0000
0100
0000
,
0010
0001
0000
0100
0000
0000
0100
0000
0000
0000
0000
0000
,
0000
1001
0000
0000
0000
0000
0000
0000
0000
0000
0000
0000
;
