#TITLE:BUTTERFLY;
#SUBTITLE:survivor;
#ARTIST:Smile.dk feat. 270;
#TITLETRANSLIT:;
#SUBTITLETRANSLIT:;
#ARTISTTRANSLIT:;
#CREDIT:WhiteYoshi;
#BANNER:banner.png;
#BACKGROUND:bg.png;
#LYRICSPATH:;
#CDTITLE:cdtitle.png;
#MUSIC:BUTTERFLY survivor.mp3;
#OFFSET:-0.364;
#SAMPLESTART:28.680;
#SAMPLELENGTH:11.800;
#SELECTABLE:YES;
#BPMS:0.000=269.999,88.000=134.999,92.000=269.999,116.000=134.998,120.000=269.998,272.000=65.598,274.000=269.998,394.000=134.998,397.000=269.998;
#STOPS:;
#BGCHANGES:;
// cache tags:
#FIRSTBEAT:32.000;
#LASTBEAT:404.000;
#SONGFILENAME:Songs/mongol/Butterfly survivor/BUTTERFLY survivor.sm;
#HASMUSIC:1;
#HASBANNER:1;
#MUSICLENGTH:97.018;
// end cache tags

//---------------dance-single - ----------------
#NOTES:
     dance-single:
     :
     Hard:
     10:
     0.978,1.000,0.588,0.165,0.129,591.000,57.000,16.000,0.000,0.000:
0000
0000
0000
0000
,
0000
0000
0000
0000
,
0000
0000
0000
0000
,
0000
0000
0000
0000
,
0000
0000
0000
0000
,
0000
0000
0000
0000
,
0000
0000
0000
0000
,
0000
0000
0000
0000
,
1000
0010
1000
0000
0001
0100
0001
0000
,
0010
0001
0010
0001
0000
0010
0001
0000
,
1000
0001
1000
0000
0001
0100
0001
0000
,
1000
0001
1000
0010
0000
1000
0010
0000
,
1000
0010
0100
0000
0010
0100
0010
0000
,
1000
0010
1000
0001
0000
0100
0001
0000
,
0011
0110
1100
1000
,
0220
0000
0000
0330
,
0001
1000
0001
1000
0001
1000
0001
0010
,
0100
1000
0001
0000
0100
0000
0001
0100
,
0001
0100
0001
0100
0001
0000
0001
0010
,
0100
1000
0100
0000
1000
0000
1010
0000
,
1000
0001
1000
0001
0010
0001
0010
0001
,
1000
0100
1000
0001
,
1001
0000
0000
0000
0000
0000
1001
0000
0000
0000
0000
0000
0000
0001
0000
0000
0001
0000
0000
0000
0001
0000
0010
0000
,
0100
0010
0001
0100
0001
0100
0001
0000
,
1000
0010
1000
0010
0000
1000
0001
0000
,
0010
0001
0010
0001
0010
0100
1000
0100
,
1000
0101
0011
1100
,
1010
0000
0101
0000
0001
0100
1000
0100
,
0001
0100
1000
0010
0000
1000
0010
1000
,
0101
0000
0000
0000
0000
0000
1010
0000
0000
0000
0000
0000
0011
0000
1100
0000
0000
0011
0000
0000
1100
0000
0000
0011
,
1000
0001
0010
0001
1000
0100
1000
0010
,
1000
0010
1000
0001
0000
0100
0001
0100
,
0001
0100
0001
0100
0010
0100
0010
1000
,
0100
0010
0001
0100
0010
1000
0100
0000
,
1000
0001
0100
1000
0001
0010
0100
1000
,
0010
0100
0001
0010
0000
1000
0001
0010
,
0100
1000
0001
1000
0001
0100
0010
0001
,
0100
0001
0100
0001
0010
0001
0010
0000
,
0100
1000
0001
1000
0010
0100
0001
0100
,
0001
0010
0001
1000
0000
0001
1000
0001
,
1000
0100
0010
0001
1000
0100
1000
0001
,
0010
0001
0100
0001
0100
0010
0100
0000
,
0100
0010
1000
0010
1000
0100
1000
0100
,
0010
0001
0010
0001
0000
0010
0001
0010
,
0001
0010
0001
0010
0100
1000
0001
1000
,
0010
0110
0110
0110
,
0001
1000
0001
1000
0010
1000
0100
0010
,
0001
0100
0001
0010
0001
0100
0001
0000
,
1010
1100
0011
0101
,
0110
0000
0101
0000
0001
0100
1000
0100
,
0001
1000
0010
1000
0010
1000
0010
1000
,
0010
1000
0001
0100
0010
0001
0010
0100
,
0001
1000
0001
1000
0100
0010
0001
1000
,
0010
0100
0101
0001
,
0001
1000
0001
0010
0001
1000
0001
0100
,
0010
0100
0002
0000
0023
0000
0230
0000
,
0301
0010
0001
0010
0001
0010
0001
1000
,
0001
0110
0101
0101
,
0001
1000
0000
0010
1000
0000
1000
0100
,
0000
0001
0010
0000
0010
0000
0100
0000
,
0110
0011
0011
0110
,
0022
0000
0000
0033
,
0001
1000
0001
1000
0001
1000
0001
1000
,
0010
0100
0001
0000
0100
0001
0100
0000
,
0001
0010
0001
0100
0010
1000
0010
1000
,
0100
1000
0001
0010
0001
0100
0001
0000
,
0110
1010
1100
1100
,
0011
0010
1100
1100
,
0001
0100
0010
1000
0100
1000
0100
0010
0001
0010
0100
1000
0010
1000
0010
0100
0001
0000
0000
0000
1000
0000
0000
0000
0001
0000
0000
0000
0010
0000
0000
0000
,
0001
1000
0100
1000
0001
1000
0001
0010
,
0001
1000
0100
0000
0010
1000
0010
1000
,
0010
1000
0010
0100
0001
0010
0100
0001
,
0000
0100
0010
0000
0100
0001
0010
1000
,
0001
1000
0001
0010
0100
1000
0001
0010
,
0000
0001
0100
0000
0001
0100
0010
1000
,
0001
1000
0100
0010
0001
1000
0100
1000
,
0010
1000
0010
0000
0100
0001
0100
0001
,
0010
0001
0100
0010
1000
0001
0020
0200
,
0330
1000
0100
0010
0001
0010
0001
1000
,
0100
1000
0001
0100
0010
0001
0100
1000
,
0001
0010
0100
0000
0010
0001
0010
0100
,
1000
0010
0100
0001
0100
0010
0100
0001
,
0000
0100
0001
0100
0001
0100
0010
1000
,
0100
1000
0001
0010
0001
0010
0100
0010
,
0001
0010
0100
0000
1001
0000
1001
0000
,
1010
1001
0101
0101
,
2200
0000
0000
0000
3300
0000
0001
1000
,
0001
1000
0010
1000
0100
0010
0001
1000
,
0020
0000
0000
0000
,
1030
0001
0010
0001
0010
0100
1000
0001
,
1000
0000
0101
0101
,
1010
1100
2002
0000
,
0000
0000
3003
0000
0001
1000
0001
1000
,
0001
1000
0010
1000
0100
0010
0001
0100
,
0010
0000
0000
0000
0100
0001
0010
1000
,
0001
1000
0100
0010
0001
1000
0010
0001
,
0100
0000
0000
0000
0001
1000
0001
1000
,
0100
0010
0001
1000
0100
1000
0001
1000
,
0100
0000
0000
0000
0000
0000
0000
0000
0001
1000
0000
0010
1000
0000
0010
1000
,
0000
0000
0000
0000
1000
0000
0000
0100
0000
0000
0000
0000
2002
0000
0000
0000
0000
0000
0000
0000
0000
0000
0000
0000
0000
0000
0000
0000
0000
0000
0000
0000
0000
0000
0000
0000
0000
0000
0000
0000
0000
0000
0000
0000
0000
0000
0000
0000
,
0000
0000
0000
0000
,
3003
0000
0000
0000
;

//---------------dance-single - ----------------
#NOTES:
     dance-single:
     :
     Medium:
     7:
     0.568,0.677,0.227,0.206,0.000,344.000,22.000,20.000,0.000,0.000:
0000
0000
0000
0000
,
0000
0000
0000
0000
,
0000
0000
0000
0000
,
0000
0000
0000
0000
,
0000
0000
0000
0000
,
0000
0000
0000
0000
,
0000
0000
0000
0000
,
0000
0000
0000
0000
,
1000
0001
0010
0001
,
0100
0001
1000
0010
,
1000
0001
0100
0001
,
0100
0010
0110
0000
,
0001
0001
1000
1000
,
0001
0001
0010
0010
,
0001
0010
0001
0000
,
0220
0000
0000
0000
0000
0330
0000
0000
,
0001
0001
1000
0001
,
1000
0010
0100
0001
,
0100
0001
0010
0001
,
0010
0100
1000
0001
,
1000
0001
0000
0000
0001
1000
0000
0000
,
1000
0001
0000
0000
0001
1000
0000
0000
,
1001
0000
1001
0000
2002
0000
0000
3003
,
0001
0000
0001
0000
,
1000
0010
1000
0010
,
0100
0001
0010
0100
,
0010
0100
0010
0000
0001
0000
0010
0000
,
0100
1000
0001
0000
,
1001
0000
1010
0000
,
1001
0101
1001
0011
,
1000
0001
0010
0001
,
0010
0001
0100
0010
,
1000
0100
0001
0100
,
1000
0000
0001
0000
0010
0001
0010
0000
,
0001
1000
0010
1000
,
0001
0000
0100
0000
0001
0100
0001
0000
,
0100
0001
1000
0001
,
0020
0000
0000
0000
,
1030
0001
0010
0001
,
0100
0000
0001
0100
0000
0000
0000
0000
,
0001
1000
0001
1000
,
0010
0000
0100
0010
0000
0000
0000
0000
,
1000
0010
1000
0001
,
0001
0000
0010
0100
0000
0000
0000
0000
,
0011
0011
0011
0011
,
0011
0000
0000
0000
,
0001
1000
0001
1000
0001
0000
1000
0000
,
0001
1000
0001
1000
,
0010
1000
0010
1000
0010
0000
1000
0000
,
0010
0100
0001
0010
,
0100
0010
0100
0010
0100
0000
1000
0000
,
0001
0100
0010
1000
,
0001
0100
0001
0000
1000
0000
0001
0000
,
2002
0000
0000
3003
,
0001
0001
1000
0001
,
0010
0001
1000
0010
,
0100
0001
0001
0010
,
0010
0100
0100
0100
,
2000
0001
0001
0010
,
0001
0100
0010
0100
,
3001
0001
0001
0010
,
0002
0000
0000
0000
,
1003
0010
1000
0010
,
0100
0001
1000
0001
,
0010
0001
0100
0010
,
0220
0000
0000
0330
,
0001
0001
1000
1000
,
0001
0001
0010
0010
,
0220
0000
0000
0330
0001
0000
1000
0000
,
0001
1000
0001
1000
,
0010
0100
0001
1000
,
0001
0010
0100
1000
,
0001
0000
0100
0000
0001
0100
0001
0000
,
0010
0001
0010
0000
0001
0010
0001
0000
,
0010
0100
0010
0000
0100
0000
1000
0000
,
0010
0100
0010
0000
,
0000
0000
1000
0001
,
0010
0001
1000
0001
,
0100
0001
1000
0010
,
0100
0001
0020
0000
,
0000
0000
0031
1000
,
0001
0010
0001
0100
,
0001
1000
0010
0100
,
0010
0100
0220
0000
,
0000
0330
0001
1000
,
1000
0001
0001
0010
,
0010
0001
0001
0010
,
0010
0100
0100
1000
,
1000
1000
0010
0010
,
1000
1000
0001
0001
,
0010
0010
0001
0100
,
0001
0010
0220
0000
,
0000
0330
0001
0001
,
1000
1000
0010
0010
,
1000
1000
0100
0001
,
0100
1000
0001
0010
,
0100
0000
0010
0000
0001
0010
0001
0000
,
1000
0100
1000
0000
0001
0010
0001
0000
,
1000
0100
1000
0000
0001
1000
0010
0100
,
0010
0220
0000
0000
,
0000
0000
0000
0000
,
0330
0000
0000
0000
;

//---------------dance-single - ----------------
#NOTES:
     dance-single:
     :
     Easy:
     5:
     0.418,0.468,0.320,0.216,0.000,232.000,31.000,21.000,0.000,0.000:
0000
0000
0000
0000
,
0000
0000
0000
0000
,
0000
0000
0000
0000
,
0000
0000
0000
0000
,
0000
0000
0000
0000
,
0000
0000
0000
0000
,
0000
0000
0000
0000
,
0000
0000
0000
0000
,
0010
0000
0110
0000
,
0100
0000
0110
0000
,
0001
0000
1001
0000
,
0001
0000
0011
0000
,
1010
0000
0101
0000
,
1100
0000
1001
0000
,
0001
0010
0001
0010
,
0001
0000
0000
0000
,
1000
0010
0100
0000
,
0010
0100
0010
0000
,
0001
0100
0001
0000
,
1000
0100
0010
0000
,
0001
0000
0010
0000
,
0100
0000
1000
0000
,
0001
0010
0200
0000
,
1300
0000
0001
0000
,
0001
0001
0001
0000
,
1000
0000
0010
0000
,
0010
0010
0010
0000
,
1010
0000
0110
0000
,
0101
0000
1100
0000
,
2002
0000
0000
3003
,
0001
0000
0010
0001
,
0010
0000
0001
1000
,
0001
1000
0010
0100
,
0001
0000
0000
0000
,
1000
0000
0100
0001
,
0100
0000
1000
0100
,
0001
0100
1000
0100
,
0001
0000
0000
0000
,
0001
0000
1000
0010
,
1000
0000
0001
0010
,
0001
0010
0100
1000
,
0001
0000
0000
0000
,
0100
0000
0010
0100
,
0010
0000
1000
0010
,
1000
0001
0100
0001
,
0010
0000
0100
0000
,
2002
0000
3003
0000
,
0001
0000
0001
0000
,
2002
0000
3003
0000
,
1000
0000
1000
0000
,
2002
0000
3003
0000
,
0001
0000
0001
0000
,
2002
0000
0000
3003
,
0001
0000
0001
0000
,
1000
0010
0100
0010
,
0100
0001
0010
0100
,
1000
0001
0100
0010
,
1000
0000
0001
0000
,
0010
0000
0011
0000
,
1100
0000
0011
0000
,
0001
0010
1000
0010
,
0002
0000
0000
0000
,
1003
0000
0010
1000
,
0010
0100
0010
0100
,
0001
0010
0100
1000
,
0001
0000
0000
0000
,
1000
0000
1001
0000
,
1010
0000
0110
0000
,
0220
0330
0001
0000
,
1000
0001
1000
0000
,
0001
0010
0001
1000
,
0100
1000
0001
0000
,
0000
0000
1000
0000
,
0010
1000
0010
0000
,
0010
0100
0001
0010
,
0100
1000
0020
0000
,
0000
0030
0100
0000
,
0001
0010
0100
0000
,
1000
0001
0010
0100
,
1000
0001
0010
0000
,
0000
0000
0100
0000
,
0100
1000
0200
0300
,
0010
0001
0010
0001
,
1000
0001
2000
0000
,
3000
0000
0001
0000
,
0010
0000
0001
0010
,
0001
0000
1100
0000
,
0011
0000
0100
1000
,
0100
0000
0110
0000
,
0110
0000
0010
0100
,
0010
0000
1000
0001
,
1000
0001
1000
0000
,
2002
0000
3003
0000
,
0001
0000
0001
0010
,
0001
0000
1000
0000
,
1010
0000
0010
0100
,
0010
0000
1000
0000
,
0100
0010
0001
0010
,
0100
0000
1000
0001
,
1000
2002
0000
0000
,
0000
0000
0000
0000
,
3003
0000
0000
0000
;
