#TITLE:Rocket Flight;
#SUBTITLE:;
#ARTIST:Rushjet1;
#TITLETRANSLIT:;
#SUBTITLETRANSLIT:;
#ARTISTTRANSLIT:;
#CREDIT:;
#BANNER:Rocket Flight-banner.png;
#BACKGROUND:Rocket Flight-bg.png;
#LYRICSPATH:;
#CDTITLE:!kommi-cdtitle.png;
#MUSIC:Rocket Flight.mp3;
#OFFSET:-0.040;
#SAMPLESTART:21.319;
#SAMPLELENGTH:13.420;
#SELECTABLE:YES;
#DISPLAYBPM:180.000;
#BPMS:0.000=180.320,176.000=9000.020;
#STOPS:;
#BGCHANGES:;
// cache tags:
#FIRSTBEAT:0.000;
#LASTBEAT:278.000;
#SONGFILENAME:Songs/KBU/Rocket Flight (Kommisar)/Rocket Flight.sm;
#HASMUSIC:1;
#HASBANNER:1;
#MUSICLENGTH:60.086;
// end cache tags

//---------------dance-single - ----------------
#NOTES:
     dance-single:
     :
     Hard:
     11:
     1.000,1.000,1.000,1.000,1.000,468.000,111.000,98.000,110.000,10.000:
1001
1000
1000
0100
0000
0010
0000
0100
,
0000
1000
0000
1000
0011
0000
0110
0000
,
1001
1000
1000
0100
0000
0010
0000
0100
,
0000
1000
0000
1000
0011
0000
0100
0000
,
1010
1000
1000
0100
0000
0010
0000
0100
,
0000
0000
0000
1000
0000
0000
0000
0000
0000
1000
0000
0000
0011
0000
0000
0000
0000
0000
0110
0000
0001
0000
0010
0000
,
1001
1000
1000
0100
0000
0010
0000
0100
,
0000
1000
0000
1000
0011
0000
0101
0000
,
1001
0100
0010
0001
0010
0100
1001
0010
0100
1000
0100
0010
1100
0001
0010
0100
,
1000
0100
1001
0010
1000
0001
1000
0001
0110
1000
0010
1000
0011
1000
0100
0010
,
1001
0010
0100
1000
0100
0010
0101
1000
0010
1000
0100
0010
1001
0100
0010
0001
,
0010
0100
1010
0001
0100
0001
0010
0100
1001
0010
0100
0010
1100
0001
0010
0100
,
1001
0100
0100
1001
0100
0100
1010
0100
,
0100
1001
0100
0100
1001
0000
0101
0000
,
1001
0100
0100
1001
0100
0100
1010
0100
,
0100
0000
1001
0000
0100
0000
0100
0000
1001
0010
0000
0100
1001
0010
0100
0010
,
1100
0010
0100
1000
0101
1000
0100
0010
0001
0000
0010
0000
1100
0010
0000
0010
,
0000
0010
0100
1000
0011
1000
0100
0010
0001
0000
0010
0000
1100
0010
0000
0010
,
0000
0010
0100
1000
0101
1000
0100
0010
0001
0010
0100
0010
1001
0100
0010
0100
,
0000
1000
0001
1000
0101
0010
0001
0010
0100
1000
0100
0010
1001
0100
0010
0001
,
1100
0010
0001
0010
0101
0010
0001
1000
0001
0000
0010
0000
1100
0010
0000
0010
,
0000
0010
0100
1000
0011
1000
0100
1000
0001
0000
0010
0000
1100
0010
0000
0010
,
0000
0010
0100
1000
0101
0010
0100
0010
0001
0010
0100
1000
0110
0001
0100
0001
,
0000
0100
0010
0001
1100
0010
0100
1000
0100
0010
0001
0010
1100
0001
0010
0100
,
2002
3003
0100
0000
0100
0000
2002
3003
0100
0000
0100
0000
2020
3030
0100
0000
,
0100
0000
2002
3003
0100
0000
0100
0000
2002
3003
0100
0000
0022
0033
0100
0000
,
2002
3003
0100
0000
0100
0000
2002
3003
0100
0000
0100
0000
2020
3030
0100
0000
,
0100
0000
2002
3003
0100
0000
0100
0000
2002
3003
0100
0000
2020
3030
0100
0000
,
0202
0303
0010
0000
0010
0000
0202
0303
0010
0000
0010
0000
2200
3300
0010
0000
,
0010
0000
0202
0303
0010
0000
0010
0000
0202
0303
0010
0000
2002
3003
0010
0000
,
0202
0303
0010
0000
0010
0000
0202
0303
0010
0000
0010
0000
2200
3300
0010
0000
,
0010
0000
0202
0303
0010
0000
0010
0000
0202
1303
0010
1000
0022
0133
0001
0100
,
2002
3003
0100
0000
0100
0000
2002
3013
0100
0000
0100
0001
2020
3030
0100
0010
,
0100
0000
2002
3013
0100
0000
0100
0010
2002
3003
0100
1000
0022
0033
0100
0010
,
2002
3003
0100
1000
0100
0000
2002
3013
0100
0000
0100
0001
2020
3030
0100
0010
,
0100
0000
2002
3013
0100
0000
0100
0010
2002
3003
0100
1000
0022
0033
0100
1000
,
0202
0303
0010
0100
0010
0000
0202
1303
0010
0000
0010
0001
2200
3300
0010
0100
,
0010
0000
0202
1303
0010
0000
0010
1000
0202
0303
0010
0100
2002
3003
0010
1000
,
0202
0303
0010
0100
0010
0000
0202
1303
0010
0000
0010
0001
2200
3300
0010
0100
,
0010
0000
0202
1303
0010
0000
0010
1000
0202
0303
0010
0100
2002
3003
0010
0001
,
1100
0010
0001
0010
0101
1000
0100
0010
0001
0000
0010
0000
1100
0010
0000
0010
,
0000
0010
0100
1000
0011
1000
0001
0100
0001
0000
0010
0000
1100
0010
0000
0010
,
0000
0010
0001
0010
1100
0001
0100
0010
0001
0010
0100
1000
0110
0001
0100
0001
,
0000
1000
0100
0010
1001
0010
0100
1000
0001
1000
0100
0010
1001
0100
0010
0001
,
0220
0000
0000
0000
,
0000
0000
0000
0000
,
0000
0000
0000
0000
,
0000
0000
0000
0000
,
0000
0000
0000
0000
,
0000
0000
0000
0000
,
0000
0000
0000
0000
,
0000
0000
0000
0000
,
0000
0000
0000
0000
,
0000
0000
0000
0000
,
0000
0000
0000
0000
,
0000
0000
0000
0000
,
M00M
M00M
M00M
M00M
,
M00M
M00M
M00M
M00M
,
M00M
M00M
M00M
M00M
,
M00M
M00M
M00M
M00M
,
M00M
M00M
M00M
M00M
,
M00M
M00M
M00M
M00M
,
M00M
M00M
M00M
M00M
,
M00M
M00M
M00M
M00M
,
M00M
M00M
M00M
M00M
,
M00M
M00M
M00M
M00M
,
M00M
M00M
M00M
M00M
,
M00M
M00M
M00M
M00M
,
M00M
M00M
M00M
M00M
,
M00M
M00M
M33M
0000
;
