#TITLE:PARANOiA;
#SUBTITLE:~Sky~;
#ARTIST:NW180;
#TITLETRANSLIT:;
#SUBTITLETRANSLIT:;
#ARTISTTRANSLIT:;
#CREDIT:;
#BANNER:paranoiasky-bn.jpg;
#BACKGROUND:paranoiasky-bg.jpg;
#LYRICSPATH:;
#CDTITLE:!TEEXcdtitle.png;
#MUSIC:beatmania IIDX 12 HAPPY SKY - PARANOiA ~Sky~(H).mp3;
#OFFSET:-4.063;
#SAMPLESTART:104.836;
#SAMPLELENGTH:12.000;
#SELECTABLE:YES;
#BPMS:0.000=181.000;
#STOPS:;
#BGCHANGES:;
// cache tags:
#FIRSTBEAT:0.000;
#LASTBEAT:379.500;
#SONGFILENAME:Songs/Fresh Flock of Fantastic Files F4/(TEEX) Paranoia ~Sky~/Paranoia ~Sky~.sm;
#HASMUSIC:1;
#HASBANNER:1;
#MUSICLENGTH:130.043;
// end cache tags

//---------------dance-single - ----------------
#NOTES:
     dance-single:
     :
     Challenge:
     12:
     1.000,1.000,0.846,0.208,1.000,1201.000,110.000,27.000,0.000,12.000:
1100
0000
0110
0000
1100
0000
0001
0010
0100
0010
0001
0100
0010
0100
0001
1000
,
0100
0000
0010
0000
1001
0000
0100
0001
1000
0100
0010
0100
1000
0001
0010
0000
,
0101
0000
0110
0000
0101
0000
0100
1000
0100
0001
0010
1000
0010
0001
0100
0000
,
1010
0000
0110
0000
1001
0000
0001
1000
0010
0100
0001
0010
0100
1000
0100
0000
,
0110
0000
0011
0000
0110
0000
0100
1000
0100
0010
1000
0010
0100
1000
0001
0000
,
0011
0000
0100
0000
1100
0000
0001
1000
0010
0100
0001
0010
0100
1000
0001
0000
,
0101
0000
0010
0000
1010
0000
0001
0010
1000
0010
0001
0100
0010
0100
0001
0000
,
1100
0000
0001
0000
1010
0000
0001
1000
0010
1000
0001
1000
0100
1000
0001
0000
,
0110
0000
0001
0000
0110
0000
0010
0100
1000
0100
0010
0100
0001
0100
0010
0000
,
1010
0000
0100
0000
1001
0000
0100
0010
0100
0001
1000
0010
0100
0001
1000
0000
,
1100
0000
0001
0000
1010
0000
0001
0010
0100
1000
0100
0010
0001
1000
0100
0000
,
0011
0000
1000
0000
0101
0000
0100
0001
0100
0010
0100
1000
0100
0010
0100
0000
,
1010
0000
0001
0000
1100
0000
0010
1000
0010
0100
0010
0001
0010
0100
0010
0000
,
0110
0000
0010
0000
1100
0000
0001
0010
0001
1000
0010
1000
0001
0100
0001
0000
,
0101
0000
1000
0000
1010
0000
1000
0010
1000
0001
0010
0001
1000
0100
1000
0000
,
1010
0000
0001
0000
0011
0000
0010
0001
0010
0100
1000
0001
0100
0010
1000
0000
,
1010
0000
0100
0000
0101
0000
0010
1000
0010
0100
0001
1000
0100
0010
0001
0000
,
0101
0000
0100
0000
1100
0000
1000
0001
0100
0010
0100
0001
1000
0010
0100
0000
,
0110
0000
0001
0000
0101
0000
1000
0010
1000
0010
0100
0001
0010
0001
1000
0000
,
1100
0000
0100
0000
1100
0000
0010
0001
0010
0001
0100
0001
0100
0001
1000
0000
,
0110
0000
1000
0000
0101
0000
0100
0001
0100
0001
0010
0001
0010
0001
0100
0000
,
0011
0000
0100
0000
1001
0000
0100
0001
1000
0100
1000
0001
0010
0001
1000
0000
,
1010
0000
0100
0000
1001
0000
1000
0010
0100
0010
0100
0001
0010
0001
1000
0000
,
0002
1000
0010
1000
0100
0013
1001
0000
,
0110
0000
0001
0000
0110
0000
1000
0100
0010
0001
1000
0010
0100
0001
1000
0100
,
1000
0100
0010
0001
0100
0001
0100
0001
1000
0001
0010
0100
1000
0100
1000
0001
,
1000
0000
0100
0000
1021
0000
0000
0000
0031
1000
0100
1000
0100
0010
0001
0100
,
0010
1000
0100
1000
0001
1000
0010
1000
0010
0100
0010
0001
0010
0100
0001
0100
,
0010
1000
0001
0010
0100
0001
0100
0010
0001
1000
0100
0010
0001
0010
0100
1000
,
0001
0100
0010
1000
0010
1000
0100
1000
0100
0010
0001
0100
0001
1000
0100
0010
,
0100
0000
0010
0000
2011
0000
0000
0000
3001
1000
0001
1000
0100
0010
0100
0010
,
0001
0100
0001
0100
0010
0100
0010
1000
0010
1000
0100
1000
0001
0100
0001
1000
,
0010
1000
0001
0010
0001
0100
0010
1000
0100
1000
0001
0010
0001
0100
0010
0100
,
0001
1000
0010
0100
0001
1000
0010
0100
0001
0100
0010
1000
0001
0100
0010
1000
,
0100
0000
0010
0000
1012
0000
0000
0000
1003
0100
1000
0001
1000
0100
1000
0001
,
0100
0010
1000
0010
0100
0001
0100
0010
1000
0001
0010
0100
1000
0010
1000
0001
,
0100
0001
0010
0001
0100
0010
1000
0100
0010
0001
0010
0001
0010
0100
1000
0100
,
1000
0010
0100
0001
0010
0100
1000
0010
0100
0001
0010
0100
1000
0100
1000
0001
,
1000
0000
0001
0000
1021
0000
0000
0000
1030
0010
1000
0001
0010
0001
0100
0001
,
0010
0100
1000
0010
1000
0100
0010
0001
0100
0010
0100
0001
0010
0000
1000
0000
,
1202
0000
0000
0000
1303
0000
1000
0001
0100
0000
0010
0000
1001
0000
1000
0001
,
0100
0001
0010
0000
1001
0000
0100
1000
0100
1000
0010
0000
0011
0000
1000
0100
,
1000
0001
1000
0000
1010
0000
0010
1000
0100
1000
0001
0000
1100
0000
0010
0001
,
1000
0001
0100
0000
0101
0000
0010
0100
0010
1000
0001
0000
0101
0000
0001
0010
,
1000
0010
0001
0000
1100
0000
1000
0010
0001
0010
1000
0000
0101
0000
0100
1000
,
0100
0001
0010
0000
1100
0000
0100
0010
0001
0100
0010
0000
0101
0000
0100
0001
,
0010
0100
1000
0000
1100
0000
0100
1000
0100
0010
0001
0000
1010
0000
0100
0001
,
0100
0010
1000
0000
0011
0000
0001
0100
0001
0010
0001
0000
1001
0000
1000
0100
,
1001
0000
1000
0000
0110
0000
0000
0000
0001
1000
0001
0000
0110
0000
0001
0100
,
0001
0000
0010
0000
0110
0000
0100
1000
0001
0000
1000
0000
0110
0000
0010
1000
,
0100
0000
0010
0000
0110
0000
0010
0001
0100
0000
0001
0000
0021
0000
0130
0000
,
1000
0001
0100
0000
1010
0000
0100
1000
0001
0000
0011
0000
1200
0000
0310
0000
,
1000
0001
0100
0000
1010
0000
0100
0010
0100
0000
0010
0000
0102
0000
1003
0000
,
0010
1000
0100
0000
1001
0000
0001
0100
0010
0100
0001
0000
2100
0000
3001
0000
,
0010
1000
0010
0000
0110
0000
1000
0001
0010
0000
0100
0000
0120
0000
0031
0100
,
0010
0000
1000
0000
1010
0000
1000
0100
1000
0001
1000
0000
0110
0000
0100
0001
,
1010
0000
0000
0000
1000
0100
1000
0000
0010
0100
0001
0000
0100
0010
0100
0000
,
0001
0010
0001
0000
1000
0100
1000
0000
0010
0000
0110
0000
0001
1000
0100
0000
,
0010
0000
0001
0000
0101
0000
1000
0001
1000
0000
0001
0000
0010
1000
0100
0000
,
0010
0000
0110
0000
0010
0001
0100
0000
0001
0000
1100
0000
0021
0000
0130
0000
,
1000
0100
1000
0000
0101
0000
0001
0010
0001
0000
0100
0000
2010
0000
3001
1000
,
0100
0000
0010
0000
0101
0000
1000
0000
2011
0000
0000
0000
3010
1000
0010
0000
,
1001
1000
0110
0001
0100
0001
0011
0100
,
1000
0001
0100
0000
0011
0000
0100
1000
0010
0000
0001
0000
0101
0000
0000
0000
,
2202
0000
3303
0000
0010
1000
0010
1000
0001
0100
0001
0100
0001
0010
0001
0010
,
0100
1000
0100
1000
0010
0100
0010
0100
0001
1000
0001
1000
0100
1000
0100
1000
,
0001
0100
0001
0100
0010
1000
0010
1000
0001
0010
0001
0010
0100
1000
0001
0100
,
0010
1000
0001
0010
0001
0100
0010
0100
1000
0100
0010
1000
0100
0010
0001
0100
,
0010
0001
0010
0100
0001
1000
0010
0100
0001
1000
0100
0010
0100
1000
0001
0010
,
0100
1000
0001
0010
0100
1000
0001
0100
0010
0100
0001
0010
0100
0010
0001
1000
,
0100
0010
0001
1000
0100
0010
0001
1000
0100
0010
0001
0100
0010
0100
0010
1000
,
0001
0100
0010
1000
0001
0100
0001
0100
0001
0100
0001
0100
0010
1000
0010
0000
,
2202
0000
0000
0020
,
0033
0000
0000
0020
,
0330
0000
0000
0020
,
3030
0000
0000
0000
0100
0001
0100
0001
1000
0100
0010
0001
0010
0100
1000
0001
,
1000
0000
0110
0000
0101
0000
0001
1000
0100
0010
0001
1000
0100
1000
0001
0010
,
0001
0100
0001
0010
0100
1000
0010
1000
0010
0100
0001
0010
0001
0100
0010
0100
,
1000
0100
0010
0001
0010
0100
0001
1000
0100
0010
1000
0010
0100
1000
0100
0010
,
0100
0001
0100
0010
1000
0010
0001
1000
0100
0010
0001
0100
0010
0100
0001
1000
,
0001
1000
0010
1000
0010
1000
0100
1000
0100
0010
0001
0010
0001
0100
0001
0100
,
0001
1000
0010
0100
0001
0100
0010
1000
0010
1000
0001
0100
0001
0100
0001
0010
,
0001
0010
0001
0100
0001
0100
0010
1000
0100
0010
0100
1000
0010
0100
0010
1000
,
0001
0100
0001
0100
0010
1000
0010
1000
0001
0100
0001
0010
0100
1000
0010
1000
,
0001
0010
0100
1000
0010
0001
0010
0100
0001
1000
0010
0100
0001
0100
1000
0100
,
0010
1000
0100
1000
0001
1000
0010
0100
0001
0010
0001
1000
0001
0100
0001
0010
,
0100
1000
0100
1000
0001
0010
0001
1000
0100
0010
0100
1000
0001
0010
0001
0100
,
0010
1000
0010
0100
0001
1000
0100
0010
0001
0010
0100
1000
0001
0100
0010
1000
,
0001
0010
0100
1000
0100
0010
0001
1000
0010
0100
0001
0100
0010
1000
0100
0010
,
0001
0100
0010
1000
0100
0010
0001
0100
0010
1000
0001
0100
0001
1000
0010
1000
,
0001
0010
0001
1000
0100
0010
0001
0010
0001
0010
0100
1000
0001
0010
0100
1000
,
0010
0100
0001
1000
0100
0010
0001
0100
0010
1000
0001
0000
2202
0000
3303
0000
,
0001
0010
0001
0100
0001
0010
0001
0100
0001
0010
0001
0100
0001
0010
0001
0100
,
0001
0010
0001
0100
0001
0010
0001
0100
0001
0010
0001
0100
0001
0010
0001
0100
,
0001
0010
0001
0100
0001
0010
0001
0100
0001
0010
0001
0100
0001
0010
0001
0000
;

//---------------dance-single - ----------------
#NOTES:
     dance-single:
     :
     Hard:
     11:
     1.000,1.000,0.923,0.846,0.869,910.000,120.000,110.000,0.000,0.000:
0010
1000
0200
0000
0310
0001
1000
0010
,
0100
0001
0201
0000
0301
0010
1000
0001
,
0100
1000
1020
0000
0130
0001
0010
0001
,
1000
0100
0201
0000
0301
0010
0100
0010
,
0001
0100
2001
0000
3010
1000
0100
1000
,
0010
0100
1020
0000
0130
0001
0010
0001
,
0100
0010
1002
0000
1003
0010
0100
0001
,
1000
0001
0210
0000
0301
0010
0100
1000
,
0001
0000
1000
0000
0102
0000
0000
0000
1003
0001
1000
0000
0110
0000
0001
0000
,
0100
0000
0010
0000
1002
0000
0000
0000
0013
0001
0010
0000
0100
0000
1000
0000
,
0001
0010
0100
0000
2100
0000
0000
0000
3010
0000
1000
0000
0100
0000
1000
0000
,
0010
0000
0100
0000
1020
0000
0000
0000
0130
0001
0100
0001
0100
0000
0010
0000
,
1000
0000
0001
0000
2100
0000
0000
0000
3100
0010
0001
0100
0010
0000
1000
0000
,
0001
0000
0100
0000
1200
0000
0000
0000
1300
0001
1000
0000
0110
0000
0100
0001
,
0010
0000
0100
0000
0120
0000
0000
0000
0031
0100
0010
0000
0110
0000
0010
1000
,
0100
1000
0001
0000
0021
0000
0000
0000
0130
1000
0010
0100
0010
1000
0001
0100
,
0001
0010
0001
0100
0020
0000
0000
0000
0130
0001
0100
0000
1010
0000
0010
0000
,
1000
0000
0001
0000
0102
0000
0000
0000
0013
0001
1000
0000
1100
0000
0001
0100
,
0001
0000
0010
0000
0012
0000
0000
0000
0013
0001
0100
0000
0110
0000
1000
0000
,
0100
0100
1001
0000
1000
0010
0001
1000
,
0100
0001
0010
0000
0100
0001
0100
1000
,
0010
0001
0021
0000
1030
0100
0001
0010
,
0001
0100
1100
0000
0010
0100
0001
1000
,
0100
0010
2002
0000
0000
3003
0110
0000
,
0001
0010
0100
1000
0002
0000
0000
0000
0103
0000
0000
0000
0010
1000
0001
1000
,
0100
0010
0001
0100
0010
0000
0110
0000
0101
0000
0001
0000
1000
0100
0010
0100
,
0010
0000
0011
0000
0220
0000
0330
0000
1000
0001
1000
0000
0110
0000
0010
1000
,
0001
1000
0010
0100
0001
1000
0100
0000
0010
0000
0001
0000
0101
0000
0001
0010
,
0001
0010
0001
0000
1000
0000
0010
0000
0101
0000
1000
0100
1000
0000
0001
0000
,
0110
0000
1000
0000
0100
0000
0010
0100
1000
0000
0001
0000
0110
0000
0100
0001
,
1000
0000
0100
0000
2200
0000
3300
0000
0100
0010
0001
0010
0001
0000
0100
0000
,
0010
0000
0101
0000
0001
1000
0100
1000
0010
0000
0100
0000
0110
0000
0001
0010
,
0100
1000
0001
0010
0100
0000
1000
0000
0001
0100
0001
0100
0001
0000
1000
0000
,
0100
0000
0010
0000
0001
0000
0100
0000
0001
0000
1000
0000
0100
1000
0100
1000
,
0100
0000
0010
0000
1001
0000
0010
1000
0001
1000
0100
1000
0001
0010
0001
0100
,
0010
1000
0100
0010
0100
1000
0001
0010
0001
0100
0001
1000
0100
0010
0100
1000
,
0100
0000
0010
0000
1001
0000
0001
0000
0100
0000
0001
0000
0010
0001
0010
0100
,
0010
0011
1100
0010
1001
0100
1001
1000
,
0100
0000
1000
0000
0110
0000
0010
0000
0100
0001
1000
0000
0110
0000
0001
0000
,
0010
0000
0001
0000
1000
0100
0010
0000
0110
0000
0100
0000
1000
0000
0010
0000
,
0220
0000
0330
0000
0101
0000
0001
0100
0010
0000
1000
0000
0110
0000
0010
0100
,
0010
0000
1000
0000
1100
0000
0010
0001
0010
0000
0100
0000
1001
0000
0100
1000
,
0100
0010
1010
0010
0001
0100
0101
0100
,
0001
1000
0110
0100
0001
0010
1100
0010
,
2000
3002
2003
3002
0203
0320
0230
0320
2030
3200
2300
3200
0320
0032
0023
0032
,
0203
0302
2003
3200
0320
0230
2300
3002
0023
0230
2300
3200
0320
0032
0203
0320
,
0230
0302
0023
0230
0320
0032
2003
3200
0320
0230
2300
3200
0320
0230
2300
3002
,
0023
0032
2003
3002
0203
0302
0023
0230
2300
3200
0320
0032
2003
3020
2030
3000
,
0101
0000
0010
0000
0101
0000
0100
0001
1000
0100
1000
0001
0010
0000
0100
0000
,
1100
0000
0010
0000
1001
0000
0100
0001
0100
0001
1000
0000
0010
0100
1000
0000
,
0001
0000
0101
0000
0010
0100
0010
0001
0010
0001
0100
0000
2100
0000
3001
0000
,
0010
0001
0010
0000
0100
0000
1000
0000
0001
0000
0010
0000
0102
0000
0013
0000
,
0100
0010
0100
0000
0010
0000
0001
0000
0010
0000
0100
0000
2001
0000
3100
0000
,
0010
0000
0100
0000
1000
0000
0001
0000
2100
0000
0000
0000
3001
0100
0010
0000
,
0110
0100
0001
1000
0011
1000
0210
0310
,
0100
0001
1000
0000
0021
0000
0230
0000
2300
0000
3001
0010
0002
0000
0000
0000
,
0200
0000
0303
0000
0010
1000
0100
0000
0010
0000
0001
0100
0001
0010
0100
1000
,
0001
0000
1000
0100
1000
0000
0001
0010
0100
1000
0100
0010
0100
0000
0001
0010
,
0100
0000
0001
0100
0001
0010
0100
0010
0001
0000
1000
0000
0110
0000
0110
0000
,
0100
1000
0010
0100
0001
1000
0100
0010
0100
1000
0001
0000
1100
0000
0110
0000
,
0010
0100
1000
0001
0100
0001
1000
0100
0010
0000
0001
0000
0011
0000
1001
0000
,
0100
1000
0100
0000
0001
0000
0110
0000
0000
0000
0000
0000
0001
1000
0100
0000
,
0010
0001
0001
1000
0100
0010
0110
1001
,
0001
0100
0010
0000
1000
0000
0110
0000
0000
0000
0010
0000
0100
0001
1000
0000
,
0110
0000
0010
0000
0100
0000
0001
0000
1000
0100
1000
0000
0001
0010
0001
0000
,
1000
0010
1000
0000
0001
0100
0001
0000
1000
0010
1000
0000
1000
0001
1000
0000
,
1000
0100
1000
0000
0001
0010
0001
0000
0001
1000
0001
0000
0001
0100
0001
0000
,
0100
0010
0100
0000
0100
1000
0100
0000
0100
0001
0100
0000
0010
1000
0001
0000
,
0010
0001
0010
0000
0010
0100
0010
0000
0010
1000
0010
0000
0010
0001
1000
0100
,
0010
0000
0001
0000
0100
0000
0010
0000
1000
0000
0100
0000
0010
0001
0100
0000
,
0010
1000
0100
0000
0010
0001
0100
0000
0100
0001
0010
0000
0100
1000
0010
0000
,
0010
1000
0100
0000
0110
0000
0011
0000
0100
0000
0001
0000
1000
0000
0100
0000
,
0220
0300
0000
0002
,
0003
0000
0000
0002
,
0003
0000
0000
0002
,
0003
0000
0000
0000
0000
0000
2000
3030
,
0010
0000
0001
0000
1100
0000
0010
0001
0000
0001
0010
0000
1100
0000
1000
0000
,
0100
0000
1000
0000
0110
0000
0001
0100
0000
0100
0001
0000
1100
0000
1000
0001
,
1000
0000
0100
0000
0011
0000
1000
0100
0000
0100
1000
0000
0110
0000
0001
0100
,
0010
0000
1000
0000
0110
0000
0001
1000
0010
0100
0010
0000
1100
0000
0101
0000
,
0001
0010
0001
0000
0110
0000
0010
0100
0000
0100
0010
0000
1100
0000
0010
0000
,
0100
0000
1000
0000
1010
0000
0001
0010
0000
0010
0001
0000
0110
0000
0001
0000
,
0100
0000
0001
0000
1010
0000
0001
1000
0100
1000
0001
0000
0011
0000
1000
0000
,
0100
0000
1000
0000
0110
0000
0010
1000
0100
1000
0010
0000
0110
0000
0101
0000
,
0001
0000
1000
0000
0101
0000
0001
0100
0000
0100
0001
0000
1100
0000
1000
0000
,
0100
0000
1000
0000
0110
0000
0001
0100
0000
0100
0001
0000
1100
0000
1000
0000
,
0100
0000
1000
0000
1001
0000
0001
1000
0001
1000
0001
0000
0110
0000
0001
0000
,
1000
0100
1000
0000
0110
0000
0001
1000
0000
0001
1000
0000
0011
0000
0011
0000
,
0100
0000
1000
0000
0110
0000
0001
0100
0000
0001
0010
0000
1001
0000
1000
0000
,
0100
0000
1000
0000
0110
0000
0001
1000
0010
0100
0001
0000
1100
0000
1000
0000
,
0100
0000
1000
0000
0110
0000
0001
1000
0000
1000
0010
0000
1100
0000
1000
0000
,
0100
0000
1000
0000
0110
0000
0010
1000
0010
1000
0001
0000
0202
0000
0303
0000
,
0010
0100
0010
0100
0010
0100
0010
0100
0010
0100
0010
0100
0010
0100
0010
0100
,
0010
0100
0010
0100
0010
0100
0010
0100
0010
0100
0010
0100
0010
0100
0010
0100
,
0010
0100
0010
0100
0010
0100
0010
0100
0010
0100
0010
0100
0010
0100
0010
0000
;
