#TITLE:Burning Krypt;
#SUBTITLE:;
#ARTIST:Legit, 2wice&4Tray;
#TITLETRANSLIT:;
#SUBTITLETRANSLIT:;
#ARTISTTRANSLIT:;
#CREDIT:;
#BANNER:Burning Krypt.png;
#BACKGROUND:Burning Krypt-bg.png;
#LYRICSPATH:;
#CDTITLE:NVLM-cdtitle.png;
#MUSIC:Burning Krypt.mp3;
#OFFSET:-10.119;
#SAMPLESTART:9.832;
#SAMPLELENGTH:12.000;
#SELECTABLE:YES;
#DISPLAYBPM:96.000;
#BPMS:0.000=95.900;
#STOPS:;
#BGCHANGES:;
// cache tags:
#FIRSTBEAT:0.000;
#LASTBEAT:137.000;
#SONGFILENAME:Songs/toune 8/Burning Krypt/Burning Krypt.sm;
#HASMUSIC:1;
#HASBANNER:1;
#MUSICLENGTH:95.843;
// end cache tags

//---------------dance-single - ----------------
#NOTES:
     dance-single:
     :
     Hard:
     8:
     0.522,0.518,0.730,0.073,0.303,273.000,70.000,7.000,0.000,0.000:  // measure 1
0011
0100
1001
0000
1100
0010
1001
0000
,  // measure 2
1001
0010
1100
0000
1001
0100
0011
0000
,  // measure 3
1100
0001
0110
0000
0011
1000
0110
0000
,  // measure 4
1010
0100
1001
0000
0101
0010
1001
0000
,  // measure 5
0010
0000
0100
0010
0100
0000
0000
0000
0001
1000
0000
0001
1000
0000
0000
0000
,  // measure 6
0100
0100
0100
0000
1001
1001
1001
0000
,  // measure 7
0010
0100
0010
0100
,  // measure 8
1000
0100
0001
0000
0001
0100
1000
0000
,  // measure 9
0010
0100
0001
1000
,  // measure 10
0001
1000
0100
0010
,  // measure 11
0001
0001
0001
0000
1001
0000
0000
0000
1000
1000
1000
0000
1001
0000
0000
0000
,  // measure 12
0100
0100
0100
0000
0110
0000
0000
0000
1001
0000
0110
0000
1001
0000
0110
0000
,  // measure 13
1001
0000
0100
0001
0100
1000
1001
0000
,  // measure 14
0100
0010
0100
0000
0001
1000
0100
0000
0010
0001
0010
0000
0001
1000
0010
0000
,  // measure 15
0100
0001
0100
0001
0100
0002
0000
0000
1003
0010
1000
0010
1000
0020
0000
0000
,  // measure 16
0130
0000
0000
0100
0000
0000
0001
0000
1100
0000
0110
0000
0011
0000
0000
0000
,  // measure 17
1000
1000
0001
0001
0010
0010
0100
0100
1000
0001
1000
0001
0010
0100
0010
0100
,  // measure 18
1000
0000
1000
0100
0001
0000
0001
0100
1000
0000
0010
0000
0110
0000
0000
0000
,  // measure 19
0010
1000
0000
0000
1100
0000
0000
0000
0100
0001
0000
0000
1001
0000
0000
0000
,  // measure 20
0001
0110
1000
0000
1100
0110
1001
1100
,  // measure 21
0011
0110
1100
0000
1010
1100
1001
0000
,  // measure 22
0110
0010
0010
0000
1001
0000
0000
0000
1010
0000
0110
0000
0101
0000
0000
0000
,  // measure 23
1100
1001
0011
0000
0110
0101
0011
0000
,  // measure 24
1100
0100
0100
0000
1001
0000
0000
0000
1100
0000
0011
0000
0110
0000
0000
0000
,  // measure 25
1001
0000
0110
0000
1100
0000
0000
0000
0001
0001
1000
1000
1001
0000
0000
0000
,  // measure 26
0100
0100
0010
0000
1001
0000
0000
0000
0001
0010
0100
1000
1100
0000
0000
0000
,  // measure 27
1000
0100
0001
0100
1000
0200
0300
0000
0001
0100
1000
0100
0001
0200
0300
0000
,  // measure 28
1000
0010
0001
0010
1000
0010
0001
0000
0100
0010
1000
0001
0100
0020
0000
0000
,  // measure 29
0130
0000
0010
0000
1000
0000
0001
0000
0010
0100
0010
0100
0010
0000
0100
0000
,  // measure 30
1000
0001
0100
0010
1010
0100
1001
0010
,  // measure 31
0001
0000
0100
0000
0010
0000
1000
0000
0100
0001
0100
0001
0100
0000
1000
0000
,  // measure 32
0010
0000
0100
0000
0001
0000
0010
0000
0100
1000
0100
1000
0100
0000
1000
0000
,  // measure 33
0001
0000
0100
0000
0010
0000
1000
0000
0100
0010
0100
0010
0100
0000
0010
0000
,  // measure 34
0001
0000
0100
0000
0010
0000
0010
0000
1000
0001
1000
0001
1000
0000
0100
0000
,  // measure 35
0022
0033
0000
0000
;

//---------------dance-single - ----------------
#NOTES:
     dance-single:
     :
     Edit:
     13:
     1.000,0.837,1.000,0.543,1.000,505.000,165.000,52.000,0.000,9.000:  // measure 1
1100
1000
0001
0100
0202
0000
0303
1000
1010
0100
0001
0010
0220
0000
0330
0001
,  // measure 2
1001
1000
0100
0010
0022
0000
0033
0100
1001
0001
0010
0100
1200
1000
1301
0010
,  // measure 3
0101
0100
0010
1000
2200
0000
3300
0010
0101
0001
0010
0100
1200
1000
1310
0000
,  // measure 4
0110
0100
0001
1000
2200
0000
3300
0001
1001
1000
0100
0010
1020
0001
1031
1000
,  // measure 5
0101
0010
0100
0001
1002
0000
0013
0100
1000
0001
0110
0001
0101
0000
1001
1000
,  // measure 6
1100
0000
0010
0000
0001
0000
0100
0000
0010
1000
0010
1000
0100
0000
0010
0000
0001
0000
0100
0000
1000
0000
0100
0000
0011
0000
2002
0000
3003
0000
0000
0000
,  // measure 7
1000
0100
0010
0000
0001
0010
0100
0000
2200
0000
0000
0000
3300
0000
0000
0000
0001
0010
0100
0000
1000
0100
0010
0000
0022
0000
0000
0000
0033
0000
0000
0000
,  // measure 8
1001
1001
1001
1001
2002
0000
3003
0000
0110
0110
0110
0110
0220
0000
0330
0001
,  // measure 9
1001
0100
0010
0001
0100
0010
1000
0100
0010
0001
0100
0010
1001
2002
3003
0000
,  // measure 10
1001
0010
0100
1000
0010
0100
0001
0010
0100
1000
0010
0100
1001
2002
3003
0000
,  // measure 11
0110
0000
1000
0000
0110
0000
0001
0000
1001
0000
0100
0000
1001
0000
0010
0000
0100
0000
1000
0000
0001
0000
0100
0000
0110
0000
0000
0000
0020
0001
0030
0000
,  // measure 12
1000
0100
1000
0100
0010
0000
0001
0000
0100
0000
0010
0000
1000
0100
1000
0000
0001
0010
0001
0000
0110
0000
1000
0000
0110
0000
0001
0000
1001
0000
0000
0000
,  // measure 13
1100
0001
1100
0010
1100
0001
1100
0010
1100
0000
1001
0101
0101
0010
0110
0000
,  // measure 14
0011
1000
0011
0100
0011
1000
0011
0100
0011
0000
1001
1010
1010
0100
0110
0000
,  // measure 15
1000
0001
1000
0001
1000
0000
0100
0000
0010
0000
1001
0000
0100
0000
0010
0000
0001
1000
0001
1000
0001
0000
0010
0000
0100
0000
1001
0000
0010
0000
1000
0000
,  // measure 16
0110
0100
0001
1000
0100
0010
0001
1000
0110
0110
0110
0001
1000
2200
3300
0000
,  // measure 17
1001
0100
0010
0001
1001
0010
0100
1000
1001
0100
0010
0001
1001
0010
0100
1100
,  // measure 18
1001
0001
0101
0100
0110
0010
1010
1000
1100
0100
0110
0010
0011
0001
1001
1000
,  // measure 19
1100
1100
0001
0100
0010
1000
0010
1000
1100
0202
0303
0000
0010
0100
0001
1001
,  // measure 20
1100
0001
0100
0010
1001
0010
0100
1000
1100
0001
0100
0010
1001
0110
1001
1001
,  // measure 21
1100
0010
0001
1000
2010
0010
3000
0001
0101
0010
1000
0100
1002
1000
0003
0010
,  // measure 22
0011
0100
1000
0001
1002
1000
0003
0100
0011
0001
0100
0010
1002
1000
1103
0000
,  // measure 23
0110
1000
0001
0010
2001
0001
3000
0100
1100
0010
0001
1000
2010
0100
3101
0000
,  // measure 24
0011
0001
0100
0010
1002
1000
0003
0010
0101
1000
0100
0010
2001
0001
3100
0010
,  // measure 25
1001
0010
0100
1000
2010
0010
3000
0100
1001
0100
0010
0001
0102
0100
0003
0010
,  // measure 26
1001
0100
0010
1000
2100
0100
3000
0001
0110
1000
0100
0010
1002
1000
0113
0000
,  // measure 27
1100
0001
0010
0100
1020
1000
0030
0001
1001
0100
0010
0001
0012
0100
1103
0000
,  // measure 28
1010
0001
0100
0010
1002
1000
1103
0000
0110
1000
0100
0010
1001
0100
1001
0010
,  // measure 29
1001
0100
0010
1000
0010
0001
0100
1000
0110
0010
1000
0010
1001
0010
1100
0001
,  // measure 30
1001
0100
1000
0010
0100
1000
0100
0001
0011
0100
1001
0100
1001
0010
1001
0010
,  // measure 31
0110
1000
0100
0010
0001
0100
1000
0100
1001
0010
0110
1000
0010
0100
0001
1000
,  // measure 32
1100
0001
0100
0010
1000
0010
0001
0100
1001
0100
0110
1000
0001
0010
0100
1000
,  // measure 33
1001
0100
0010
0001
1000
0100
0010
0001
0101
1000
1100
0001
0010
0100
1000
0010
,  // measure 34
0101
1000
0100
0010
1001
0100
1000
0100
0110
1000
1001
0010
0110
1000
0010
0100
,  // measure 35
2222
3333
0000
0000
0000
0000
0000
0000
;

//---------------dance-single - ----------------
#NOTES:
     dance-single:
     :
     Challenge:
     10:
     0.736,0.590,0.835,0.376,0.746,378.000,80.000,36.000,0.000,0.000:  // measure 1
1000
0100
0010
0001
0022
0000
0033
0000
0001
0010
0100
1000
2200
0000
3300
0000
,  // measure 2
0010
0100
0001
1000
0220
0000
0330
0000
0100
0010
1000
0001
0220
0000
0330
0000
,  // measure 3
1000
0010
0100
0001
2002
0000
3003
0000
0001
0100
0010
1000
2002
0000
3003
0000
,  // measure 4
0010
0100
0001
1000
2002
0000
3003
0000
0100
0010
1000
0001
2002
0000
3003
0000
,  // measure 5
0010
0100
0001
0010
1002
0000
0100
0000
0103
0100
0000
0010
1001
0000
0000
0000
,  // measure 6
1100
0101
1100
0101
0011
1010
0011
1010
,  // measure 7
0110
0000
0001
1000
1100
0000
0110
0000
0010
0001
0010
0100
1000
0000
0010
0010
,  // measure 8
1000
0100
0001
0100
1000
0100
0001
0100
1000
0100
0010
0001
1000
0100
0010
0001
,  // measure 9
1001
1001
0000
0000
0110
0000
1100
0000
0011
0000
1100
0000
0022
0000
0033
0000
,  // measure 10
0101
0000
1010
0110
1001
0110
2002
3003
,  // measure 11
0001
0001
0001
1000
1001
0000
0110
0000
1000
1000
1000
0001
1001
0000
0110
0000
,  // measure 12
0100
0100
0100
0010
0110
0000
0000
0000
1001
0000
0110
0000
1001
0000
0110
0000
,  // measure 13
1001
0000
0000
1000
0100
0010
0001
0000
0100
0000
1000
0000
1001
0000
0000
0000
,  // measure 14
0100
0010
1000
0000
0001
0010
0100
0000
1000
0001
0010
0000
0100
1000
0001
0000
,  // measure 15
0100
1000
0100
0001
0100
0020
0000
0000
1030
0100
1000
0001
1000
0020
0000
0000
,  // measure 16
0130
1000
0000
1100
0000
0000
1001
0000
1100
0000
0101
0000
0011
0100
0000
0000
,  // measure 17
1000
0100
0001
0100
0010
0001
0100
0010
1000
0100
1000
0001
0010
0100
1000
0010
,  // measure 18
0110
0000
1000
0100
0001
0010
0001
0100
1000
0100
0010
0001
0220
0000
0330
0000
,  // measure 19
0010
1000
0100
0000
1100
0000
0000
0000
0100
0001
0010
0000
1001
0000
0000
0000
,  // measure 20
0011
0110
1001
0110
1100
0110
1001
1100
,  // measure 21
0001
0010
0100
1000
2200
0000
3300
0000
0010
0100
0001
0010
2200
0000
3300
0000
,  // measure 22
0100
0001
0010
0100
2002
0000
3003
0000
1000
0100
0010
0001
0202
0000
0303
0000
,  // measure 23
1000
0100
1000
0001
0011
0000
0000
0000
0100
1000
0100
0001
0011
0000
0000
0000
,  // measure 24
0100
1000
0010
0100
1001
0000
0000
0000
1000
0001
0100
0010
1001
0000
0000
0000
,  // measure 25
0100
0010
0001
0100
1100
0000
0000
0000
0001
0010
1000
0100
1001
0000
0000
0000
,  // measure 26
0100
1000
0010
0100
1001
0000
0000
0000
0001
0100
0010
1000
1100
0000
0000
0000
,  // measure 27
1000
0100
0010
0001
1001
0100
0010
0000
0001
0010
0100
1000
1001
0010
0100
0000
,  // measure 28
0100
0001
0100
0010
1000
0000
1100
0000
0001
1000
0001
0100
0020
0000
0000
0000
,  // measure 29
1030
0100
1000
0001
0100
0001
0010
0100
1000
1000
0100
0010
0001
1000
0010
0000
,  // measure 30
0100
0001
0010
0001
0010
0100
1000
0001
0101
0000
0010
0000
1100
0000
0001
0000
,  // measure 31
0010
0100
1000
0100
0010
0001
0100
1000
0100
0001
0010
0100
1000
0010
0100
0000
,  // measure 32
0001
0001
1000
0100
0001
0100
0010
0001
1000
0010
1000
0100
0010
0001
0100
0000
,  // measure 33
0001
0100
1000
0100
0010
1000
0010
1000
0010
0100
0001
0010
0100
1000
0001
0000
,  // measure 34
0100
0001
0100
0010
1000
0100
1000
0001
0010
0100
1000
1000
0100
0010
0001
0100
,  // measure 35
2020
3030
0000
0000
;

//---------------dance-single - ----------------
#NOTES:
     dance-single:
     :
     Easy:
     1:
     0.075,0.106,0.063,0.000,0.000,44.000,6.000,0.000,0.000,0.000:  // measure 1
1000
0000
1000
0000
,  // measure 2
0010
0000
0010
0000
,  // measure 3
0100
0000
0100
0000
,  // measure 4
0001
0000
0001
0000
,  // measure 5
0110
0000
0000
0000
,  // measure 6
0000
0000
0000
0000
,  // measure 7
1010
0000
0000
0000
,  // measure 8
0000
0000
0000
0000
,  // measure 9
1001
0000
0000
0000
,  // measure 10
0100
0000
0000
0000
,  // measure 11
0110
0000
0000
0000
,  // measure 12
0000
0000
0000
0000
,  // measure 13
1001
0000
0000
0000
,  // measure 14
0010
0000
0000
0000
,  // measure 15
0010
0000
0000
0000
,  // measure 16
1000
0000
0000
0000
,  // measure 17
0001
0000
0000
0000
,  // measure 18
0001
0000
0000
0000
,  // measure 19
0100
0000
0000
0000
,  // measure 20
0100
0000
0000
0000
,  // measure 21
0010
0000
0010
0000
,  // measure 22
0100
0000
0100
0000
,  // measure 23
0001
0000
0001
0000
,  // measure 24
1000
0000
1000
0000
,  // measure 25
0100
0000
0100
0000
,  // measure 26
0010
0000
0010
0000
,  // measure 27
0001
0000
0001
0000
,  // measure 28
0100
0000
0010
0000
,  // measure 29
1000
0000
0000
0000
,  // measure 30
0001
0000
0000
0000
,  // measure 31
0010
0000
0000
0000
,  // measure 32
0100
0000
0000
0000
,  // measure 33
0100
0000
0000
0000
,  // measure 34
0010
0000
0000
0000
,  // measure 35
1001
0000
0000
0000
;

//---------------dance-double - ----------------
#NOTES:
     dance-double:
     :
     Hard:
     9:
     0.653,0.608,0.605,0.532,0.532,329.000,58.000,51.000,0.000,0.000:  // measure 1
10000000
01000000
00220000
00330000
00001000
00010000
00002020
00003030
,  // measure 2
00000001
00000100
00022000
00033000
00100000
01000000
20020000
30030000
,  // measure 3
10000000
00100000
02020000
03030000
00001000
00010000
00200200
00300300
,  // measure 4
01000000
00010000
00002200
00003300
00000010
00000100
00022000
00033000
,  // measure 5
00100000
00000000
01000000
10000000
10000000
00000000
00010000
00000000
00100000
00000000
00001000
00000000
00010000
00000000
00000000
00000000
,  // measure 6
00110000
00101000
00110000
00101000
00011000
00010100
00011000
00010100
,  // measure 7
00001010
00000000
00000010
00000100
00000100
00000000
00000001
00000000
00000100
00000000
00001000
00000000
00010000
00000000
00100000
00000000
,  // measure 8
01000000
00000000
10000000
00000000
00010000
01000000
00010000
01000000
00010000
00000000
00100000
00000000
00001000
00000000
00010000
00000000
,  // measure 9
00001100
00000000
00000011
00000000
00001100
00011000
00220000
00330000
,  // measure 10
11000000
00000000
11000000
10010000
01010000
01100000
00202000
00303000
,  // measure 11
00010000
00000100
00010000
00001000
00010000
00010000
00000000
00000000
00000010
00001000
00000010
00000100
00000010
00000010
00000000
00000000
,  // measure 12
00000001
00001000
00000100
00001000
00000100
00010000
00000000
00000000
10010000
00000000
01100000
00000000
10010000
00000000
01100000
00000000
,  // measure 13
10010000
00000000
00000000
10000000
01000000
00100000
00010000
00001000
00000100
00000010
00000001
00000000
00001001
00000000
00000000
00000000
,  // measure 14
00001001
00000000
00000000
00000001
00000010
00000100
00001000
00010000
00100000
01000000
10000000
00000000
10010000
00000000
00000000
00000000
,  // measure 15
01000000
00001000
01000000
00001000
00020000
00000000
00000000
00000000
00030010
00001000
00000100
00001000
00020000
00000000
00000000
00000000
,  // measure 16
00130000
00000000
00000000
01000000
00000000
00000000
01010000
00000000
10010000
00000000
01000000
00000000
00100000
00000000
00010000
00000000
,  // measure 17
00001000
00000100
00000100
00000000
00000010
00000001
00000001
00000000
00001000
00000100
00000100
00000000
00010000
00001000
00001000
00000000
,  // measure 18
01000000
00100000
00100000
00000000
10000000
00010000
00010000
00000000
00100000
01000000
01000000
00000000
10010000
00000000
00000000
00000000
,  // measure 19
10000000
00100000
01000000
00001000
,  // measure 20
11000000
01100000
00110000
00011000
00001100
00000110
00000011
00000110
,  // measure 21
00000100
00001000
00010000
00000000
00022000
00000000
00033000
00000000
00100000
01000000
10000000
00000000
20020000
00000000
30030000
00000000
,  // measure 22
01000000
00100000
00010000
00000000
00002200
00000000
00003300
00000000
00000010
00000001
00001000
00000000
00020200
00000000
00030300
00000000
,  // measure 23
01000000
00010000
00100000
00010000
00200000
00000000
00300000
00000000
00001000
00010000
00000100
00010000
00000200
00000000
00000300
00000000
,  // measure 24
00000010
00001000
00000100
00000000
00002200
00000000
00003300
00000000
00010000
00001000
00100000
00000000
00220000
00000000
00330000
00000000
,  // measure 25
01000000
10000000
01000000
00100000
00020000
00000000
00030000
00000000
00001000
00000100
00000010
00000000
00000022
00000000
00000033
00000000
,  // measure 26
00000100
00001000
00001000
00000000
00220000
00000000
00330000
00000000
01000000
00100000
10000000
00001000
00020000
00002000
00033000
00000000
,  // measure 27
00000100
00001000
00000010
00000100
00000101
00000000
00000000
00000000
00001000
00000100
00001000
00000100
00002000
00000200
00003300
00000000
,  // measure 28
00010000
00001000
00010000
00000000
00022000
00000000
00033000
00000000
00100000
01000000
00100000
01000000
20000000
00020000
30030000
00000000
,  // measure 29
00100000
01000000
00001000
00010000
00000100
00010000
00000100
00000000
00001000
00000010
00000100
00000001
00000010
00000100
00001000
00000000
,  // measure 30
00000010
00010000
00001000
00100000
01000000
10000000
00010000
01000000
00100000
10000000
01000000
10000000
00010000
00100000
00001000
00000000
,  // measure 31
00010000
00000100
00000010
00000001
00000010
00000100
00001000
00000010
00010000
00001000
00100000
01000000
10000000
00010000
01000000
00000000
,  // measure 32
00100000
01000000
00001000
00010000
00000010
00000100
00000001
00000010
00000100
00001000
00000010
00010000
00001000
00100000
01000000
00000000
,  // measure 33
10000000
01000000
00100000
00001000
00010000
00000100
00001000
00000010
00000100
00000001
00000100
00001000
00000100
00000001
00001000
00000010
,  // measure 34
00010000
00001000
00100000
01000000
10000000
00010000
01000000
00001000
00010000
00000010
00000100
00000001
00000010
00000100
00001000
00010000
,  // measure 35
02200000
03300000
00000000
00000000
;

//---------------dance-double - ----------------
#NOTES:
     dance-double:
     :
     Challenge:
     11:
     0.879,0.697,1.000,0.563,0.949,439.000,97.000,54.000,0.000,22.000:  // measure 1
10010000
01000000
00100000
00010000
00220000
00000000
01330000
00000000
00001000
00010000
00000100
00001000
00002020
00000000
00003130
00000000
,  // measure 2
00000001
00000010
00000100
00001000
00022000
00000000
00133000
00000000
00100000
00010000
01000000
00100000
20020000
00000000
31030000
00000000
,  // measure 3
10000000
01000000
00100000
00010000
02020000
00000000
03130000
00000000
00001000
00000100
00010000
00001000
00200200
00000000
00310300
00000000
,  // measure 4
01000000
00100000
00010000
00001000
00002200
00000000
00003310
00000000
00000010
00001000
00000100
00010000
00022000
00000000
00133000
00000000
,  // measure 5
00101000
00010000
01000000
00100000
10000000
01000000
00010000
01000000
00100000
00010000
00001000
00000100
00022000
00000000
00033000
00000000
,  // measure 6
00110000
00100000
00101000
00000000
00110000
00100000
00101000
00000000
00011000
00010000
00010100
00000000
00011000
00010000
00010100
00000000
,  // measure 7
00001010
00001000
00000010
00000100
00000100
00000010
00000001
00000010
00000100
00000000
00001000
00000100
00010000
00001000
00100000
00010000
,  // measure 8
01000000
00100000
10000000
01000000
00010000
01000000
00010000
01000000
10010000
00000000
00100000
01000000
00001000
00100000
00010000
00000000
,  // measure 9
00001100
00001100
00000000
00000000
00000011
00000011
00000000
00000011
00001100
00000000
00011000
00000000
00110000
01100000
00000000
00000000
,  // measure 10
11000000
11000000
00000000
00110000
11000000
00000000
10010000
00000000
01010000
01000000
01100000
00000000
00202000
00000000
00303000
00000000
,  // measure 11
00010000
00000100
00010000
00001000
00010000
00001000
00001100
00000000
00000010
00001000
00000010
00000100
00000010
00000100
00000101
00000000
,  // measure 12
00000001
00001000
00000100
00010000
00000100
00011000
00000000
00000000
10010000
00000000
01100000
00000000
10010000
00000000
01100000
00000000
,  // measure 13
10010000
00000000
01100000
10000000
01000000
00100000
00010000
00001000
00000100
00000010
00000001
00000100
00001001
00000020
00000030
00000000
,  // measure 14
00001001
00000000
00000110
00000001
00000010
00000100
00001000
00010000
00100000
01000000
10000000
00100000
10010000
02000000
03000000
00000000
,  // measure 15
01010000
00001000
00100000
00001000
00020000
00000100
00000100
00000000
00030010
00001000
00000100
00001000
00020000
00000010
00000010
00000000
,  // measure 16
00031000
01000000
00000000
01001000
00000000
00100000
01010000
00000000
10010000
00000000
11000000
00000000
01100000
00000000
00110000
00000000
,  // measure 17
00011000
00000100
00000100
00000100
00000010
00000001
00000001
00000001
00001000
00000100
00000100
00000100
00010000
00001000
00001000
00001000
,  // measure 18
01000000
00100000
00100000
00100000
10000000
00010000
00010000
00010000
00100000
01000000
01000000
01000000
10010000
10010000
00000000
00000000
,  // measure 19
10000000
01000000
00000000
01000000
00100000
00010000
00000000
00010000
01000000
00100000
00000000
00100000
00001000
10000000
00000000
10000000
,  // measure 20
11000000
01100000
00110000
00011000
00001100
00000110
00000011
00000110
,  // measure 21
00001100
00001000
00010000
00100000
00022000
00000000
00133000
00000000
00100000
01000000
10000000
00010000
20020000
00000000
31030000
00000000
,  // measure 22
01000000
00100000
00010000
00001000
00002200
00000000
00003310
00000000
00000010
00000001
00001000
00000010
00020200
00000000
00031300
00000000
,  // measure 23
01000000
00010000
00100000
00010000
00202000
00000000
01303000
00000000
00001000
00010000
00000100
00010000
00002002
00000000
00003103
00000000
,  // measure 24
00000010
00001000
00000100
00000001
00002200
00000000
00003310
00000000
00010000
00001000
00100000
00010000
00220000
00000000
10330000
00000000
,  // measure 25
01000000
10000000
01000000
00100000
00022000
00000000
00133000
00000000
00001000
00000100
00000010
00000001
00000022
00000000
00000133
00000000
,  // measure 26
00000100
00001000
00001000
00010000
00220000
00000000
01330000
00000000
01000000
00100000
10000000
00001000
00022000
00000000
00033100
00000000
,  // measure 27
00000100
00001000
00000010
00000100
00000202
00000000
00000313
00000000
00001000
00000100
00001000
00000100
00001000
00000010
00000100
00001000
,  // measure 28
00010000
00100000
00010000
00001000
00022000
00000000
00133000
00000000
00100000
01000000
00100000
01000000
10000000
00010000
00010000
10000000
,  // measure 29
01100000
01000000
00001000
00010000
00000100
00001000
00000100
00010000
00011000
00000010
00000100
00000001
00000010
00000100
00001000
00000000
,  // measure 30
00001010
00010000
00001000
00100000
01000000
10000000
00010000
01000000
00110000
10000000
01000000
10000000
00010000
00100000
00001000
00010000
,  // measure 31
00011000
00000100
00000010
00000001
00000010
00000100
00001000
00000010
00010100
00001000
00100000
01000000
10000000
00010000
01000000
10000000
,  // measure 32
10100000
01000000
00001000
00010000
00000010
00000100
00000001
00000010
00001100
00001000
00000010
00010000
00001000
00100000
01000000
10000000
,  // measure 33
10010000
01000000
00100000
00001000
00010000
00000100
00001000
00000010
00000110
00000001
00000100
00001000
00000100
00000001
00001000
00000010
,  // measure 34
00010100
00001000
00100000
01000000
10000000
00010000
01000000
00001000
00011000
00000010
00000100
00000001
00000010
00000100
00001000
00010000
,  // measure 35
02200000
03300000
00000000
00000000
;

//---------------dance-single - ----------------
#NOTES:
     dance-single:
     :
     Medium:
     6:
     0.407,0.447,0.470,0.063,0.141,222.000,45.000,6.000,0.000,0.000:  // measure 1
0010
0100
1001
0000
0100
0010
1001
0000
,  // measure 2
0001
1000
0110
0000
1000
0001
0110
0000
,  // measure 3
1000
0100
0011
0000
0001
0010
1100
0000
,  // measure 4
1000
0010
0101
0000
0001
0100
1010
0000
,  // measure 5
0200
0001
0300
0100
,  // measure 6
0020
1000
0030
0010
,  // measure 7
0001
0000
0000
0000
0100
0000
0000
0000
1000
0001
1000
0001
1000
0000
0000
0000
,  // measure 8
0100
0000
0000
0000
0010
0000
0000
0000
0001
1000
0001
1000
0001
0000
0000
0000
,  // measure 9
2000
0010
3000
1000
,  // measure 10
0002
0100
0003
0001
,  // measure 11
1000
0000
0000
0000
0010
0000
0000
0000
0100
0001
0100
0001
0100
0000
0000
0000
,  // measure 12
0001
0000
0000
0000
0010
0000
0000
0000
0100
1000
0100
1000
0100
0000
0000
0000
,  // measure 13
0011
0000
0110
0000
1000
0100
0001
0100
,  // measure 14
0110
0000
0011
0000
1000
0001
0010
0001
,  // measure 15
0101
0000
0110
0000
1000
0001
1000
0100
,  // measure 16
0110
0000
0000
0000
0001
0000
0000
0000
0100
0010
0100
0010
0100
0010
0000
0000
,  // measure 17
1000
0100
1000
0100
1000
0100
0000
0000
0010
0001
0010
0001
0010
0001
0000
0000
,  // measure 18
0001
1000
0001
1000
0001
1000
0000
0000
1000
0010
1000
0010
1000
0010
0000
0000
,  // measure 19
0010
0100
0001
1000
,  // measure 20
0110
0110
0110
0110
1001
1001
1001
1001
,  // measure 21
1000
0100
0011
0000
0001
0010
1100
0000
,  // measure 22
0010
0100
1001
0000
0100
0001
1010
0000
,  // measure 23
0010
0001
1100
0000
0010
0100
1001
0000
,  // measure 24
1000
0010
1100
0000
0001
0100
0011
0000
,  // measure 25
0100
0001
1001
0000
0010
0100
1100
0000
,  // measure 26
1000
0001
0011
0000
0100
0001
0011
0000
,  // measure 27
0100
1000
1010
0000
0100
0001
1001
0000
,  // measure 28
0100
0010
0100
0010
0100
0000
0000
0000
0001
1000
0001
1000
0001
0000
0000
0000
,  // measure 29
1000
0100
0010
0001
1000
1000
1001
0000
,  // measure 30
0001
0010
0100
1000
0001
0001
0101
0000
,  // measure 31
0100
0010
1000
0100
0010
0010
0011
0000
,  // measure 32
0001
0100
0010
1000
0100
0100
0110
0000
,  // measure 33
0001
1000
0100
0001
0100
0100
1100
0000
,  // measure 34
0010
1000
0001
0010
0100
0100
0101
1100
,  // measure 35
2002
3003
0000
0000
;
