#TITLE:U.N. Owen Was Her;
#SUBTITLE:Steps by StepmaniaFreak;
#ARTIST:Unknown Artist;
#TITLETRANSLIT:;
#SUBTITLETRANSLIT:;
#ARTISTTRANSLIT:;
#CREDIT:;
#BANNER:bn.png;
#BACKGROUND:bg.png;
#LYRICSPATH:;
#CDTITLE:!StepmaniaFreak Title.png;
#MUSIC:Owen Was Her.mp3;
#OFFSET:-0.220;
#SAMPLESTART:23.997;
#SAMPLELENGTH:11.960;
#SELECTABLE:YES;
#DISPLAYBPM:157.000;
#BPMS:0.000=157.040,128.000=79.500,132.000=78.500,142.000=78.000,144.000=158.000,160.000=157.000,208.000=157.500,240.000=157.000,336.000=126.000,348.000=125.500,352.000=125.000,360.000=126.000,364.000=124.000,364.313=123.800,364.625=123.600,364.938=123.400,365.250=122.200,365.563=122.000,365.875=121.800,366.188=121.000;
#STOPS:;
#BGCHANGES:;
// cache tags:
#FIRSTBEAT:0.000;
#LASTBEAT:367.375;
#SONGFILENAME:Songs/StepmaniaFreak's Favorites/Owen Was Her/Owen Was Her.sm;
#HASMUSIC:1;
#HASBANNER:1;
#MUSICLENGTH:155.350;
// end cache tags

//---------------dance-single - ----------------
#NOTES:
     dance-single:
     :
     Challenge:
     12:
     1.000,1.000,1.000,0.032,1.000,1064.000,347.000,5.000,0.000,3.000:
1000
0010
0100
0001
,
1000
0100
0010
0000
,
0001
0100
0010
1000
,
0001
0010
0100
0000
,
1100
0110
0011
1001
,
1010
1100
0101
0000
,
0011
0110
1100
1001
,
0101
0011
1010
0000
,
1010
0100
0010
0000
0110
0001
0100
0010
,
0101
1000
0001
0100
1001
0010
1000
0000
,
1010
0001
0010
0000
0110
1000
0010
0100
,
1010
0001
1000
0010
1001
0100
0001
0000
,
0011
0011
0011
0011
0101
0101
0101
0101
,
1001
1001
1001
1001
1010
1010
1010
0000
,
1100
0010
1100
0010
1100
0010
1100
0010
1010
0001
1010
0001
1010
0001
1010
0001
,
1100
0000
0001
0000
1100
0000
0001
0000
1100
0000
0001
0000
1100
0000
0001
0000
0100
0000
0001
0010
0100
1000
0001
0010
0100
1000
0001
0010
0100
1000
0001
0010
,
1100
1001
0110
1100
,
0011
0000
0110
0101
0110
0000
1001
0000
,
1010
0000
0000
0000
0110
0000
0011
0000
0101
0000
1010
0101
1010
0000
0100
0000
,
0011
0000
1000
0000
1010
0000
0010
0000
1001
0000
0000
1010
0101
0000
1100
0000
,
0011
1001
0110
0011
,
1100
0000
0110
1010
0110
0000
1001
0000
,
0101
0000
0000
0000
0110
0000
1001
0000
1010
0000
1100
0011
1100
0000
0010
0000
,
1100
0000
0011
0000
1100
0000
0011
0000
1000
0001
1000
0001
1000
0001
1000
0001
,
1010
0000
0001
0000
1100
0000
0000
0001
0000
1000
0001
0000
1001
0000
0001
0100
,
0010
1000
0100
0010
0001
0100
0010
1000
0100
1000
0010
0100
0001
0010
0001
0010
,
0001
1000
0100
0010
0100
0010
0001
0010
0001
1000
0001
0100
0001
1000
0100
0010
,
0001
0010
0100
1000
0001
0010
0100
1000
0100
0010
0011
0000
1100
0000
1001
0000
,
1010
0000
0001
0010
0100
0000
1010
0000
0000
0000
0001
0010
0100
0000
0110
0000
,
0000
0000
0001
1000
0100
0000
1000
0010
1100
0000
0011
0000
1010
0000
1001
0000
,
1000
0001
0100
0010
1000
0001
0100
0010
1000
0100
0010
0001
0010
0100
1000
0001
,
0010
0000
0100
0000
1000
0000
0001
0000
0010
0000
0100
0000
1000
0000
0001
0000
1000
0100
0010
0001
1000
0100
0010
0001
1000
0100
0010
0001
1000
0100
0010
0001
,
1010
0001
0010
1000
0001
0010
1000
0001
0010
1000
0001
0010
1000
0001
0010
1000
0001
0010
1000
0001
0010
1000
0001
0010
,
1000
0010
0001
1000
0010
0001
1000
0010
0001
1000
0010
0001
1000
0010
0001
1000
0010
0001
1000
0010
0001
1000
0010
0001
,
0100
0010
0001
0001
0010
0010
0100
0010
0001
0100
0010
0001
0100
0010
0010
0100
0100
0010
0001
0100
0010
0001
0100
0010
,
0001
0100
1000
0001
0100
1000
0001
0100
1000
0001
0100
1000
0001
1000
0001
1000
0001
1000
0001
1000
0001
1100
0011
1100
,
0011
0000
0011
1100
0000
1001
0110
0000
0101
1010
0000
0011
,
0110
0000
1001
0101
0000
1010
1001
0000
0000
1010
0000
1000
,
0110
0000
0101
1100
0000
1010
1100
0000
0011
1100
0000
1010
,
0101
0000
0000
0000
1001
0000
0010
0000
1000
0000
0010
0000
0202
0000
0000
0000
0000
0000
0000
0000
0000
0303
0000
0000
,
1000
0010
0100
0011
1000
0010
0100
0010
1000
0011
0100
0001
,
0010
0100
1000
0011
0100
0001
0101
0000
0000
1010
0000
0010
,
1100
0001
0100
0010
1000
0100
0011
0100
1000
0001
0010
0100
,
1001
0010
0010
1001
0100
0100
0011
0000
1100
0000
0011
0000
,
1100
0001
0010
0100
1000
0001
0010
0100
1010
0001
0100
0010
1000
0100
0010
0001
,
1100
0001
0010
0100
1010
0001
0100
0010
1001
0100
1000
0001
0010
0100
1000
0010
,
1100
0001
0010
0001
0010
0100
1000
0010
0101
0010
1000
0100
0010
0001
1000
0010
,
1010
0001
0010
0100
1100
0001
0100
0010
1001
0100
1000
0001
0100
0010
1000
0100
,
1010
0010
0100
0001
0010
0001
1000
0100
1010
0010
0100
0001
0010
0001
1000
0001
,
1010
0001
0100
0010
1100
0100
1000
0001
1010
0001
0100
0010
1000
0100
1000
0010
,
1100
0001
0100
0010
1000
0001
0010
0100
1100
0010
0100
0001
0010
0001
0100
0010
,
1001
0000
0100
0000
1000
0000
0010
0000
1100
0000
0001
0000
0010
0000
0001
0000
1100
0010
0100
0001
1000
0010
0100
0001
1000
0010
0100
0001
1000
0010
0100
0001
,
1010
1001
0110
1100
,
0011
0000
0110
1001
0101
0000
1001
0000
,
1010
0000
0000
0000
0110
0000
1001
0000
0101
0000
1010
0101
1010
0000
0100
0000
,
0011
0000
1000
0100
1010
0100
0010
0000
1001
0000
0000
1001
0110
0000
1001
0000
,
1001
1001
0110
0011
,
1100
0000
0110
1010
0110
0000
1001
0000
,
0101
0000
0000
0000
0110
0000
1001
0000
1010
0000
1100
0011
1100
0000
0010
0000
,
1100
0000
0000
0000
0011
0000
0000
0000
1000
0000
0000
0000
0001
0000
0000
0000
1000
0010
0100
0001
1000
0010
0100
0001
1000
0010
0100
0001
1000
0010
0100
0001
,
1010
0110
1001
1010
,
0101
0000
1001
1100
1001
0000
0110
0000
,
0011
0000
0000
0000
1001
0000
0101
0000
1100
0000
0011
1100
0011
0000
1000
0000
,
0101
0000
0010
0000
0011
0000
0001
0000
0110
0000
0000
1010
1001
0000
0101
0000
,
0101
0110
1001
0101
,
1010
0000
1001
0011
1001
0000
0110
0000
,
1100
0000
0000
0000
1001
0000
0110
0000
0011
0000
1010
0101
1010
0000
0001
0000
,
1010
0000
0000
0000
0100
0000
0000
0000
0010
0000
0000
0000
0100
0000
0000
0000
1000
0001
0010
0100
1000
0001
0010
0100
1000
0001
0010
0100
1000
0001
0010
0100
,
1000
0001
0010
0100
1010
0010
0100
0001
0010
0100
1000
0010
1100
0001
0010
0100
,
1000
0001
0010
0100
1001
0010
1000
0100
0010
0001
0100
0001
1010
0100
1000
0010
,
0100
1000
0100
0010
1100
0100
0010
0001
0100
0010
0001
0010
1100
0001
0100
0010
,
1000
0100
1000
0010
1100
0001
1000
0100
1000
0010
0100
0001
1010
0100
1000
0100
,
1010
0000
0000
0011
0000
0000
0101
0000
0000
0101
0000
0000
0110
0000
1001
0000
,
1100
0000
0000
0110
0000
0000
0011
0000
0000
1100
0000
0000
1010
0000
1100
0000
,
0011
0000
0000
1100
0000
0000
0011
0000
0000
1010
0000
0000
1001
0000
0110
0000
,
0101
0000
0000
0000
0000
0000
1010
0000
0000
0000
0000
0000
0010
0000
0000
0000
1000
0100
0010
0001
1000
0100
0010
0001
1000
0100
0010
0001
1000
0100
0010
0001
,
1000
0100
1000
0010
1100
0001
0010
0001
0100
1000
0100
0001
1100
0010
1000
0100
,
0001
0100
1000
0010
1100
0001
0010
0100
1000
0010
0100
1000
0101
0010
1000
0100
,
0010
0001
0100
0010
1001
0010
0100
0001
0010
0100
1000
0010
1100
0001
0010
0001
,
1000
0000
0010
0000
0100
0000
0001
0000
1010
0000
0100
0000
1000
0001
0010
0100
1000
0100
0010
0001
0001
0010
0100
1000
0001
0010
0100
1000
0001
0010
0100
1000
,
0001
1000
0010
0100
1001
0010
0100
1000
0010
0100
0001
0010
1001
0010
0100
1000
,
0010
0100
0001
0010
0101
1000
0010
0100
0001
0100
0001
1000
0011
0100
0001
0010
,
0100
1000
0001
1000
0101
1000
0001
1000
0001
1000
0001
1000
0101
1000
0001
1000
,
0001
0000
0010
0000
0100
0000
1000
0000
0001
0000
0010
0000
0100
0000
1000
0000
0001
0000
0010
0000
0100
0000
1000
0000
0001
0000
0010
0000
0100
0000
1000
0000
0022
0000
0000
0000
0000
0000
0000
0000
0000
0000
0000
0000
0000
0000
0000
0100
2033
0000
0000
0000
0000
0000
0000
0000
0000
0000
0000
0000
0000
0000
0000
0000
,
3011
0000
0000
0000
0000
0000
0000
0000
0000
1000
0000
0000
0000
0000
0000
0000
0000
0000
0000
0000
0100
0000
0000
0000
0000
0000
0000
0000
0011
0000
0000
0000
0000
0000
0000
0000
0000
0000
0000
0000
0000
0000
1000
0000
0000
0000
0000
0000
0000
0000
0000
0000
0100
0000
0000
0000
0000
0000
0000
0000
0011
0000
0000
0000
0000
0000
0000
0000
0000
1000
0000
0000
0000
0000
0000
0000
0000
0000
0000
0000
0100
0000
0000
0000
0000
0000
0000
0011
0000
0000
0000
0000
0000
0000
0000
0000
1000
0000
0000
0000
0000
0000
0000
0000
0100
0000
0000
0000
0000
0000
0000
0000
0000
0000
0011
0000
0000
0000
0000
0000
0000
0000
0000
0000
0000
0000
0000
0000
0000
0000
0000
0000
0000
0000
0000
0000
0000
0000
0000
0000
0101
0000
0000
0000
0000
0000
0000
0000
0000
0000
0000
0000
0000
0000
0000
0000
0000
0000
0000
0000
0000
0000
0000
0000
0000
0000
0000
0000
1001
0000
0000
0000
0000
0000
0000
0000
0000
0000
0000
0000
0000
0000
0000
0000
0000
0000
0000
0000
0000
0000
0000
0000
,
1100
0000
0000
0000
0000
0000
0000
0000
0000
0010
0000
0000
0000
0000
0000
0000
0000
0000
0000
0000
0001
0000
0000
0000
0000
0000
0000
0000
0000
0000
1100
0000
0000
0000
0000
0000
0000
0000
0000
0010
0000
0000
0000
0000
0000
0000
0000
0000
0001
0000
0000
0000
0000
0000
0000
0000
0000
0000
0000
0000
1100
0000
0000
0000
0000
0000
0010
0000
0000
0000
0000
0000
0000
0000
0000
0000
0001
0000
0000
0000
0000
0000
0000
0000
0000
0000
0000
1100
0000
0000
0000
0000
0000
0000
0000
0000
0010
0000
0000
0000
0000
0000
0000
0000
0001
0000
0000
0000
0000
0000
0000
0000
0000
0000
0000
0000
1100
0000
0000
0000
0000
0000
0000
0000
0000
0000
0000
0000
0000
0000
0000
0000
0000
0000
0000
0000
0000
0000
0000
0000
0000
0000
0000
0000
1010
0000
0000
0000
0000
0000
0000
0000
0000
0000
0000
0000
0000
0000
0000
0000
0000
0000
0000
0000
0000
0000
0000
0000
1001
0000
0000
0000
0000
0000
0000
0000
0000
0000
0000
0000
0000
0000
0000
0000
0000
0000
0000
0000
0000
0000
0000
0000
,
0011
0000
0000
0000
0000
0000
0000
0000
0000
0000
0000
0000
0100
0000
0000
0000
0000
0000
0000
0000
0000
1000
0000
0000
0000
0000
0000
0000
0000
0000
0000
0000
0000
0011
0000
0000
0000
0000
0000
0000
0000
0000
0100
0000
0000
0000
0000
0000
0000
0000
0000
1000
0000
0000
0000
0000
0000
0000
0000
0000
0011
0000
0000
0000
0000
0000
0000
0000
0000
0100
0000
0000
0000
0000
0000
0000
0000
0000
1000
0000
0000
0000
0000
0000
0000
0000
0000
0000
0000
0000
0011
0000
0000
0000
0000
0000
0000
0000
0000
0100
0000
0000
0000
0000
0000
1000
0000
0000
0000
0000
0000
0000
0000
0000
0000
0000
0011
0000
0000
0000
0000
0000
0000
0000
0000
0000
0000
0000
0000
0000
0000
0000
0000
0000
0000
0000
0000
0000
0000
0000
0011
0000
0000
0000
0000
0000
0000
0000
0000
0000
0000
0000
0000
0000
0000
0000
0000
0000
0000
0000
0000
0000
0000
0000
0000
0000
0000
0000
0011
0000
0000
0000
0000
0000
0000
0000
0000
0000
0000
0000
0000
0000
0000
0000
0000
0000
0000
0000
0000
0000
0000
0000
,
1100
0000
0000
0000
0000
0000
0000
0000
0000
0000
0000
0000
0010
0000
0000
0000
0000
0000
0000
0000
0000
0001
0000
0000
0000
0000
0000
0000
0000
0000
0000
0000
0000
1100
0000
0000
0000
0000
0000
0000
0000
0000
0000
0000
0010
0000
0000
0000
0000
0000
0000
0001
0000
0000
0000
0000
0000
0000
0000
0000
1100
0000
0000
0000
0000
0000
0000
0000
0000
0010
0000
0000
0000
0000
0000
0000
0000
0000
0000
0000
0001
0000
0000
0000
0000
0000
0000
0000
0000
0000
1100
0000
0000
0000
0000
0000
0000
0000
0000
0000
0010
0000
0000
0000
0000
0000
0000
0000
0001
0000
0000
0000
0000
0000
0000
0000
0000
1100
0000
0000
0000
0000
0000
0000
0000
0000
0000
0000
0000
0000
0000
0000
0000
0000
0000
0000
0000
0000
0000
0000
0000
0000
0000
0000
1100
0000
0000
0000
0000
0000
0000
0000
0000
0000
0000
0000
0000
0000
0000
0000
0000
0000
0000
0000
0000
0000
0000
0000
1100
0000
0000
0000
0000
0000
0000
0000
0000
0000
0000
0000
0000
0000
0000
0000
0000
0000
0000
0000
0000
0000
0000
0000
,
1100
0000
0000
0000
0000
0000
0000
0000
0000
0001
0000
0000
0000
0000
0000
0000
0000
0000
0000
0000
0010
0000
0000
0000
0000
0000
0000
0000
0000
0000
1100
0000
0000
0000
0000
0000
0000
0000
0000
0001
0000
0000
0000
0000
0000
0000
0000
0000
0010
0000
0000
0000
0000
0000
0000
0000
0000
0000
0000
0000
1100
0000
0000
0000
0000
0000
0001
0000
0000
0000
0000
0000
0000
0000
0000
0000
0010
0000
0000
0000
0000
0000
0000
0000
0000
0000
0000
1100
0000
0000
0000
0000
0000
0000
0000
0000
0001
0000
0000
0000
0000
0000
0000
0000
0010
0000
0000
0000
0000
0000
0000
0000
0000
0000
1100
0000
0000
0000
0000
0000
0000
0000
0000
0000
0000
0000
0000
0000
0000
0000
0000
0000
0000
0000
0000
0000
0000
0000
0000
0000
1001
0000
0000
0000
0000
0000
0000
0000
0000
0000
0000
0000
0000
0000
0000
0000
0000
0000
0000
0000
0000
0000
1010
0000
0000
0000
0000
0000
0000
0000
0000
0000
0000
0000
0000
0000
0000
0000
0000
0000
0000
0000
0000
0000
0000
0000
0000
0000
0000
0000
0000
0000
,
1100
0000
0000
0000
0000
0000
0000
0000
0000
0001
0000
0000
0000
0000
0000
0000
0000
0000
0000
0000
0010
0000
0000
0000
0000
0000
0000
0000
0000
0000
1100
0000
0000
0000
0000
0000
0000
0000
0000
0001
0000
0000
0000
0000
0000
0000
0000
0000
0010
0000
0000
0000
0000
0000
0000
0000
0000
1100
0000
0000
0000
0000
0000
0000
0000
0000
0001
0000
0000
0000
0000
0000
0000
0000
0000
0000
0010
0000
0000
0000
0000
0000
0000
0000
1100
0000
0000
0000
0000
0000
0000
0000
0000
0000
0000
0000
0001
0000
0000
0000
0000
0000
0000
0000
0010
0000
0000
0000
0000
0000
0000
0000
0000
0000
0000
0000
0000
1100
0000
0000
0000
0000
0000
0000
0000
0000
0000
0000
0000
0000
0000
0000
0000
0000
0000
0000
0000
0000
0000
0000
0000
1010
0000
0000
0000
0000
0000
0000
0000
0000
0000
0000
0000
0000
0000
0000
0000
0000
0000
0000
0000
0000
0000
0000
0101
0000
0000
0000
0000
0000
0000
0000
0000
0000
0000
0000
0000
0000
0000
0000
0000
0000
0000
0000
0000
0000
0000
0000
0000
0000
0000
0000
,
0011
0000
0000
0000
0000
0000
0000
0000
0000
1000
0000
0000
0000
0000
0000
0000
0000
0000
0000
0000
0100
0000
0000
0000
0000
0000
0000
0000
0000
0000
0000
0000
0011
0000
0000
0000
0000
0000
0000
1000
0000
0000
0000
0000
0000
0000
0000
0000
0100
0000
0000
0000
0000
0000
0000
0000
0000
0000
0000
0000
0011
0000
0000
0000
0000
0000
1000
0000
0000
0000
0000
0000
0000
0000
0000
0000
0100
0000
0000
0000
0000
0000
0000
0000
0000
0000
0000
0000
0011
0000
0000
0000
0000
0000
0000
0000
1000
0000
0000
0000
0000
0000
0000
0000
0100
0000
0000
0000
0000
0000
0000
0000
0000
0000
0011
0000
0000
0000
0000
0000
0000
0000
0000
0000
0000
0000
0000
0000
0000
0000
0000
0000
0000
0000
0000
0000
0000
0000
0000
0000
0011
0000
0000
0000
0000
0000
0000
0000
0000
0000
0000
0000
0000
0000
0000
0000
0000
0000
0000
0000
0000
0000
0000
0000
0000
0011
0000
0000
0000
0000
0000
0000
0000
0000
0000
0000
0000
0000
0000
0000
0000
0000
0000
0000
0000
0000
0000
0000
0000
0000
0000
0000
,
0011
0000
0000
0000
0000
0000
0000
0000
0000
0000
0000
0000
0011
0000
0000
0000
0000
0000
0000
0000
0000
0000
0000
0000
0011
0000
0000
0000
0000
0000
0000
0000
0000
0000
0000
0000
0000
0000
0000
0011
0000
0000
0000
0000
0000
0000
0000
0000
0000
0000
0000
0000
0011
0000
0000
0000
0000
0000
0000
0000
0000
0000
0000
0000
0011
0000
0000
0000
0000
0000
0000
0000
0000
0000
0000
0000
0011
0000
0000
0000
0000
0000
0000
0000
0000
0000
0000
0000
0011
0000
0000
0000
0000
0000
0000
0000
0000
0000
0000
0000
0011
0000
0000
0000
0000
0000
0000
0000
0000
0000
0000
0000
0011
0000
0000
0000
0000
0000
0000
0000
0000
0000
0000
0000
0000
0000
0000
0000
0000
0000
0000
0000
0000
0000
0000
0000
0011
0000
0000
0000
0000
0000
0000
0000
0000
0000
0000
0000
0000
0000
0000
0000
0000
0000
0000
0000
0000
0000
0000
0000
0000
0000
0011
0000
0000
0000
0000
0000
0000
0000
0000
0000
0000
0000
0000
0000
0000
0000
0000
0000
0000
0000
0000
0000
0000
0000
0000
0000
0000
0000
0000
0000
;
