#TITLE:Applause;
#SUBTITLE:Sexuality Violation;
#ARTIST:Lady Gaga;
#TITLETRANSLIT:;
#SUBTITLETRANSLIT:;
#ARTISTTRANSLIT:;
#CREDIT:;
#BANNER:Applause-bn.png;
#BACKGROUND:Applause-bg.png;
#LYRICSPATH:;
#CDTITLE:GazeboCD.png;
#MUSIC:Applause.ogg;
#OFFSET:-0.148;
#SAMPLESTART:52.376;
#SAMPLELENGTH:26.000;
#SELECTABLE:YES;
#DISPLAYBPM:146.960;
#BPMS:0.000=147.000,96.000=73.500,112.000=147.000,240.000=73.500,256.000=147.000,320.000=73.500,336.000=147.000;
#STOPS:;
#BGCHANGES:;
// cache tags:
#FIRSTBEAT:1.500;
#LASTBEAT:435.500;
#SONGFILENAME:Songs/Sexuality Violation 2/Applause - [Gazebo]/Applause.sm;
#HASMUSIC:1;
#HASBANNER:1;
#MUSICLENGTH:198.950;
// end cache tags

//---------------dance-single - Gazebo----------------
#NOTES:
     dance-single:
     Gazebo:
     Challenge:
     17:
     1.000,1.000,0.101,0.186,1.000,1837.000,20.000,37.000,0.000,0.000:
4000
0000
0000
3040
0000
0000
0430
0000
,
0000
0000
0000
0000
0000
0000
0000
0310
,
0400
0000
0301
0040
0000
0031
4000
0000
,
0000
0000
0000
0000
0000
0000
0000
3100
,
4000
0000
0000
3040
0000
0000
0430
0000
,
0000
0000
0000
0000
0000
0000
0000
0310
,
0400
0000
0301
0040
0000
0031
4000
0000
,
0000
0000
0000
0000
0000
0000
0000
0000
3001
0010
0001
0000
0200
0000
0000
0300
,
0001
0100
0001
1000
0001
0010
0100
1000
0001
0100
0010
1000
0001
0010
0100
1000
,
0010
1000
0001
0100
0001
1000
0001
0010
0100
0010
0001
0100
0001
1000
0010
1000
,
0001
0010
0001
1000
0100
1000
0010
0100
0010
0100
0001
1000
0100
0010
0001
0100
,
0010
1000
0001
1000
0001
0100
0010
1000
0001
0100
0001
0010
0001
1000
0100
1000
,
0001
0010
0001
1000
0001
0100
0010
1000
0001
0010
0100
1000
0001
0100
0010
1000
,
0100
1000
0001
0010
0001
1000
0001
0100
0010
0100
0001
0010
0001
1000
0100
1000
,
0001
0100
0001
0010
0001
1000
0100
1000
0010
1000
0001
0010
0100
0010
0001
1000
,
0100
1000
0001
1000
0001
0010
0100
1000
0001
0010
0001
0100
0001
1000
0010
1000
,
0001
0100
0001
1000
0001
0010
0100
1000
0001
0010
0100
1000
0100
0010
0001
1000
,
0010
0100
0010
0100
0001
1000
0100
0010
0001
1000
0010
1000
0001
0100
0010
1000
,
0001
0010
0001
1000
0100
1000
0001
1000
0100
1000
0010
0100
0010
1000
0001
0100
,
0010
1000
0001
1000
0001
0100
0010
1000
0001
0100
0001
0010
0001
1000
0100
1000
,
0001
0010
0001
1000
0001
0100
0010
1000
0001
0100
0010
1000
0010
0100
0001
1000
,
0100
0010
0100
0010
0001
1000
0010
0100
0001
1000
0100
1000
0001
0010
0100
1000
,
0001
0100
0001
0010
0001
0100
0010
1000
0001
0010
0100
1000
0010
0100
0010
0100
,
0001
1000
0010
1000
0100
1000
0001
0010
0001
1000
0001
0010
0001
1000
0010
1000
,
0002
0000
0000
1003
0002
0000
0000
1003
0002
0000
0000
0013
0010
0100
1000
1000
,
0020
0000
2030
0000
3001
0100
0001
0001
0020
0000
0032
0000
1003
0100
1000
0000
,
0020
0000
0130
0100
0002
0000
2003
0000
3200
0000
1300
0001
0000
0000
0001
0001
,
0100
0000
0000
0000
0000
0000
0000
0000
0000
0000
0000
0000
0010
0000
0000
0000
0000
0000
0000
0000
0000
0000
0000
0000
0100
0000
0000
0000
0000
0000
0000
0000
0000
0000
0000
0000
0010
0000
0000
0000
0000
0000
0000
0000
0000
0000
0000
0000
0100
0000
0000
0000
0000
0000
0000
0000
0000
0000
0000
0000
0010
0000
0000
0000
0000
0000
0000
0000
0000
0000
0000
0000
0100
0000
0000
0000
0000
0000
0000
0000
0000
0000
0000
0000
0010
0000
0000
0000
0000
0000
0000
0000
0000
0000
0000
0000
0000
0000
0000
0000
0000
0000
0000
0000
0000
0000
0000
0000
1000
0000
0000
0000
0000
0000
0000
0000
0000
0010
0000
0000
0000
0000
0000
0000
0000
0000
1000
0000
0000
0000
0000
0000
0000
0000
0000
0001
0000
0000
0000
0000
0000
0000
0000
0000
1000
0000
0000
0000
0000
0000
0000
0000
0100
0000
0000
0000
0000
0000
0000
0000
0010
0000
0000
0000
0000
0000
0000
0000
0001
0000
0000
0000
0000
0000
1000
0000
0000
0000
0000
0000
0100
0000
0000
0000
0000
0000
1000
0000
0000
0000
0000
0000
,
0001
0010
0001
1000
0010
0100
0010
1000
0010
0100
0001
1000
0001
0010
0100
1000
0001
0010
0001
1000
0001
1000
0100
1000
,
0001
0100
0001
1000
0010
1000
0001
0010
0001
1000
0100
1000
0010
0100
0010
0100
0001
1000
0001
0010
0001
0010
0100
1000
,
0001
0010
0001
1000
0010
0100
0010
1000
0010
0100
0001
1000
0001
0010
0100
1000
0001
0010
0001
1000
0001
1000
0100
1000
,
0001
0100
0001
0100
0010
1000
0001
0010
0001
1000
0100
1000
0001
0100
0010
0100
0001
1000
0001
0010
0001
0010
0100
1000
,
0001
0010
0001
1000
0010
0100
0010
1000
0010
0100
0001
1000
0001
0010
0100
1000
0001
0010
0001
1000
0001
1000
0100
1000
,
0001
0100
0001
1000
0010
1000
0001
0010
0001
1000
0100
1000
0010
0100
0010
0100
0001
1000
0001
0010
0001
0010
0100
1000
,
0001
0010
0001
1000
0010
0100
0010
1000
0010
0100
0001
1000
0001
0010
0100
1000
0001
0010
0001
1000
0001
1000
0100
1000
,
0001
0100
0001
0100
0010
1000
0001
0100
0001
0010
0001
1000
0001
0100
0001
0100
0010
1000
0001
0010
0100
1000
0001
1000
,
0001
0010
0001
1000
0100
1000
0001
1000
0100
0010
0001
1000
0010
0100
0001
0100
0010
1000
0001
0100
0001
0010
0001
1000
,
0100
1000
0100
0010
0001
1000
0001
0100
0001
1000
0010
1000
0100
0010
0100
0010
0001
1000
0001
0100
0001
0100
0010
1000
,
0001
0100
0001
1000
0100
0010
0100
1000
0100
0010
0001
1000
0001
0100
0010
1000
0001
0100
0001
1000
0001
1000
0010
1000
,
0001
0010
0001
0010
0100
1000
0001
0010
0001
0100
0001
1000
0001
0010
0001
0010
0100
1000
0001
0100
0010
1000
0001
1000
,
0001
0010
0001
1000
0100
1000
0001
1000
0100
0010
0001
1000
0010
0100
0001
0100
0010
1000
0001
0100
0001
0010
0001
1000
,
0100
1000
0100
0010
0001
1000
0001
0100
0001
1000
0010
1000
0100
0010
0100
0010
0001
1000
0001
0100
0001
0100
0010
1000
,
0001
0100
0001
1000
0100
0010
0100
1000
0100
0010
0001
1000
0001
0100
0010
1000
0001
0100
0001
1000
0001
1000
0010
1000
,
0001
0010
0001
0010
0100
1000
0001
0010
0001
0100
0001
1000
0001
0010
0001
0010
0100
1000
0001
0000
0000
0000
0000
0000
,
1000
0010
1000
0001
1000
0100
0010
0001
1000
0010
0100
0001
1000
0100
0010
0001
,
0100
0001
1000
0001
1000
0010
1000
0100
0010
0100
1000
0010
1000
0001
0100
0001
,
1000
0100
1000
0001
1000
0100
0010
0001
0100
0001
1000
0001
1000
0100
1000
0010
,
0100
0001
1000
0001
1000
0010
0100
0001
1000
0010
1000
0100
1000
0001
0010
0001
,
1000
0100
1000
0001
1000
0010
0100
0001
1000
0100
0010
0001
1000
0010
0100
0001
,
0010
0001
1000
0100
1000
0001
1000
0010
0100
0010
1000
0100
1000
0001
0010
0001
,
1000
0010
1000
0100
1000
0001
0010
0001
0100
0001
1000
0100
0010
0100
1000
0001
,
0010
0001
1000
0001
1000
0100
0010
0001
1000
0100
1000
0010
1000
0001
0100
0001
,
1000
0010
1000
0001
1000
0100
0010
0001
1000
0100
0010
0001
0010
0100
1000
0001
,
1000
0001
0100
0010
0100
0010
1000
0100
0010
0001
0100
0001
1000
0010
0100
0001
,
1000
0100
1000
0001
0010
0001
1000
0001
0010
0001
0100
0010
0100
0001
1000
0010
,
0100
0001
1000
0001
1000
0010
0100
0001
1000
0010
1000
0100
1000
0001
0010
0001
,
1000
0100
1000
0001
1000
0010
0100
0001
1000
0010
0100
0001
0100
0010
1000
0001
,
1000
0001
0010
0100
0010
0001
0100
0001
1000
0001
0010
0100
1000
0100
0010
0001
,
1000
0010
1000
0100
1000
0010
0100
0001
1000
0100
0010
0001
0100
0010
0100
0010
,
1000
0001
0100
0001
0010
0001
1000
0100
1000
0001
1000
0100
1000
0001
0100
0001
,
2000
0000
0000
3001
2000
0000
0000
3001
2000
0000
0000
3100
0100
0010
0001
0001
,
0200
0000
0302
0000
1003
0010
1000
1000
0200
0000
2300
0000
3001
0010
0001
0000
,
0200
0000
0310
0010
2000
0000
3002
0000
0023
0000
0031
1000
0000
0000
1000
1000
,
0010
0100
0010
0100
0010
0100
0010
0100
0010
0000
0000
0000
0000
0000
0000
0000
,
1000
0010
1000
0001
0010
0100
0010
0001
0010
0100
1000
0001
1000
0010
0100
0001
1000
0010
1000
0001
1000
0001
0100
0001
,
1000
0100
1000
0001
0010
0001
1000
0010
1000
0001
0100
0001
0010
0100
0010
0100
1000
0001
1000
0010
1000
0010
0100
0001
,
1000
0010
1000
0001
0010
0100
0010
0001
0010
0100
1000
0001
1000
0010
0100
0001
1000
0010
1000
0001
1000
0001
0100
0001
,
1000
0100
1000
0100
0010
0001
1000
0010
1000
0001
0100
0001
1000
0100
0010
0100
1000
0001
1000
0010
1000
0010
0100
0001
,
1000
0010
1000
0001
0010
0100
0010
0001
0010
0100
1000
0001
1000
0010
0100
0001
1000
0010
1000
0001
1000
0001
0100
0001
,
1000
0100
1000
0001
0010
0001
1000
0010
1000
0001
0100
0001
0010
0100
0010
0100
1000
0001
1000
0010
1000
0010
0100
0001
,
1000
0010
1000
0001
0010
0100
0010
0001
0010
0100
1000
0001
1000
0010
0100
0001
1000
0010
1000
0001
1000
0001
0100
0001
,
1000
0100
1000
0100
0010
0001
1000
0100
1000
0010
1000
0001
1000
0100
1000
0100
0010
0001
1000
0010
0100
0001
1000
0001
,
1000
0010
1000
0001
0100
0001
1000
0001
0100
0010
1000
0001
0010
0100
1000
0100
0010
0001
1000
0100
1000
0010
1000
0001
,
0100
0001
0100
0010
1000
0001
1000
0100
1000
0001
0010
0001
0100
0010
0100
0010
1000
0001
1000
0100
1000
0100
0010
0001
,
1000
0100
1000
0001
0100
0010
0100
0001
0100
0010
1000
0001
1000
0100
0010
0001
1000
0100
1000
0001
1000
0001
0010
0001
,
1000
0010
1000
0010
0100
0001
1000
0010
1000
0100
1000
0001
1000
0010
1000
0010
0100
0001
1000
0100
0010
0001
1000
0001
,
1000
0010
1000
0001
0100
0001
1000
0001
0100
0010
1000
0001
0010
0100
1000
0100
0010
0001
1000
0100
1000
0010
1000
0001
,
0100
0001
0100
0010
1000
0001
1000
0100
1000
0001
0010
0001
0100
0010
0100
0010
1000
0001
1000
0100
1000
0100
0010
0001
,
1000
0100
1000
0001
0100
0010
0100
0001
0100
0010
1000
0001
1000
0100
0010
0001
1000
0100
1000
0001
1000
0001
0010
0001
,
1000
0010
1000
0010
0100
0001
1000
0010
1000
0100
1000
0001
1000
0010
1000
0010
0100
0001
1000
0000
0000
0000
0000
0000
,
1010
0000
0000
0110
0000
0000
0101
0001
2000
0000
0000
3001
2000
0000
3000
0000
,
1100
0000
0000
0110
0000
0000
0011
0001
2000
0000
0000
3001
2000
0000
3000
0010
,
1010
0000
0000
0110
0000
0000
0101
0000
0000
0000
0000
0000
0000
0000
0000
0000
,
1100
0000
0000
0110
0000
0000
0011
0000
0000
0000
0000
0001
1000
0001
1000
1000
,
0020
0000
0130
0010
0020
0000
1030
0010
,
0020
0000
1030
0001
0001
1000
0001
0001
,
0020
0000
0230
0000
1300
0001
1000
1000
,
0020
0000
0230
0000
0301
1000
0001
0000
,
2000
0000
3100
0100
0020
0000
0032
0000
,
0103
0000
0001
1000
0010
0000
1000
1000
,
0001
0010
0001
1000
0001
0100
0001
1000
,
0001
0000
0000
0000
0000
0000
0000
0000
0000
0000
0000
0000
0000
0000
0000
0000
0000
0000
0000
0000
0000
0000
0000
0000
1000
0000
0000
0000
0000
0000
0000
0000
0000
0000
0000
0000
0000
0000
0000
0000
0000
0000
0010
0000
0000
0000
0000
0000
0000
0000
0000
0000
0000
0000
0000
0000
0000
0000
0000
0000
1000
0000
0000
0000
0000
0000
0000
0000
0000
0000
0000
0000
0000
0000
0000
0000
0000
0000
0001
0000
0000
0000
0000
0000
0000
0000
0000
0000
0000
0000
0000
0000
0000
0000
0000
0000
1000
0000
0000
0000
0000
0000
0000
0000
0000
0000
0000
0000
0000
0000
0000
0000
0100
0000
0000
0000
0000
0000
0000
0000
0000
0000
0000
0000
0000
0000
0000
0000
0010
0000
0000
0000
0000
0000
0000
0000
0000
0000
0000
0000
0000
0000
0000
0000
0001
0000
0000
0000
0000
0000
0000
0000
0000
0000
0000
0000
1000
0000
0000
0000
0000
0000
0000
0000
0000
0000
0000
0000
0100
0000
0000
0000
0000
0000
0000
0000
0000
0000
0000
0000
1000
0000
0000
0000
0000
0000
0000
0000
0000
0000
0000
0000
,
0001
0010
0001
1000
0010
0100
0010
1000
0010
0100
0001
1000
0001
0010
0100
1000
0001
0010
0001
1000
0001
1000
0100
1000
,
0001
0100
0001
1000
0010
1000
0001
0010
0001
1000
0100
1000
0010
0100
0010
0100
0001
1000
0001
0010
0001
0010
0100
1000
,
0001
0010
0001
1000
0010
0100
0010
1000
0010
0100
0001
1000
0001
0010
0100
1000
0001
0010
0001
1000
0001
1000
0100
1000
,
0001
0100
0001
0100
0010
1000
0001
0010
0001
1000
0100
1000
0001
0100
0010
0100
0001
1000
0001
0010
0001
0010
0100
1000
,
0001
0010
0001
1000
0010
0100
0010
1000
0010
0100
0001
1000
0001
0010
0100
1000
0001
0010
0001
1000
0001
1000
0100
1000
,
0001
0100
0001
1000
0010
1000
0001
0010
0001
1000
0100
1000
0010
0100
0010
0100
0001
1000
0001
0010
0001
0010
0100
1000
,
0001
0010
0001
1000
0010
0100
0010
1000
0010
0100
0001
1000
0001
0010
0100
1000
0001
0010
0001
1000
0001
1000
0100
1000
,
0001
0100
0001
0100
0010
1000
0001
0100
0001
0010
0001
1000
0001
0100
0001
0100
0010
1000
0001
0010
0100
1000
0001
1000
,
0001
0010
0001
1000
0100
1000
0001
1000
0100
0010
0001
1000
0010
0100
0001
0100
0010
1000
0001
0100
0001
0010
0001
1000
,
0100
1000
0100
0010
0001
1000
0001
0100
0001
1000
0010
1000
0100
0010
0100
0010
0001
1000
0001
0100
0001
0100
0010
1000
,
0001
0100
0001
1000
0100
0010
0100
1000
0100
0010
0001
1000
0001
0100
0010
1000
0001
0100
0001
1000
0001
1000
0010
1000
,
0001
0010
0001
0010
0100
1000
0001
0010
0001
0100
0001
1000
0001
0010
0001
0010
0100
1000
0010
0100
0001
0010
0100
1000
,
0001
0010
0001
1000
0100
1000
0001
1000
0100
0010
0001
1000
0010
0100
0001
0100
0010
1000
0001
0100
0001
0010
0001
1000
,
0100
1000
0100
0010
0001
1000
0001
0100
0001
1000
0010
1000
0100
0010
0100
0010
0001
1000
0001
0100
0001
0100
0010
1000
,
0001
0100
0001
1000
0100
0010
0100
1000
0100
0010
0001
1000
0001
0100
0010
1000
0001
0100
0001
1000
0001
1000
0010
1000
,
0001
0010
0001
0010
0100
1000
0001
0010
0001
0100
0001
1000
0001
0010
0001
0010
0100
1000
0001
0000
0000
0000
0000
0000
,
0100
0010
0000
1000
0100
0000
1000
0001
;

//---------------dance-single - Gazebo----------------
#NOTES:
     dance-single:
     Gazebo:
     Hard:
     14:
     1.000,1.000,0.101,0.472,1.000,1432.000,20.000,94.000,0.000,0.000:
4000
0000
0000
3040
0000
0000
0430
0000
,
0000
0000
0000
0000
0000
0000
0000
0310
,
0400
0000
0301
0040
0000
0031
4000
0000
,
0000
0000
0000
0000
0000
0000
0000
3100
,
4000
0000
0000
3040
0000
0000
0430
0000
,
0000
0000
0000
0000
0000
0000
0000
0310
,
0400
0000
0301
0040
0000
0031
4000
0000
,
0000
0000
0000
0000
0000
0000
0000
0000
3001
0010
0001
0000
0200
0000
0000
0300
,
0001
0100
0001
1000
0001
0010
0100
1000
0001
0100
0010
1000
0001
0010
0100
1000
,
0010
1000
0001
0100
0001
1000
0001
0010
0100
0010
0001
0100
0001
1000
0010
1000
,
0001
0010
0001
1000
0100
1000
0010
0100
0010
0100
0001
1000
0100
0010
0001
0100
,
0010
1000
0001
1000
0001
0100
0010
1000
0001
0100
0001
0010
0001
1000
0100
1000
,
0001
0010
0001
1000
0001
0100
0010
1000
0001
0010
0100
1000
0001
0100
0010
1000
,
0100
1000
0001
0010
0001
1000
0001
0100
0010
0100
0001
0010
0001
1000
0100
1000
,
0001
0100
0001
0010
0001
1000
0100
1000
0010
1000
0001
0010
0100
0010
0001
1000
,
0100
1000
0001
1000
0001
0010
0100
1000
0001
0010
0001
0100
0001
1000
0010
1000
,
0001
0100
0001
1000
0001
0010
0100
1000
0001
0010
0100
1000
0100
0010
0001
1000
,
0010
0100
0010
0100
0001
1000
0100
0010
0001
1000
0010
1000
0001
0100
0010
1000
,
0001
0010
0001
1000
0100
1000
0001
1000
0100
1000
0010
0100
0010
1000
0001
0100
,
0010
1000
0001
1000
0001
0100
0010
1000
0001
0100
0001
0010
0001
1000
0100
1000
,
0001
0010
0001
1000
0001
0100
0010
1000
0001
0100
0010
1000
0010
0100
0001
1000
,
0100
0010
0100
0010
0001
1000
0010
0100
0001
1000
0100
1000
0001
0010
0100
1000
,
0001
0100
0001
0010
0001
0100
0010
1000
0001
0010
0100
1000
0010
0100
0010
0100
,
0001
1000
0010
1000
0100
1000
0001
0010
0001
1000
0001
0010
0001
1000
0010
1000
,
0002
0000
0000
1003
0002
0000
0000
1003
0002
0000
0000
0013
0010
0100
1000
1000
,
0020
0000
2030
0000
3001
0100
0001
0001
0020
0000
0032
0000
1003
0100
1000
0000
,
0020
0000
0130
0100
0002
0000
2003
0000
3200
0000
1300
0001
0000
0000
0001
0001
,
0100
0000
0000
0000
0000
0000
0000
0000
0000
0000
0000
0000
0010
0000
0000
0000
0000
0000
0000
0000
0000
0000
0000
0000
0100
0000
0000
0000
0000
0000
0000
0000
0000
0000
0000
0000
0010
0000
0000
0000
0000
0000
0000
0000
0000
0000
0000
0000
0100
0000
0000
0000
0000
0000
0000
0000
0000
0000
0000
0000
0010
0000
0000
0000
0000
0000
0000
0000
0000
0000
0000
0000
0100
0000
0000
0000
0000
0000
0000
0000
0000
0000
0000
0000
0010
0000
0000
0000
0000
0000
0000
0000
0000
0000
0000
0000
0000
0000
0000
0000
0000
0000
0000
0000
0000
0000
0000
0000
1000
0000
0000
0000
0000
0000
0000
0000
0000
0010
0000
0000
0000
0000
0000
0000
0000
0000
1000
0000
0000
0000
0000
0000
0000
0000
0000
0001
0000
0000
0000
0000
0000
0000
0000
0000
1000
0000
0000
0000
0000
0000
0000
0000
0100
0000
0000
0000
0000
0000
0000
0000
0010
0000
0000
0000
0000
0000
0000
0000
0001
0000
0000
0000
0000
0000
1000
0000
0000
0000
0000
0000
0100
0000
0000
0000
0000
0000
1000
0000
0000
0000
0000
0000
,
0001
0010
0001
1000
0010
0100
0010
1000
0010
0100
0001
1000
0001
0010
0100
1000
0001
0010
0001
1000
0001
1000
0100
1000
,
0001
0100
0010
1000
0200
0000
2300
0000
,
3001
0010
0001
1000
0010
0100
0010
1000
0010
0100
0001
1000
0001
0010
0100
1000
0001
0010
0001
1000
0001
1000
0100
1000
,
0002
0000
0103
0010
2000
0000
3002
0000
,
1003
0100
1000
0001
0100
0010
0100
0001
0100
0010
1000
0001
1000
0100
0010
0001
1000
0100
1000
0001
1000
0001
0010
0001
,
1000
0010
0100
0001
0020
0000
0032
0000
,
1003
0100
1000
0001
0100
0010
0100
0001
0100
0010
1000
0001
1000
0100
0010
0001
1000
0100
1000
0001
1000
0001
0010
0001
,
2000
0000
3010
0100
0002
0000
2003
0000
,
3001
0010
0001
1000
0100
1000
0001
1000
0100
0010
0001
1000
0010
0100
0001
0100
0010
1000
0001
0100
0001
0010
0001
1000
,
0100
1000
0100
0010
0001
1000
0001
0000
0000
1000
0000
0000
0020
0000
0000
0000
0000
0000
2030
0000
0000
0000
0000
0000
,
3001
0100
0001
1000
0100
0010
0100
1000
0100
0010
0001
1000
0001
0100
0010
1000
0001
0100
0001
1000
0001
1000
0010
1000
,
0002
0000
0013
0100
2000
0000
3002
0000
,
1003
0100
1000
0001
0010
0001
1000
0001
0010
0100
1000
0001
0100
0010
1000
0010
0100
0001
1000
0010
1000
0100
1000
0001
,
0010
0001
0010
0100
1000
0001
1000
0000
0000
0001
0000
0000
0200
0000
0000
0000
0000
0000
0302
0000
0000
0000
0000
0000
,
1003
0010
1000
0001
0010
0100
0010
0001
0010
0100
1000
0001
1000
0010
0100
0001
1000
0010
1000
0001
1000
0001
0100
0001
,
2000
0000
3100
0010
0002
0000
1003
0000
,
1000
0010
1000
0001
1000
0100
0010
0001
1000
0010
0100
0001
1000
0100
0010
0001
,
0100
0001
1000
0001
1000
0010
1000
0100
0010
0100
1000
0010
1000
0001
0100
0001
,
1000
0100
1000
0001
1000
0100
0010
0001
0100
0001
1000
0001
1000
0100
1000
0010
,
0100
0001
1000
0001
1000
0010
0100
0001
1000
0010
1000
0100
1000
0001
0010
0001
,
1000
0100
1000
0001
1000
0010
0100
0001
1000
0100
0010
0001
1000
0010
0100
0001
,
0010
0001
1000
0100
1000
0001
1000
0010
0100
0010
1000
0100
1000
0001
0010
0001
,
1000
0010
1000
0100
1000
0001
0010
0001
0100
0001
1000
0100
0010
0100
1000
0001
,
0010
0001
1000
0001
1000
0100
0010
0001
1000
0100
1000
0010
1000
0001
0100
0001
,
1000
0010
1000
0001
1000
0100
0010
0001
1000
0100
0010
0001
0010
0100
1000
0001
,
1000
0001
0100
0010
0100
0010
1000
0100
0010
0001
0100
0001
1000
0010
0100
0001
,
1000
0100
1000
0001
0010
0001
1000
0001
0010
0001
0100
0010
0100
0001
1000
0010
,
0100
0001
1000
0001
1000
0010
0100
0001
1000
0010
1000
0100
1000
0001
0010
0001
,
1000
0100
1000
0001
1000
0010
0100
0001
1000
0010
0100
0001
0100
0010
1000
0001
,
1000
0001
0010
0100
0010
0001
0100
0001
1000
0001
0010
0100
1000
0100
0010
0001
,
1000
0010
1000
0100
1000
0010
0100
0001
1000
0100
0010
0001
0100
0010
0100
0010
,
1000
0001
0100
0001
0010
0001
1000
0100
1000
0001
1000
0100
1000
0001
0100
0001
,
2000
0000
0000
3001
2000
0000
0000
3001
2000
0000
0000
3100
0100
0010
0001
0001
,
0200
0000
0302
0000
1003
0010
1000
1000
0200
0000
2300
0000
3001
0010
0001
0000
,
0200
0000
0310
0010
2000
0000
3002
0000
0023
0000
0031
1000
0000
0000
1000
1000
,
0010
0100
0010
0100
0010
0100
0010
0100
0010
0000
0000
0000
0000
0000
0000
0000
,
1000
0010
1000
0001
0010
0100
0010
0001
0010
0100
1000
0001
1000
0010
0100
0001
1000
0010
1000
0001
1000
0001
0100
0001
,
1000
0100
0010
1000
0200
0000
0302
0000
,
1003
0010
1000
0001
0010
0100
0010
0001
0010
0100
1000
0001
1000
0010
0100
0001
1000
0010
1000
0001
1000
0001
0100
0001
,
2000
0000
3100
0010
0002
0000
2003
0000
,
3001
0100
0001
1000
0100
0010
0100
1000
0100
0010
0001
1000
0001
0100
0010
1000
0001
0100
0001
1000
0001
1000
0010
1000
,
0001
0010
0100
1000
0020
0000
2030
0000
,
3001
0100
0001
1000
0100
0010
0100
1000
0100
0010
0001
1000
0001
0100
0010
1000
0001
0100
0001
1000
0001
1000
0010
1000
,
0002
0000
0013
0100
2000
0000
3002
0000
,
1003
0010
1000
0001
0100
0001
1000
0001
0100
0010
1000
0001
0010
0100
1000
0100
0010
0001
1000
0100
1000
0010
1000
0001
,
0100
0001
0100
0010
1000
0001
1000
0000
0000
0001
0000
0000
0020
0000
0000
0000
0000
0000
0032
0000
0000
0000
0000
0000
,
1003
0100
1000
0001
0100
0010
0100
0001
0100
0010
1000
0001
1000
0100
0010
0001
1000
0100
1000
0001
1000
0001
0010
0001
,
2000
0000
3010
0100
0002
0000
2003
0000
,
3001
0100
0001
1000
0010
1000
0001
1000
0010
0100
0001
1000
0100
0010
0001
0010
0100
1000
0001
0010
0001
0100
0001
1000
,
0010
1000
0010
0100
0001
1000
0001
0000
0000
1000
0000
0000
0200
0000
0000
0000
0000
0000
2300
0000
0000
0000
0000
0000
,
3001
0010
0001
1000
0010
0100
0010
1000
0010
0100
0001
1000
0001
0010
0100
1000
0001
0010
0001
1000
0001
1000
0100
1000
,
0002
0000
0103
0010
2000
0000
3001
0000
,
1010
0000
0000
0110
0000
0000
0101
0001
2000
0000
0000
3001
2000
0000
3000
0000
,
1100
0000
0000
0110
0000
0000
0011
0001
2000
0000
0000
3001
2000
0000
3000
0010
,
1010
0000
0000
0110
0000
0000
0101
0000
0000
0000
0000
0000
0000
0000
0000
0000
,
1100
0000
0000
0110
0000
0000
0011
0000
0000
0000
0000
0001
1000
0001
1000
1000
,
0020
0000
0130
0010
0020
0000
1030
0010
,
0020
0000
1030
0001
0001
1000
0001
0001
,
0020
0000
0230
0000
1300
0001
1000
1000
,
0020
0000
0230
0000
0301
1000
0001
0000
,
2000
0000
3100
0100
0020
0000
0032
0000
,
0103
0000
0001
1000
0010
0000
1000
1000
,
0001
0010
0001
1000
0001
0100
0001
1000
,
0001
0000
0000
0000
0000
0000
0000
0000
0000
0000
0000
0000
0000
0000
0000
0000
0000
0000
0000
0000
0000
0000
0000
0000
1000
0000
0000
0000
0000
0000
0000
0000
0000
0000
0000
0000
0000
0000
0000
0000
0000
0000
0010
0000
0000
0000
0000
0000
0000
0000
0000
0000
0000
0000
0000
0000
0000
0000
0000
0000
1000
0000
0000
0000
0000
0000
0000
0000
0000
0000
0000
0000
0000
0000
0000
0000
0000
0000
0001
0000
0000
0000
0000
0000
0000
0000
0000
0000
0000
0000
0000
0000
0000
0000
0000
0000
1000
0000
0000
0000
0000
0000
0000
0000
0000
0000
0000
0000
0000
0000
0000
0000
0100
0000
0000
0000
0000
0000
0000
0000
0000
0000
0000
0000
0000
0000
0000
0000
0010
0000
0000
0000
0000
0000
0000
0000
0000
0000
0000
0000
0000
0000
0000
0000
0001
0000
0000
0000
0000
0000
0000
0000
0000
0000
0000
0000
1000
0000
0000
0000
0000
0000
0000
0000
0000
0000
0000
0000
0100
0000
0000
0000
0000
0000
0000
0000
0000
0000
0000
0000
1000
0000
0000
0000
0000
0000
0000
0000
0000
0000
0000
0000
,
0001
0010
0001
1000
0010
0100
0010
1000
0010
0100
0001
1000
0001
0010
0100
1000
0001
0010
0001
1000
0001
1000
0100
1000
,
0001
0100
0010
1000
0200
0000
2300
0000
,
3001
0010
0001
1000
0010
0100
0010
1000
0010
0100
0001
1000
0001
0010
0100
1000
0001
0010
0001
1000
0001
1000
0100
1000
,
0002
0000
0103
0010
2000
0000
3002
0000
,
1003
0100
1000
0001
0100
0010
0100
0001
0100
0010
1000
0001
1000
0100
0010
0001
1000
0100
1000
0001
1000
0001
0010
0001
,
1000
0010
0100
0001
0020
0000
0032
0000
,
1003
0100
1000
0001
0100
0010
0100
0001
0100
0010
1000
0001
1000
0100
0010
0001
1000
0100
1000
0001
1000
0001
0010
0001
,
2000
0000
3010
0100
0002
0000
2003
0000
,
3001
0010
0001
1000
0100
1000
0001
1000
0100
0010
0001
1000
0010
0100
0001
0100
0010
1000
0001
0100
0001
0010
0001
1000
,
0100
1000
0100
0010
0001
1000
0001
0000
0000
1000
0000
0000
0020
0000
0000
0000
0000
0000
2030
0000
0000
0000
0000
0000
,
3001
0100
0001
1000
0100
0010
0100
1000
0100
0010
0001
1000
0001
0100
0010
1000
0001
0100
0001
1000
0001
1000
0010
1000
,
0002
0000
0013
0100
2000
0000
3002
0000
,
1003
0100
1000
0001
0010
0001
1000
0001
0010
0100
1000
0001
0100
0010
1000
0010
0100
0001
1000
0010
1000
0100
1000
0001
,
0010
0001
0010
0100
1000
0001
1000
0000
0000
0001
0000
0000
0200
0000
0000
0000
0000
0000
0302
0000
0000
0000
0000
0000
,
1003
0010
1000
0001
0010
0100
0010
0001
0010
0100
1000
0001
1000
0010
0100
0001
1000
0010
1000
0001
1000
0001
0100
0001
,
2000
0000
3100
0010
0002
0000
1003
0000
,
0010
0100
0000
0001
0010
0000
0001
1000
;

//---------------dance-single - Gazebo----------------
#NOTES:
     dance-single:
     Gazebo:
     Medium:
     12:
     1.000,0.930,0.101,0.186,1.000,1459.000,20.000,37.000,0.000,0.000:
4000
0000
0000
3040
0000
0000
0430
0000
,
0000
0000
0000
0000
0000
0000
0000
0310
,
0400
0000
0301
0040
0000
0031
4000
0000
,
0000
0000
0000
0000
0000
0000
0000
3100
,
4000
0000
0000
3040
0000
0000
0430
0000
,
0000
0000
0000
0000
0000
0000
0000
0310
,
0400
0000
0301
0040
0000
0031
4000
0000
,
0000
0000
0000
0000
0000
0000
0000
0000
3001
0010
0001
0000
0200
0000
0000
0300
,
0001
0100
0001
1000
0001
0010
0100
1000
0001
0100
0010
1000
0001
0010
0100
1000
,
0010
1000
0001
0100
0001
1000
0001
0010
0100
0010
0001
0100
0001
1000
0010
1000
,
0001
0010
0001
1000
0100
1000
0010
0100
0010
0100
0001
1000
0100
0010
0001
0100
,
0010
1000
0001
1000
0001
0100
0010
1000
0001
0100
0001
0010
0001
1000
0100
1000
,
0001
0010
0001
1000
0001
0100
0010
1000
0001
0010
0100
1000
0001
0100
0010
1000
,
0100
1000
0001
0010
0001
1000
0001
0100
0010
0100
0001
0010
0001
1000
0100
1000
,
0001
0100
0001
0010
0001
1000
0100
1000
0010
1000
0001
0010
0100
0010
0001
1000
,
0100
1000
0001
1000
0001
0010
0100
1000
0001
0010
0001
0100
0001
1000
0010
1000
,
0001
0100
0001
1000
0001
0010
0100
1000
0001
0010
0100
1000
0100
0010
0001
1000
,
0010
0100
0010
0100
0001
1000
0100
0010
0001
1000
0010
1000
0001
0100
0010
1000
,
0001
0010
0001
1000
0100
1000
0001
1000
0100
1000
0010
0100
0010
1000
0001
0100
,
0010
1000
0001
1000
0001
0100
0010
1000
0001
0100
0001
0010
0001
1000
0100
1000
,
0001
0010
0001
1000
0001
0100
0010
1000
0001
0100
0010
1000
0010
0100
0001
1000
,
0100
0010
0100
0010
0001
1000
0010
0100
0001
1000
0100
1000
0001
0010
0100
1000
,
0001
0100
0001
0010
0001
0100
0010
1000
0001
0010
0100
1000
0010
0100
0010
0100
,
0001
1000
0010
1000
0100
1000
0001
0010
0001
1000
0001
0010
0001
1000
0010
1000
,
0002
0000
0000
1003
0002
0000
0000
1003
0002
0000
0000
0013
0010
0100
1000
1000
,
0020
0000
2030
0000
3001
0100
0001
0001
0020
0000
0032
0000
1003
0100
1000
0000
,
0020
0000
0130
0100
0002
0000
2003
0000
3200
0000
1300
0001
0000
0000
0001
0001
,
0100
0000
0000
0000
0000
0000
0000
0000
0000
0000
0000
0000
0010
0000
0000
0000
0000
0000
0000
0000
0000
0000
0000
0000
0100
0000
0000
0000
0000
0000
0000
0000
0000
0000
0000
0000
0010
0000
0000
0000
0000
0000
0000
0000
0000
0000
0000
0000
0100
0000
0000
0000
0000
0000
0000
0000
0000
0000
0000
0000
0010
0000
0000
0000
0000
0000
0000
0000
0000
0000
0000
0000
0100
0000
0000
0000
0000
0000
0000
0000
0000
0000
0000
0000
0010
0000
0000
0000
0000
0000
0000
0000
0000
0000
0000
0000
0000
0000
0000
0000
0000
0000
0000
0000
0000
0000
0000
0000
1000
0000
0000
0000
0000
0000
0000
0000
0000
0010
0000
0000
0000
0000
0000
0000
0000
0000
1000
0000
0000
0000
0000
0000
0000
0000
0000
0001
0000
0000
0000
0000
0000
0000
0000
0000
1000
0000
0000
0000
0000
0000
0000
0000
0100
0000
0000
0000
0000
0000
0000
0000
0010
0000
0000
0000
0000
0000
0000
0000
0001
0000
0000
0000
0000
0000
1000
0000
0000
0000
0000
0000
0100
0000
0000
0000
0000
0000
1000
0000
0000
0000
0000
0000
,
0001
0100
0010
1000
0010
1000
0010
0100
0001
1000
0100
1000
0100
1000
0100
0010
,
0001
1000
0010
1000
0001
0010
0100
1000
0010
0100
0010
0100
0001
1000
0001
1000
,
0001
0010
0100
1000
0100
1000
0100
0010
0001
1000
0010
1000
0010
1000
0010
0100
,
0001
0010
0001
0010
0100
1000
0001
0100
0010
1000
0010
1000
0001
1000
0001
1000
,
0001
0010
0100
1000
0100
1000
0100
0010
0001
1000
0010
1000
0010
1000
0010
0100
,
0001
1000
0100
1000
0001
0100
0010
1000
0100
0010
0100
0010
0001
1000
0001
1000
,
0001
0100
0010
1000
0010
1000
0010
0100
0001
1000
0100
1000
0100
1000
0100
0010
,
0001
0100
0001
0100
0010
1000
0001
0010
0100
1000
0100
1000
0001
1000
0001
1000
,
0010
0100
0010
0100
0001
1000
0010
1000
0100
0010
0100
0010
0001
1000
0010
1000
,
0001
0100
0001
0100
0001
0010
0100
1000
0010
0100
0010
0100
0001
1000
0001
1000
,
0001
0010
0100
1000
0100
1000
0100
0010
0001
1000
0010
1000
0010
1000
0010
0100
,
0001
0010
0001
0010
0100
1000
0001
0100
0010
1000
0010
1000
0001
1000
0001
1000
,
0100
0010
0100
0010
0001
1000
0100
1000
0010
0100
0010
0100
0001
1000
0100
1000
,
0001
1000
0001
1000
0001
0100
0010
1000
0100
0010
0100
0010
0001
1000
0001
1000
,
0001
0100
0010
1000
0010
1000
0010
0100
0001
1000
0100
1000
0100
1000
0100
0010
,
0001
0100
0001
0100
0010
1000
0001
0010
0100
1000
0100
1000
0001
0000
0000
0000
,
1000
0010
1000
0001
1000
0100
0010
0001
1000
0010
0100
0001
1000
0100
0010
0001
,
0100
0001
1000
0001
1000
0010
1000
0100
0010
0100
1000
0010
1000
0001
0100
0001
,
1000
0100
1000
0001
1000
0100
0010
0001
0100
0001
1000
0001
1000
0100
1000
0010
,
0100
0001
1000
0001
1000
0010
0100
0001
1000
0010
1000
0100
1000
0001
0010
0001
,
1000
0100
1000
0001
1000
0010
0100
0001
1000
0100
0010
0001
1000
0010
0100
0001
,
0010
0001
1000
0100
1000
0001
1000
0010
0100
0010
1000
0100
1000
0001
0010
0001
,
1000
0010
1000
0100
1000
0001
0010
0001
0100
0001
1000
0100
0010
0100
1000
0001
,
0010
0001
1000
0001
1000
0100
0010
0001
1000
0100
1000
0010
1000
0001
0100
0001
,
1000
0010
1000
0001
1000
0100
0010
0001
1000
0100
0010
0001
0010
0100
1000
0001
,
1000
0001
0100
0010
0100
0010
1000
0100
0010
0001
0100
0001
1000
0010
0100
0001
,
1000
0100
1000
0001
0010
0001
1000
0001
0010
0001
0100
0010
0100
0001
1000
0010
,
0100
0001
1000
0001
1000
0010
0100
0001
1000
0010
1000
0100
1000
0001
0010
0001
,
1000
0100
1000
0001
1000
0010
0100
0001
1000
0010
0100
0001
0100
0010
1000
0001
,
1000
0001
0010
0100
0010
0001
0100
0001
1000
0001
0010
0100
1000
0100
0010
0001
,
1000
0010
1000
0100
1000
0010
0100
0001
1000
0100
0010
0001
0100
0010
0100
0010
,
1000
0001
0100
0001
0010
0001
1000
0100
1000
0001
1000
0100
1000
0001
0100
0001
,
2000
0000
0000
3001
2000
0000
0000
3001
2000
0000
0000
3100
0100
0010
0001
0001
,
0200
0000
0302
0000
1003
0010
1000
1000
0200
0000
2300
0000
3001
0010
0001
0000
,
0200
0000
0310
0010
2000
0000
3002
0000
0023
0000
0031
1000
0000
0000
1000
1000
,
0010
0100
0010
0100
0010
0100
0010
0100
0010
0000
0000
0000
0000
0000
0000
0000
,
1000
0010
0100
0001
0100
0001
0100
0010
1000
0001
0010
0001
0010
0001
0010
0100
,
1000
0001
0100
0001
1000
0100
0010
0001
0100
0010
0100
0010
1000
0001
1000
0001
,
1000
0100
0010
0001
0010
0001
0010
0100
1000
0001
0100
0001
0100
0001
0100
0010
,
1000
0100
1000
0100
0010
0001
1000
0010
0100
0001
0100
0001
1000
0001
1000
0001
,
1000
0100
0010
0001
0010
0001
0010
0100
1000
0001
0100
0001
0100
0001
0100
0010
,
1000
0001
0010
0001
1000
0010
0100
0001
0010
0100
0010
0100
1000
0001
1000
0001
,
1000
0010
0100
0001
0100
0001
0100
0010
1000
0001
0010
0001
0010
0001
0010
0100
,
1000
0010
1000
0010
0100
0001
1000
0100
0010
0001
0010
0001
1000
0001
1000
0001
,
0100
0010
0100
0010
1000
0001
0100
0001
0010
0100
0010
0100
1000
0001
0100
0001
,
1000
0010
1000
0010
1000
0100
0010
0001
0100
0010
0100
0010
1000
0001
1000
0001
,
1000
0100
0010
0001
0010
0001
0010
0100
1000
0001
0100
0001
0100
0001
0100
0010
,
1000
0100
1000
0100
0010
0001
1000
0010
0100
0001
0100
0001
1000
0001
1000
0001
,
0010
0100
0010
0100
1000
0001
0010
0001
0100
0010
0100
0010
1000
0001
0010
0001
,
1000
0001
1000
0001
1000
0010
0100
0001
0010
0100
0010
0100
1000
0001
1000
0001
,
1000
0010
0100
0001
0100
0001
0100
0010
1000
0001
0010
0001
0010
0001
0010
0100
,
1000
0010
1000
0010
0100
0001
1000
0100
0010
0001
0010
0001
1000
0000
0000
0000
,
1010
0000
0000
0110
0000
0000
0101
0001
2000
0000
0000
3001
2000
0000
3000
0000
,
1100
0000
0000
0110
0000
0000
0011
0001
2000
0000
0000
3001
2000
0000
3000
0010
,
1010
0000
0000
0110
0000
0000
0101
0000
0000
0000
0000
0000
0000
0000
0000
0000
,
1100
0000
0000
0110
0000
0000
0011
0000
0000
0000
0000
0001
1000
0001
1000
1000
,
0020
0000
0130
0010
0020
0000
1030
0010
,
0020
0000
1030
0001
0001
1000
0001
0001
,
0020
0000
0230
0000
1300
0001
1000
1000
,
0020
0000
0230
0000
0301
1000
0001
0000
,
2000
0000
3100
0100
0020
0000
0032
0000
,
0103
0000
0001
1000
0010
0000
1000
1000
,
0001
0010
0001
1000
0001
0100
0001
1000
,
0001
0000
0000
0000
0000
0000
0000
0000
0000
0000
0000
0000
0000
0000
0000
0000
0000
0000
0000
0000
0000
0000
0000
0000
1000
0000
0000
0000
0000
0000
0000
0000
0000
0000
0000
0000
0000
0000
0000
0000
0000
0000
0010
0000
0000
0000
0000
0000
0000
0000
0000
0000
0000
0000
0000
0000
0000
0000
0000
0000
1000
0000
0000
0000
0000
0000
0000
0000
0000
0000
0000
0000
0000
0000
0000
0000
0000
0000
0001
0000
0000
0000
0000
0000
0000
0000
0000
0000
0000
0000
0000
0000
0000
0000
0000
0000
1000
0000
0000
0000
0000
0000
0000
0000
0000
0000
0000
0000
0000
0000
0000
0000
0100
0000
0000
0000
0000
0000
0000
0000
0000
0000
0000
0000
0000
0000
0000
0000
0010
0000
0000
0000
0000
0000
0000
0000
0000
0000
0000
0000
0000
0000
0000
0000
0001
0000
0000
0000
0000
0000
0000
0000
0000
0000
0000
0000
1000
0000
0000
0000
0000
0000
0000
0000
0000
0000
0000
0000
0100
0000
0000
0000
0000
0000
0000
0000
0000
0000
0000
0000
1000
0000
0000
0000
0000
0000
0000
0000
0000
0000
0000
0000
,
0001
0100
0010
1000
0010
1000
0010
0100
0001
1000
0100
1000
0100
1000
0100
0010
,
0001
1000
0010
1000
0001
0010
0100
1000
0010
0100
0010
0100
0001
1000
0001
1000
,
0001
0010
0100
1000
0100
1000
0100
0010
0001
1000
0010
1000
0010
1000
0010
0100
,
0001
0010
0001
0010
0100
1000
0001
0100
0010
1000
0010
1000
0001
1000
0001
1000
,
0001
0010
0100
1000
0100
1000
0100
0010
0001
1000
0010
1000
0010
1000
0010
0100
,
0001
1000
0100
1000
0001
0100
0010
1000
0100
0010
0100
0010
0001
1000
0001
1000
,
0001
0100
0010
1000
0010
1000
0010
0100
0001
1000
0100
1000
0100
1000
0100
0010
,
0001
0100
0001
0100
0010
1000
0001
0010
0100
1000
0100
1000
0001
1000
0001
1000
,
0010
0100
0010
0100
0001
1000
0010
1000
0100
0010
0100
0010
0001
1000
0010
1000
,
0001
0100
0001
0100
0001
0010
0100
1000
0010
0100
0010
0100
0001
1000
0001
1000
,
0001
0010
0100
1000
0100
1000
0100
0010
0001
1000
0010
1000
0010
1000
0010
0100
,
0001
0010
0001
0010
0100
1000
0001
0100
0010
1000
0010
1000
0001
1000
0001
1000
,
0100
0010
0100
0010
0001
1000
0100
1000
0010
0100
0010
0100
0001
1000
0100
1000
,
0001
1000
0001
1000
0001
0100
0010
1000
0100
0010
0100
0010
0001
1000
0001
1000
,
0001
0100
0010
1000
0010
1000
0010
0100
0001
1000
0100
1000
0100
1000
0100
0010
,
0001
0100
0001
0100
0010
1000
0001
0010
0100
1000
0100
1000
0001
0000
0000
0000
,
0100
0010
0000
1000
0100
0000
1000
0001
;

//---------------dance-single - Gazebo----------------
#NOTES:
     dance-single:
     Gazebo:
     Easy:
     12:
     0.877,0.930,0.101,0.387,1.000,1120.000,20.000,77.000,0.000,0.000:

4000
0000
0000
3040
0000
0000
0430
0000
,
0000
0000
0000
0000
0000
0000
0000
0310
,
0400
0000
0301
0040
0000
0031
4000
0000
,
0000
0000
0000
0000
0000
0000
0000
3100
,
4000
0000
0000
3040
0000
0000
0430
0000
,
0000
0000
0000
0000
0000
0000
0000
0310
,
0400
0000
0301
0040
0000
0031
4000
0000
,
0000
0000
0000
0000
0000
0000
0000
0000
3001
0010
0001
0000
0200
0000
0000
0000
,
0301
2000
3200
0320
,
0031
1000
0000
0001
0000
0200
0000
0000
,
0310
0000
0010
1000
0000
0001
0000
0001
,
1000
0100
1000
0100
0010
0001
1000
0010
,
1000
0002
0023
0230
,
1300
0001
0000
1000
0000
0020
0000
0000
,
0130
0001
0100
0001
1000
0100
0020
0000
,
0031
0010
0001
0010
0100
1000
0001
0100
,
0001
2000
3020
2030
,
3100
0000
0100
0010
0000
0020
0000
0000
,
0031
0000
1000
0001
1000
0010
0200
0000
,
0301
0100
0001
0100
0010
1000
0001
0010
,
0001
2000
3200
2300
,
3010
0000
0010
0100
0000
0200
0000
0000
,
0301
1000
0100
0010
0001
1000
0020
0000
,
0000
0000
0000
1030
0100
1000
0100
0010
,
0002
0000
0000
1003
0002
0000
0000
1003
0002
0000
0000
0013
0010
0100
1000
1000
,
0020
0000
2030
0000
3001
0100
0001
0001
0020
0000
0032
0000
1003
0100
1000
0000
,
0020
0000
0130
0100
0002
0000
2003
0000
3200
0000
1300
0001
0000
0000
0001
0001
,
0100
0000
0000
0000
0000
0000
0000
0000
0000
0000
0000
0000
0010
0000
0000
0000
0000
0000
0000
0000
0000
0000
0000
0000
0100
0000
0000
0000
0000
0000
0000
0000
0000
0000
0000
0000
0010
0000
0000
0000
0000
0000
0000
0000
0000
0000
0000
0000
0100
0000
0000
0000
0000
0000
0000
0000
0000
0000
0000
0000
0010
0000
0000
0000
0000
0000
0000
0000
0000
0000
0000
0000
0100
0000
0000
0000
0000
0000
0000
0000
0000
0000
0000
0000
0010
0000
0000
0000
0000
0000
0000
0000
0000
0000
0000
0000
0000
0000
0000
0000
0000
0000
0000
0000
0000
0000
0000
0000
1000
0000
0000
0000
0000
0000
0000
0000
0000
0010
0000
0000
0000
0000
0000
0000
0000
0000
1000
0000
0000
0000
0000
0000
0000
0000
0000
0001
0000
0000
0000
0000
0000
0000
0000
0000
1000
0000
0000
0000
0000
0000
0000
0000
0100
0000
0000
0000
0000
0000
0000
0000
0010
0000
0000
0000
0000
0000
0000
0000
0001
0000
0000
0000
0000
0000
1000
0000
0000
0000
0000
0000
0100
0000
0000
0000
0000
0000
1000
0000
0000
0000
0000
0000
,
0001
0100
0010
1000
0010
1000
0010
0100
0001
1000
0100
1000
0100
1000
0100
0010
,
0001
1000
0010
1000
0001
0010
0100
1000
0010
0100
0010
0100
0001
1000
0001
1000
,
0001
0010
0100
1000
0100
1000
0100
0010
0001
1000
0010
1000
0010
1000
0010
0100
,
0001
0010
0001
0010
0100
1000
0001
0100
0010
1000
0010
1000
0001
1000
0001
1000
,
0001
0010
0100
1000
0100
1000
0100
0010
0001
1000
0010
1000
0010
1000
0010
0100
,
0001
1000
0100
1000
0001
0100
0010
1000
0100
0010
0100
0010
0001
1000
0001
1000
,
0001
0100
0010
1000
0010
1000
0010
0100
0001
1000
0100
1000
0100
1000
0100
0010
,
0001
0100
0001
0100
0010
1000
0001
0010
0100
1000
0100
1000
0001
1000
0001
1000
,
0010
0100
0010
0100
0001
1000
0010
1000
0100
0010
0100
0010
0001
1000
0010
1000
,
0001
0100
0001
0100
0001
0010
0100
1000
0010
0100
0010
0100
0001
1000
0001
1000
,
0001
0010
0100
1000
0100
1000
0100
0010
0001
1000
0010
1000
0010
1000
0010
0100
,
0001
0010
0001
0010
0100
1000
0001
0100
0010
1000
0010
1000
0001
1000
0001
1000
,
0100
0010
0100
0010
0001
1000
0100
1000
0010
0100
0010
0100
0001
1000
0100
1000
,
0001
1000
0001
1000
0001
0100
0010
1000
0100
0010
0100
0010
0001
1000
0001
1000
,
0001
0100
0010
1000
0010
1000
0010
0100
0001
1000
0100
1000
0100
1000
0100
0010
,
0001
0100
0001
0100
0010
1000
0001
0010
0100
1000
0100
1000
0001
0000
0000
0000
,
1000
0002
0023
0230
,
1300
0000
0001
1000
0000
0020
0000
0000
,
0130
0000
0100
0000
0002
0000
1003
0001
,
1000
0100
1000
0100
0010
0001
1000
0010
,
1000
0002
0023
0230
,
1300
0001
0000
1000
0020
0000
0000
0000
,
0130
0001
0100
0001
1000
0100
0020
0000
,
0031
0010
0001
0010
0100
1000
0001
0100
,
0001
2000
3020
2030
,
3100
0010
0000
0100
0000
2000
0000
0000
,
3001
0100
0001
0100
0001
1000
0200
0000
,
1300
0100
1000
0100
0010
0001
1000
0010
,
1000
0002
0203
0302
,
1003
0100
0000
2000
0000
3002
0000
0000
,
1003
0010
0100
0010
1000
0100
0020
0000
,
0000
0000
0000
0031
0100
0001
0100
0010
,
2000
0000
0000
3001
2000
0000
0000
3001
2000
0000
0000
3100
0100
0010
0001
0001
,
0200
0000
0302
0000
1003
0010
1000
1000
0200
0000
2300
0000
3001
0010
0001
0000
,
0200
0000
0310
0010
2000
0000
3002
0000
0023
0000
0031
1000
0000
0000
1000
1000
,
0010
0100
0010
0100
0010
0100
0010
0100
0010
0000
0000
0000
0000
0000
0000
0000
,
1000
0010
0100
0001
0100
0001
0100
0010
1000
0001
0010
0001
0010
0001
0010
0100
,
1000
0001
0100
0001
1000
0100
0010
0001
0100
0010
0100
0010
1000
0001
1000
0001
,
1000
0100
0010
0001
0010
0001
0010
0100
1000
0001
0100
0001
0100
0001
0100
0010
,
1000
0100
1000
0100
0010
0001
1000
0010
0100
0001
0100
0001
1000
0001
1000
0001
,
1000
0100
0010
0001
0010
0001
0010
0100
1000
0001
0100
0001
0100
0001
0100
0010
,
1000
0001
0010
0001
1000
0010
0100
0001
0010
0100
0010
0100
1000
0001
1000
0001
,
1000
0010
0100
0001
0100
0001
0100
0010
1000
0001
0010
0001
0010
0001
0010
0100
,
1000
0010
1000
0010
0100
0001
1000
0100
0010
0001
0010
0001
1000
0001
1000
0001
,
0100
0010
0100
0010
1000
0001
0100
0001
0010
0100
0010
0100
1000
0001
0100
0001
,
1000
0010
1000
0010
1000
0100
0010
0001
0100
0010
0100
0010
1000
0001
1000
0001
,
1000
0100
0010
0001
0010
0001
0010
0100
1000
0001
0100
0001
0100
0001
0100
0010
,
1000
0100
1000
0100
0010
0001
1000
0010
0100
0001
0100
0001
1000
0001
1000
0001
,
0010
0100
0010
0100
1000
0001
0010
0001
0100
0010
0100
0010
1000
0001
0010
0001
,
1000
0001
1000
0001
1000
0010
0100
0001
0010
0100
0010
0100
1000
0001
1000
0001
,
1000
0010
0100
0001
0100
0001
0100
0010
1000
0001
0010
0001
0010
0001
0010
0100
,
1000
0010
1000
0010
0100
0001
1000
0100
0010
0001
0010
0001
1000
0000
0000
0000
,
1010
0000
0000
0110
0000
0000
0101
0001
2000
0000
0000
3001
2000
0000
3000
0000
,
1100
0000
0000
0110
0000
0000
0011
0001
2000
0000
0000
3001
2000
0000
3000
0010
,
1010
0000
0000
0110
0000
0000
0101
0000
0000
0000
0000
0000
0000
0000
0000
0000
,
1100
0000
0000
0110
0000
0000
0011
0000
0000
0000
0000
0001
1000
0001
1000
1000
,
0020
0000
0130
0010
0020
0000
1030
0010
,
0020
0000
1030
0001
0001
1000
0001
0001
,
0020
0000
0230
0000
1300
0001
1000
1000
,
0020
0000
0230
0000
0301
1000
0001
0000
,
2000
0000
3100
0100
0020
0000
0032
0000
,
0103
0000
0001
1000
0010
0000
1000
1000
,
0001
0010
0001
1000
0001
0100
0001
1000
,
0001
0000
0000
0000
0000
0000
0000
0000
0000
0000
0000
0000
0000
0000
0000
0000
0000
0000
0000
0000
0000
0000
0000
0000
1000
0000
0000
0000
0000
0000
0000
0000
0000
0000
0000
0000
0000
0000
0000
0000
0000
0000
0010
0000
0000
0000
0000
0000
0000
0000
0000
0000
0000
0000
0000
0000
0000
0000
0000
0000
1000
0000
0000
0000
0000
0000
0000
0000
0000
0000
0000
0000
0000
0000
0000
0000
0000
0000
0001
0000
0000
0000
0000
0000
0000
0000
0000
0000
0000
0000
0000
0000
0000
0000
0000
0000
1000
0000
0000
0000
0000
0000
0000
0000
0000
0000
0000
0000
0000
0000
0000
0000
0100
0000
0000
0000
0000
0000
0000
0000
0000
0000
0000
0000
0000
0000
0000
0000
0010
0000
0000
0000
0000
0000
0000
0000
0000
0000
0000
0000
0000
0000
0000
0000
0001
0000
0000
0000
0000
0000
0000
0000
0000
0000
0000
0000
1000
0000
0000
0000
0000
0000
0000
0000
0000
0000
0000
0000
0100
0000
0000
0000
0000
0000
0000
0000
0000
0000
0000
0000
1000
0000
0000
0000
0000
0000
0000
0000
0000
0000
0000
0000
,
0001
0100
0010
1000
0010
1000
0010
0100
0001
1000
0100
1000
0100
1000
0100
0010
,
0001
1000
0010
1000
0001
0010
0100
1000
0010
0100
0010
0100
0001
1000
0001
1000
,
0001
0010
0100
1000
0100
1000
0100
0010
0001
1000
0010
1000
0010
1000
0010
0100
,
0001
0010
0001
0010
0100
1000
0001
0100
0010
1000
0010
1000
0001
1000
0001
1000
,
0001
0010
0100
1000
0100
1000
0100
0010
0001
1000
0010
1000
0010
1000
0010
0100
,
0001
1000
0100
1000
0001
0100
0010
1000
0100
0010
0100
0010
0001
1000
0001
1000
,
0001
0100
0010
1000
0010
1000
0010
0100
0001
1000
0100
1000
0100
1000
0100
0010
,
0001
0100
0001
0100
0010
1000
0001
0010
0100
1000
0100
1000
0001
1000
0001
1000
,
0010
0100
0010
0100
0001
1000
0010
1000
0100
0010
0100
0010
0001
1000
0010
1000
,
0001
0100
0001
0100
0001
0010
0100
1000
0010
0100
0010
0100
0001
1000
0001
1000
,
0001
0010
0100
1000
0100
1000
0100
0010
0001
1000
0010
1000
0010
1000
0010
0100
,
0001
0010
0001
0010
0100
1000
0001
0100
0010
1000
0010
1000
0001
1000
0001
1000
,
0100
0010
0100
0010
0001
1000
0100
1000
0010
0100
0010
0100
0001
1000
0100
1000
,
0001
1000
0001
1000
0001
0100
0010
1000
0100
0010
0100
0010
0001
1000
0001
1000
,
0001
0100
0010
1000
0010
1000
0010
0100
0001
1000
0100
1000
0100
1000
0100
0010
,
0001
0100
0001
0100
0010
1000
0001
0010
0100
1000
0100
1000
0001
0000
0000
0000
,
0100
0010
0000
1000
0100
0000
1000
0001
;
