#TITLE:Scatman;
#SUBTITLE:Ryu* Remix;
#ARTIST:Scatman John;
#TITLETRANSLIT:;
#SUBTITLETRANSLIT:;
#ARTISTTRANSLIT:;
#CREDIT:Arvin;
#BANNER:../Tachyon Gamma-bn.png;
#BACKGROUND:../Tachyon Gamma-bg.png;
#LYRICSPATH:;
#CDTITLE:;
#MUSIC:Scatman Ryu.ogg;
#OFFSET:0.026;
#SAMPLESTART:25.750;
#SAMPLELENGTH:14.500;
#SELECTABLE:YES;
#DISPLAYBPM:149.000;
#BPMS:0.000=149.000;
#STOPS:;
#BGCHANGES:;
// cache tags:
#FIRSTBEAT:12.000;
#LASTBEAT:251.000;
#SONGFILENAME:Songs/Tachyon Gamma/Scatman Ryu - [Arvin]/Scatman Ryu.sm;
#HASMUSIC:1;
#HASBANNER:1;
#MUSICLENGTH:102.231;
// end cache tags

//---------------dance-single - Arvin----------------
#NOTES:
     dance-single:
     Arvin:
     Challenge:
     14:
     1.000,1.000,0.078,0.098,1.000,730.000,8.000,10.000,24.000,0.000:

0000
0000
0000
0000
,
0000
0000
0000
0000
,
0000
0000
0000
0000
,
1001
1001
0000
0000
0000
0000
0000
0000
,
1001
1001
0000
0000
0000
0000
0000
0000
,
1001
1001
MMMM
0000
1001
1001
MMMM
0000
,
1000
0100
0100
0001
0100
0100
1000
0100
0100
0001
0100
0100
1000
0100
0100
0001
,
2000
0000
0000
0000
3000
0000
MMMM
0000
0000
0000
0000
1000
0001
0010
0001
1000
,
0002
0000
0000
0000
0013
0000
0100
0000
1000
0001
0000
0100
0000
0000
0000
0000
,
0000
0000
0000
0000
0010
0000
1000
0000
0001
0010
0000
0100
0000
0000
0000
0000
,
2000
0000
0000
0000
3100
0000
0010
0000
0001
1000
0000
0010
0000
0000
0000
0000
,
0000
0000
0000
0000
0100
0000
0001
0000
1000
0100
0000
0010
0001
0010
0100
1000
,
0002
0000
0000
0000
0013
0000
0100
0000
1000
0001
0000
0100
0000
0000
0000
0000
,
0000
0000
0000
0000
0010
0000
1000
0000
0001
0010
0000
0100
0000
0000
0000
0000
,
2000
0000
0000
0000
3100
0000
0010
0000
0001
1000
0000
0010
0000
0000
0000
0000
,
0000
0000
0000
0000
0100
0000
0001
0000
1000
0100
0000
0010
0001
0010
0100
1000
,
0001
0000
0000
0010
0000
0000
0000
0000
0000
0100
0000
0000
1000
0000
0000
0001
0000
0000
0100
0000
0000
0010
0000
0000
1000
0000
0001
0000
0010
0000
0100
0000
0000
1000
0000
0000
0001
0000
0000
0100
0000
0000
0010
0000
0000
1000
0000
0000
,
0001
1000
0010
0100
0001
0100
0010
1000
0100
0010
0001
0010
0100
1000
0001
0010
0001
0100
0010
1000
0100
1000
0010
0100
,
0001
0010
0100
1000
0100
0010
0001
0100
0010
1000
0100
0010
0001
0010
0100
1000
0001
0100
0001
0100
0010
1000
0010
1000
,
0001
0010
0001
0010
0100
1000
0100
1000
0001
0010
0100
1000
0001
0100
0001
1000
0010
0100
0001
0100
0010
1000
0001
1000
,
0001
1000
0100
0010
0001
0010
0100
1000
0010
0100
0001
0100
0010
1000
0001
0100
0001
0010
0100
1000
0010
1000
0100
0010
,
0001
0100
0010
1000
0010
0100
0001
0010
0100
1000
0010
0100
0001
0100
0010
1000
0001
0010
0001
0010
0100
1000
0100
1000
,
0001
0000
0100
0000
0001
0000
0100
0000
0010
0000
1000
0000
0010
0000
1000
0000
0001
0000
0100
0000
0010
0000
1000
0000
0001
0000
0000
0010
0000
0000
0100
0000
0000
1000
0000
0000
0100
0000
0000
0010
0000
0000
0001
0000
0000
1000
0000
0000
,
0001
0100
0100
1000
0001
0100
0100
1000
0001
0100
0100
1000
0001
0100
0100
1000
,
0001
0100
0100
1000
0001
0100
0100
1000
0001
0100
0001
0000
MMMM
0000
0000
0000
,
1000
0100
1000
0010
0100
0001
1000
0100
0000
0010
0001
0100
0000
0010
1000
0100
,
0000
0010
0000
0001
0010
0100
1000
0000
0001
0000
0000
0000
0000
0000
0100
0001
,
1000
0100
0010
0001
0000
1000
0010
1000
0001
0100
0010
1000
0001
0000
0010
0100
,
1000
0000
0001
0100
0010
1000
0000
0000
0001
0000
0010
0000
0100
0000
0000
0000
,
1000
0100
0010
0001
1000
0010
0100
0001
1000
0000
0100
0000
0010
0001
1000
0100
,
0000
0010
0001
1000
0100
0010
0001
1000
0010
0000
0000
0000
0000
0000
0000
1000
,
0010
0100
0001
0000
1000
0010
0100
0001
1000
0100
0010
0000
0001
0000
1000
0100
,
0010
0001
1000
0010
0100
0000
0001
1000
0100
0000
1000
0001
0000
0010
0000
0001
,
0100
0001
1000
0010
0100
0001
1000
0010
,
0100
0001
0100
0010
1000
0001
0010
0100
,
1000
0100
0010
0001
0100
0010
1000
0100
,
0010
0001
0010
0100
1000
0001
0100
0000
,
0001
0100
0010
1000
0010
0100
0001
0010
0100
0010
0100
1000
0001
0100
0001
1000
,
0010
0100
0010
1000
0001
0010
0100
1000
0100
0000
0000
0000
0000
0000
0000
0010
,
0001
1000
0010
0100
0001
0100
0010
1000
0000
0001
0010
0100
1000
0100
0010
0001
,
1000
0000
0000
0010
0000
0000
0100
0000
0000
0010
0000
0000
1000
0000
0000
0001
0000
0000
1000
0000
0000
0100
0000
0000
0010
0000
0000
0000
0001
0000
0000
0000
1000
0000
0000
0000
0010
0000
0000
0000
0000
0000
0000
0000
0000
0000
0000
0000
,
1000
0010
1000
0100
0010
0001
1000
0010
0000
0100
0001
0010
0000
0100
1000
0010
,
0000
0100
0000
0001
0100
0010
1000
0001
0000
0000
0000
0000
0000
0000
0010
0001
,
1000
0010
0100
0001
0000
1000
0100
0000
0010
0001
1000
0010
0100
0000
0001
1000
,
0100
0010
0000
0001
1000
0001
0100
0010
1000
0000
0100
0000
0010
0001
0000
1000
,
0010
0000
0200
0000
0000
0000
0300
0000
MMMM
0000
0000
0001
1000
0100
1000
0001
,
2000
0000
0000
0000
3100
0000
0010
0000
0001
1000
0000
0010
0000
0000
0000
0000
,
0000
0000
0000
0000
0100
0000
0001
0000
1000
0100
0000
0010
0000
0000
0000
0000
,
0002
0000
0000
0000
0013
0000
0100
0000
1000
0001
0000
0100
0000
0000
0000
0000
,
0000
0000
0000
0000
0010
0000
1000
0000
0001
0010
0000
0100
1000
0100
0010
0001
,
2000
0000
0000
0000
3100
0000
0010
0000
0001
1000
0000
0010
0000
0000
0000
0000
,
0000
0000
0000
0000
0100
0000
0001
0000
1000
0100
0000
0010
0000
0000
0000
0000
,
0002
0000
0000
0000
0013
0000
0100
0000
1000
0001
0000
0100
0000
0000
0000
0000
,
0000
0000
0000
0000
0010
0000
1000
0000
0001
0010
0000
0100
1000
0100
0010
0001
,
1000
0000
0000
0100
0000
0000
0000
0000
0000
0010
0000
0000
0001
0000
0000
1000
0000
0000
0010
0000
0000
0100
0000
0000
0001
0000
1000
0000
0100
0000
0010
0000
0000
0001
0000
0000
1000
0000
0000
0010
0000
0000
0100
0000
0000
0001
0000
0000
,
1000
0001
0100
0010
1000
0010
0100
0001
0010
0100
1000
0100
0010
0001
1000
0100
1000
0010
0100
0001
0010
0001
0100
0010
,
1000
0100
0010
0001
0010
0100
1000
0010
0100
0001
0010
0100
1000
0100
0010
0001
1000
0010
1000
0010
0100
0001
0100
0001
,
1000
0100
1000
0100
0010
0001
0010
0001
1000
0100
0010
0001
1000
0010
1000
0001
0100
0010
1000
0010
0100
0001
1000
0001
,
1000
0001
0010
0100
1000
0100
0010
0001
0100
0010
1000
0010
0100
0001
1000
0010
1000
0100
0010
0001
0100
0001
0010
0100
,
1000
0010
0100
0001
0100
0010
1000
0100
0010
0001
0100
0010
1000
0010
0100
0001
1000
0100
1000
0100
0010
0001
0010
0001
,
1000
0000
0010
0000
1000
0000
0010
0000
0100
0000
0001
0000
0100
0000
0001
0000
1000
0000
0010
0000
0100
0000
0001
0000
1000
0000
0000
0100
0000
0000
0010
0000
0000
0001
0000
0000
0010
0000
0000
0100
0000
0000
1000
0000
0000
0001
0000
0000
,
1000
0010
0010
0001
1000
0010
0010
0001
1000
0010
0010
0001
1000
0010
0010
0001
,
1000
0010
0010
0001
1000
0010
0010
0001
1000
0010
1000
0000
MMMM
0000
0000
0000
;
