#TITLE:Blue Noah;
#SUBTITLE:2006;
#ARTIST:DJ Sharpnel;
#TITLETRANSLIT:;
#SUBTITLETRANSLIT:;
#ARTISTTRANSLIT:;
#CREDIT:;
#BANNER:blue noah bn.png;
#BACKGROUND:blue noah bg.png;
#LYRICSPATH:;
#CDTITLE:;
#MUSIC:Blue Noah 2006.ogg;
#OFFSET:-0.327;
#SAMPLESTART:184.249;
#SAMPLELENGTH:23.478;
#SELECTABLE:YES;
#BPMS:0.000=184.000;
#STOPS:;
#BGCHANGES:;
// cache tags:
#FIRSTBEAT:4.000;
#LASTBEAT:1020.000;
#SONGFILENAME:Songs/SHARPNELSTREAMZ v2/Blue Noah 2006/Blue Noah.sm;
#HASMUSIC:1;
#HASBANNER:1;
#MUSICLENGTH:340.218;
// end cache tags

//---------------dance-single - 16- (TYLR)----------------
#NOTES:
     dance-single:
     16- (TYLR):
     Challenge:
     16:
     1.000,1.000,0.165,0.168,1.000,3293.000,56.000,57.000,1.000,0.000:
0000
0000
0000
0000
,
0001
1100
0010
1001
,
0010
0101
1000
0110
,
0001
1010
0100
1001
,
0100
0000
0011
0000
1000
0000
0110
0001
,
1000
0011
0100
1001
,
0100
1010
0001
0110
,
1000
0011
0100
1001
,
0100
0000
1010
0000
0001
0000
1100
0010
,
0002
0003
1000
0000
0010
0000
1000
0000
0001
0100
0001
0000
0010
0000
0001
0000
,
1000
0000
0100
0000
0010
0000
0100
0000
1000
0001
1000
0000
0010
0000
0100
0000
,
0001
0000
1000
0000
0010
0000
1000
0000
0001
0100
0001
0000
0010
0000
0001
0000
,
1000
0000
0100
0000
0010
0000
0100
0000
1000
0001
1000
0000
0010
0000
1000
0000
,
1000
0000
0001
0000
0010
0000
0001
0000
1000
0100
1000
0000
0010
0000
1000
0000
,
0001
0010
0001
0010
0100
1000
0100
1000
0001
1000
0010
0100
0001
0100
0010
1000
,
0001
0010
0100
1000
0001
1000
0100
0010
0001
1000
0010
0100
0001
0100
0010
1000
,
0100
0010
0100
1000
0001
1000
0010
0100
0001
1000
0001
0100
0010
1000
0100
0010
,
0001
0010
0001
0000
1000
0100
1000
0000
0001
1000
0001
0000
1000
0100
1000
0000
,
0001
1000
0001
0000
0100
0001
0100
0000
0010
1000
0010
0000
0100
0001
0100
0000
,
0010
1000
0010
0000
1000
0001
1000
0000
0001
0100
0001
0000
1000
0001
1000
0000
,
0001
0010
0001
0000
1000
0100
1000
0000
0001
1000
0001
0000
1000
0100
1000
0000
,
0010
1000
0010
0000
0100
0001
0100
0000
0010
0100
0010
0000
0100
0001
0100
0000
,
0001
1000
0001
0000
0010
0100
0010
0000
0001
0010
0001
0000
0010
0100
0010
0000
,
0001
1000
0001
0000
0100
0010
0100
0000
0001
0100
0001
0000
0100
0010
0100
0000
,
0001
1000
0001
0000
0010
0100
0010
0000
0002
0003
0200
0300
0020
0000
0000
0030
,
101M
1000
1001
0001
0010
0100
1100
1000
,
0100
0000
0010
0000
0011
0000
0001
0000
1000
0000
0010
0100
0000
0001
1000
0000
,
0100
0010
0011
0001
0100
0010
1010
1000
,
0010
0000
0100
0000
0101
0000
0001
0000
0010
0000
0100
1000
0000
0010
0100
0000
,
0001
0010
0011
0001
0100
0010
1010
1000
,
0010
0000
0100
0000
0101
0000
0001
0000
0010
0000
0100
1000
0000
0010
0100
0000
,
0001
1000
1100
0100
0010
0001
0101
0100
,
0010
0000
1000
0000
1001
0000
0001
0000
0010
0000
0100
1000
0000
0010
0100
0000
,
0101
0001
1001
1000
0100
0010
0011
0001
,
1000
0000
0001
0000
0101
0000
0100
0000
0010
0000
1000
0100
0000
0010
0001
0000
,
1000
0010
0110
0100
0001
1000
1100
0100
,
0010
0000
0001
0000
0101
0000
0100
0000
0010
0000
1000
0100
0000
0010
0001
0000
,
1000
0010
0110
0100
0001
1000
1001
0001
,
0010
0000
0100
0000
1100
0000
1000
0000
0001
0000
0100
0010
0000
1000
0100
0000
,
0010
0001
1000
0010
0100
0001
0010
0001
1000
0010
0100
0001
0010
0001
1000
0001
,
0010
0001
1000
0010
0100
0001
0010
0001
0100
0010
1000
0100
0010
0001
0100
0001
,
1000
0100
0010
0001
0100
0001
1000
0100
0010
0001
0100
0001
1000
0100
0010
0100
,
1000
0100
0010
0001
0100
0001
1000
0100
0010
0100
1000
0010
0100
0010
1000
0001
,
1000
0100
0010
0001
0100
0001
1000
0100
0010
0001
0100
0001
1000
0100
0010
0100
,
1000
0100
0010
0001
0100
0001
1000
0100
0010
0100
1000
0010
0100
0010
1000
0001
,
1000
0010
0100
0001
0010
0001
1000
0010
0100
0001
0010
0001
1000
0010
0100
0010
,
1000
0010
0100
0001
0010
0001
1000
0010
0100
0010
1000
0100
0010
0100
1000
0001
,
1000
0010
0100
0001
0010
0001
1000
0010
0100
0001
0010
0001
1000
0010
0100
0010
,
1000
0010
0100
0001
0010
0001
1000
0010
0100
0010
1000
0100
0010
0100
1000
0001
,
1000
0001
0100
0010
1000
0010
0100
0001
1000
0100
0010
0100
1000
0001
0100
0001
,
1000
0001
0100
0010
1000
0001
1000
0100
0010
0100
1000
0010
0100
0010
1000
0100
,
0010
0001
1000
0001
0100
0010
1000
0001
0010
0100
1000
0100
0010
0001
1000
0001
,
0010
0001
1000
0001
0100
0010
1000
0001
0010
0100
1000
0010
0100
0010
1000
0100
,
0010
0001
1000
0010
0100
0001
0010
0001
1000
0010
0100
0001
1000
0100
0010
0100
,
1000
0001
0100
0001
1000
0100
1000
0001
0100
0010
1000
0100
0010
0001
0100
0001
,
1000
0001
0100
0001
0010
0100
1000
0001
0100
0001
0010
0100
1000
0001
0100
0001
,
4000
0000
0000
0000
3040
0000
0000
0000
0130
0000
0000
0000
0010
1000
0010
1000
,
0001
0000
1000
0001
0000
1000
0001
1000
0100
0010
0001
0000
1000
0000
0100
0000
,
1000
0000
0001
1000
0000
0001
1000
0001
0010
0100
0010
0100
2000
0000
3000
0000
,
0001
0000
1000
0001
0000
1000
0001
1000
0010
0100
0001
0000
0100
0000
0010
0000
,
1000
0000
0001
1000
0000
0001
1000
0001
0010
0100
0010
0100
2000
0000
3000
0000
,
0001
0000
1000
0001
0000
1000
0001
1000
0010
0100
0001
0000
1000
0000
0010
0000
,
0100
0000
0001
0100
0000
0001
0100
0001
1000
0001
1000
0001
0020
0000
0030
0000
,
0100
0000
1000
0100
0000
1000
0100
1000
0001
0100
0010
0000
1000
0000
0001
0000
,
0010
0000
0001
0010
0000
0001
0010
0100
1000
0001
1000
0001
0200
0000
0300
0000
,
1010
0000
1000
0010
0000
1000
0010
1000
0001
0010
0100
0000
0010
0001
1000
0000
,
0010
0000
1000
0010
0000
1000
0010
1000
0001
0010
0100
0000
0010
0001
1000
0000
,
0010
0000
1000
0010
0000
1000
0010
1000
0001
0010
0100
0000
0010
0001
1000
0000
,
0010
0000
1000
0010
0000
1000
0010
1000
0001
0010
0100
0000
1000
0000
0010
0000
,
0100
0001
1000
0100
1000
0001
0100
0001
0010
0100
1000
0001
0100
0010
1000
0001
,
0010
0001
1000
0010
1000
0001
0010
0001
1000
0010
0100
0001
1000
0100
0010
0001
,
1000
0010
0100
0001
0010
0100
1000
0010
0100
0001
1000
0001
0100
0010
1000
0001
,
0010
0000
0000
0000
0000
0000
0001
0000
0000
0010
0000
0000
0000
0000
0000
0001
0000
0000
0010
0000
0000
0001
0000
0000
0010
0000
0000
0000
0000
0000
0100
0000
0000
0000
0000
0000
1000
0000
0000
0000
0000
0000
0010
0000
1000
0000
0010
0000
,
1000
0001
0010
0100
0000
1000
0100
1000
0010
0100
0001
0000
0100
0010
1000
0000
,
0001
1000
0001
1000
0000
0001
1000
0001
0010
0100
0000
0010
0100
0000
1000
0010
,
0100
0001
0100
0001
0000
0100
0001
0100
0010
1000
0001
0000
0010
0001
1000
0000
,
0010
1000
0000
0010
0100
0001
0100
0001
0010
0100
1000
0000
0001
0000
0100
0000
,
0010
1000
0010
1000
0000
0001
1000
0001
0010
0100
1000
0000
0100
0010
0001
0000
,
1000
0001
1000
0001
0000
1000
0001
1000
0010
0100
0000
0010
0100
0000
0001
0010
,
0100
1000
0100
1000
0000
0001
0010
0001
1000
0010
0100
0000
0010
1000
0001
0000
,
0010
0001
0000
0010
0001
1000
0010
0100
0001
1000
0100
0000
0010
0000
0001
0000
,
1000
0010
1000
0010
0000
1000
0010
1000
0001
0010
0100
0000
0010
0001
1000
0000
,
0010
1000
0010
1000
0000
0010
1000
0010
0100
0001
0000
0100
0001
0000
0010
0100
,
1000
0001
1000
0001
0000
1000
0001
1000
0010
0100
0001
0000
0100
0010
1000
0000
,
0001
1000
0000
0001
1000
0100
1000
0100
0010
0001
1000
0000
0010
0000
0100
0000
,
0001
1000
0001
1000
0000
0001
1000
0001
0010
0100
1000
0000
0100
0010
0001
0000
,
1000
0001
1000
0001
0000
1000
0001
1000
0010
0100
0000
0010
0100
0000
0001
0010
,
0100
1000
0100
1000
0000
0100
0010
0100
1000
0001
0100
0000
0001
1000
0010
0000
,
1000
0000
0001
1000
0000
0001
1000
0100
0010
0000
0001
1000
0010
1000
0010
1000
,
0100
0010
0001
1000
0000
0001
1000
0001
0100
0010
1000
0010
0100
0001
1000
0000
,
0100
0010
0001
1000
0000
0001
1000
0001
0100
0010
1000
0010
0100
0001
1000
0000
,
0100
0010
0001
1000
0000
0001
1000
0001
0100
0010
1000
0010
0100
0001
1000
0000
,
0100
0010
0000
0100
1000
0001
1000
0001
0100
0010
1000
0000
0100
0000
0010
0000
,
0001
1000
0010
0100
0000
0010
0100
0010
1000
0001
0010
0100
0010
0001
1000
0000
,
0001
1000
0010
0100
0000
0010
0100
0010
1000
0001
0010
0100
0010
0001
1000
0000
,
0001
1000
0010
0100
0000
0010
0100
0010
1000
0001
0010
0100
0010
0001
1000
0000
,
0010
0100
0000
0010
1000
0001
1000
0001
0010
0100
1000
0000
0001
0000
0100
0000
,
0010
0100
0001
1000
0000
0001
1000
0001
0010
0100
1000
0100
0010
0001
1000
0000
,
0010
0100
0001
1000
0000
0001
1000
0001
0010
0100
1000
0100
0010
0001
1000
0000
,
0010
0100
0001
1000
0000
0001
1000
0001
0010
0100
1000
0100
0010
0001
1000
0000
,
0010
0100
0000
0010
1000
0001
1000
0001
0010
0100
1000
0000
0010
0000
0100
0000
,
0001
1000
0001
0010
0100
1000
0100
0010
0001
1000
0001
0100
0010
1000
0010
0100
,
0001
1000
0001
0010
0100
1000
0001
0100
0010
1000
0100
0010
0001
0010
0100
1000
,
0010
1000
0010
0100
0001
1000
0001
0010
0100
0010
0001
1000
0010
0100
0001
0010
,
0100
0100
1000
0001
0001
0100
0010
0010
,
1002
0000
0000
2003
,
3200
0000
2300
0000
3020
0000
0230
0302
,
0000
0000
0003
0020
,
0230
0000
0320
0000
0032
0000
2003
3020
,
0000
0230
0302
0000
0003
0000
0000
0020
,
0032
0000
2003
3020
0000
0030
0000
0200
,
0302
0000
0023
0230
0000
2300
0000
3020
,
0000
0000
2030
0000
3020
0000
0230
0000
0000
0000
0000
0000
0301
1000
0001
1000
,
0001
0010
0001
0000
1000
0100
1000
0000
0001
0010
0001
0000
1000
0010
1000
0000
,
0100
0010
0100
0000
1000
0001
1000
0000
0001
0010
0001
0000
1000
0100
1000
0000
,
0001
0100
0001
0000
1000
0010
1000
0000
0001
0100
0001
0000
1000
0001
1000
0000
,
0100
0010
0100
0000
1000
0010
1000
0000
0001
0010
0001
0000
1000
0100
1000
0000
,
0001
0010
0001
0000
1000
0001
1000
0000
0001
0010
0001
0000
1000
0001
1000
0000
,
0010
1000
0010
0000
0100
0010
0100
0000
0010
1000
0010
0000
0100
0010
0100
0000
,
0101
0001
0000
1000
0000
0001
0000
0201
,
0000
0000
0310
0000
0010
0000
1000
2000
,
0000
0000
0000
0000
0000
0000
3000
0200
,
0000
0000
0000
0000
2300
3000
0000
0000
0020
0030
0000
0000
0200
0300
0000
0000
0002
0003
0000
0000
0020
0030
0200
0000
0000
0000
0000
0000
0320
0030
0002
0003
,
1000
0010
0100
0001
1000
0010
0100
0001
1000
0010
0100
0001
1000
0100
0010
0001
,
0100
0010
0100
0001
1000
0010
1000
0001
0010
0100
0010
0001
1000
0001
0100
0010
,
1000
0010
0100
0001
1000
0001
0100
0010
1000
0001
0100
0001
0010
0001
0010
0100
,
1000
0001
1000
0100
0010
0001
0010
0100
1000
0001
1000
0010
0100
0001
0100
0001
,
1000
0100
0010
0001
0010
0001
1000
0001
0010
0100
1000
0001
0010
0001
0100
0010
,
1000
0010
0100
0001
1000
0001
1000
0001
0010
0100
1000
0100
0010
0001
1000
0001
,
1000
0010
0100
0001
0010
0001
0010
0100
1000
0001
0100
0010
1000
0100
0010
0001
,
0010
0100
1000
0001
1000
0010
1000
0010
0100
0001
0100
0000
0010
0000
1000
0000
,
0001
0010
0100
1000
0001
0010
0100
1000
0001
0010
0100
1000
0001
0100
0010
1000
,
0100
0010
0100
1000
0001
0010
0001
1000
0010
0100
0010
1000
0001
1000
0100
0010
,
0001
0010
0100
1000
0001
1000
0100
0010
0001
1000
0100
1000
0010
1000
0010
0100
,
0001
1000
0001
0100
0010
1000
0010
0100
0001
1000
0001
0010
0100
1000
0100
1000
,
0001
0100
0010
1000
0010
1000
0001
1000
0010
0100
0001
0100
0010
1000
0001
1000
,
0001
0010
0100
1000
0001
1000
0100
0010
0001
1000
0100
1000
0001
1000
0100
0010
,
0001
0100
0010
1000
0001
1000
0010
0100
0010
1000
0001
0100
0001
1000
0100
0010
,
0100
0010
0001
0010
0100
1000
0001
1000
0010
0100
0010
0000
1000
0000
0001
0000
,
0010
0001
0010
0000
0100
1000
0100
0000
0010
0001
0010
0000
0100
1000
0020
0000
,
1030
0000
0000
0000
0002
0003
0000
0000
0020
0030
0000
0000
0200
0300
0000
0000
2000
3000
0000
0000
0002
0003
0200
0000
0000
0000
0000
0000
0320
0030
1000
0000
,
0001
0010
0100
1000
0001
0010
0100
1000
0001
0010
0100
1000
0001
0100
0010
1000
,
0100
0010
0100
1000
0001
0010
0001
1000
0010
0100
0010
1000
0001
1000
0100
0010
,
0001
0010
0100
1000
0001
1000
0100
0010
0001
1000
0100
1000
0010
1000
0010
0100
,
0001
1000
0001
0100
0010
1000
0010
0100
0001
1000
0001
0010
0100
1000
0100
1000
,
0001
0100
0010
1000
0010
1000
0001
1000
0010
0100
0001
1000
0010
1000
0100
0010
,
0001
0010
0100
1000
0001
1000
0001
1000
0010
0100
0001
0100
0010
1000
0001
1000
,
0001
0010
0100
1000
0010
1000
0010
0100
0001
1000
0100
0010
0001
0100
0010
1000
,
0010
0100
0001
1000
0001
0010
0001
0010
0100
1000
0100
0010
0001
1000
0100
1000
,
0001
0100
0010
1000
0001
0100
0010
1000
0001
0100
0010
1000
0001
0010
0100
1000
,
0010
0100
0010
1000
0001
0100
0001
1000
0100
0010
0100
1000
0001
1000
0010
0100
,
0001
0100
0010
1000
0001
1000
0010
0100
0001
1000
0010
1000
0100
1000
0100
0010
,
0001
1000
0001
0010
0100
1000
0100
0010
0001
1000
0001
0100
0010
1000
0010
1000
,
0001
0010
0100
1000
0100
1000
0001
1000
0100
0010
0001
0010
0100
1000
0001
1000
,
0001
0010
0100
1000
0001
1000
0100
0010
0001
1000
0001
0010
0100
0010
0001
1000
,
0001
0100
0010
1000
0001
1000
0010
0100
0010
1000
0001
0100
0001
1000
0100
0010
,
0100
0010
0001
0010
0100
1000
0001
1000
0010
1000
0010
0100
0001
1000
0001
1000
,
0100
1000
0001
0010
0100
0010
0001
1000
0010
0100
0001
1000
0100
1000
0010
1000
,
0010
1000
0001
1000
0100
0010
0001
1000
0010
0100
0001
0010
0100
0010
0001
1000
,
0010
0100
0010
0100
0001
1000
0100
0010
0100
0010
0001
1000
0010
0100
0010
1000
,
0001
0010
0001
0010
0100
1000
0001
0100
0001
0100
0010
1000
0001
0010
0001
1000
,
0010
0100
0010
0100
0001
1000
0100
0010
0100
0010
0001
1000
0001
0100
0001
1000
,
0100
0010
0100
0010
0001
1000
0010
0100
0010
0100
0001
1000
0100
0010
0100
1000
,
0001
0100
0001
0100
0010
1000
0001
0010
0001
0010
0100
1000
0001
0100
0001
1000
,
0100
0010
0100
0010
0001
1000
0010
0100
0010
0100
0001
1000
0100
0010
0100
1000
,
0001
0100
0001
0100
0010
1000
0001
0010
0001
0010
0100
1000
0001
0100
0001
0100
,
0010
1000
0001
1000
0001
1000
0100
0010
0001
1000
0001
1000
0010
0100
0001
1000
,
0100
0010
0001
1000
0001
1000
0010
0100
0001
1000
0001
1000
0100
0010
0100
1000
,
0001
0100
0010
1000
0010
1000
0001
0010
0100
1000
0100
1000
0001
0100
0010
1000
,
0001
0010
0100
1000
0100
1000
0001
0100
0010
1000
0010
1000
0001
0010
0100
1000
,
0001
0100
0010
1000
0010
1000
0001
0010
0100
1000
0100
1000
0001
0100
0010
1000
,
0100
1000
0010
0100
0001
1000
0001
1000
0100
0010
0100
1000
0001
1000
0001
0100
,
0010
1000
0001
0010
0100
0010
0001
1000
0010
0100
0001
0010
0100
0010
0001
0100
,
0010
1000
0100
0010
0001
0010
0100
1000
0010
0100
0001
0010
0100
1000
0010
0100
,
0001
0000
0000
0000
1000
0000
0000
0000
0001
0000
0010
0100
1000
0000
0010
0100
,
0001
1000
0100
0010
0001
0100
0010
1000
,
0010
0000
1000
0000
0100
0000
0010
0000
0001
0000
1000
0010
0000
1000
0001
0000
,
0010
0100
1000
0010
0100
0001
1000
0100
,
1000
0000
0100
0000
0010
0000
0001
0000
0100
0000
0010
1000
0000
0010
0100
0000
,
0001
0010
0100
1000
0010
0100
0001
0010
,
0001
0010
0001
1000
0100
1000
0001
0100
0010
1000
0010
0100
0001
1000
0100
0010
,
0001
1000
0010
0100
0001
0010
0100
1000
0010
1000
0100
0010
0001
0100
0010
1000
,
0001
0000
0000
0000
0000
0000
0000
0000
1000
0000
0001
0010
0000
0100
1000
0000
,
0001
0010
0100
1000
0010
1000
0001
0010
0100
1000
0010
1000
0001
0010
0100
0010
,
0001
0010
0100
1000
0010
1000
0001
0010
0100
0010
0001
0100
0010
0100
0001
1000
,
0001
0010
0100
1000
0010
1000
0001
0010
0100
1000
0010
1000
0001
0010
0100
0010
,
0001
0010
0100
1000
0010
1000
0001
0010
0100
0010
0001
0100
0010
0100
0001
1000
,
0001
0100
0010
1000
0100
1000
0001
0100
0010
1000
0100
1000
0001
0100
0010
0100
,
0001
0100
0010
1000
0100
1000
0001
0100
0010
0100
0001
0010
0100
0010
0001
1000
,
0001
0100
0010
1000
0100
1000
0001
0100
0010
1000
0100
1000
0001
0100
0010
0100
,
0001
0100
0010
1000
0100
1000
0001
0100
0010
0100
0001
0010
0100
0010
0001
1000
,
0001
1000
0010
0100
0001
0100
0010
1000
0001
0010
0100
0010
0001
1000
0010
1000
,
0001
1000
0010
0100
0001
1000
0001
0010
0100
0010
0001
0100
0010
0100
0001
0010
,
0100
1000
0001
1000
0010
0100
0001
1000
0100
0010
0001
0010
0100
1000
0001
1000
,
0100
1000
0001
1000
0010
0100
0001
1000
0100
0010
0001
0100
0010
0100
0001
0010
,
0100
1000
0001
0100
0010
1000
0100
1000
0001
0100
0010
1000
0001
0010
0100
0010
,
0001
1000
0010
1000
0001
0010
0001
1000
0010
0100
0001
0010
0100
1000
0010
1000
,
0001
1000
0010
1000
0100
0010
0001
1000
0010
1000
0100
0010
0001
1000
0010
1000
,
0001
1000
0010
1000
0100
0010
0001
1000
0010
1000
0001
0010
0100
1000
0010
0100
,
0001
0100
0010
1000
0100
1000
0001
0100
0010
1000
0100
1000
0001
0100
0010
0100
,
0001
0100
0010
1000
0100
1000
0001
0100
0010
0100
0001
0010
0100
0010
0001
1000
,
0001
0100
0010
1000
0100
1000
0001
0100
0010
1000
0100
1000
0001
0100
0010
0100
,
0001
0100
0010
1000
0100
1000
0001
0100
0010
0100
0001
0010
0100
0010
0001
1000
,
0001
0010
0100
1000
0010
1000
0001
0010
0100
1000
0010
1000
0001
0010
0100
0010
,
0001
0010
0100
1000
0010
1000
0001
0010
0100
0010
0001
0100
0010
0100
0001
1000
,
0001
0010
0100
1000
0010
1000
0001
0010
0100
1000
0010
1000
0001
0010
0100
0010
,
0001
0010
0100
1000
0010
1000
0001
0010
0100
0010
0001
0100
0010
0100
0001
1000
,
0001
1000
0100
0010
0001
0010
0100
1000
0001
0100
0010
0100
0001
1000
0100
1000
,
0001
1000
0100
0010
0001
1000
0001
0100
0010
0100
0001
0010
0100
0010
0001
0100
,
0010
1000
0001
1000
0100
0010
0001
1000
0010
0100
0001
0100
0010
1000
0001
1000
,
0010
1000
0001
1000
0100
0010
0001
1000
0010
0100
0001
0010
0100
0010
0001
0100
,
0010
1000
0001
0010
0100
1000
0010
1000
0001
0010
0100
1000
0001
0100
0010
0100
,
0001
1000
0100
1000
0001
0100
0001
1000
0100
0010
0001
0100
0010
1000
0100
1000
,
0001
1000
0100
1000
0010
0100
0001
1000
0100
1000
0010
0100
0001
1000
0100
1000
,
0004
0403
0320
0000
,
1030
0001
0010
0100
1000
0001
0010
0100
1000
0001
0010
0100
1000
0001
0100
0001
,
0010
0100
0010
0001
1000
0010
1000
0001
0010
0100
0010
0001
1000
0001
0100
0010
,
1000
0010
0100
0001
1000
0001
0100
0010
1000
0001
0100
0001
0010
0001
0010
0100
,
1000
0001
1000
0100
0010
0001
0010
0100
1000
0001
1000
0010
0100
0001
0100
0001
,
1000
0100
0010
0001
0010
0001
1000
0001
0010
0100
1000
0001
0010
0001
0100
0010
,
1000
0010
0100
0001
1000
0001
1000
0001
0010
0100
1000
0100
0010
0001
1000
0001
,
1000
0010
0100
0001
0010
0001
0010
0100
1000
0001
0100
0010
1000
0100
0010
0001
,
0010
0100
1000
0001
1000
0010
1000
0010
0100
0001
0100
0000
0010
0000
1000
0000
,
0001
0010
0100
1000
0001
0010
0100
1000
0001
0010
0100
1000
0001
0100
0010
1000
,
0100
0010
0100
1000
0001
0010
0001
1000
0010
0100
0010
1000
0001
1000
0100
0010
,
0001
0010
0100
1000
0001
1000
0100
0010
0001
1000
0100
1000
0010
1000
0010
0100
,
0001
1000
0001
0100
0010
1000
0010
0100
0001
1000
0001
0010
0100
1000
0100
1000
,
0001
0100
0010
1000
0010
1000
0001
1000
0010
0100
0001
0100
0010
1000
0001
1000
,
0001
0010
0100
1000
0001
1000
0100
0010
0001
1000
0100
1000
0001
1000
0100
0010
,
0001
0100
0010
1000
0001
1000
0010
0100
0010
1000
0001
0100
0001
1000
0100
0010
,
0100
0010
0001
0010
0100
1000
0001
1000
0010
0100
0010
0000
1000
0000
0001
0000
,
0010
0001
0010
0000
0100
1000
0100
0000
0010
0001
0010
0000
0100
1000
0001
0000
,
1000
0100
1000
0000
0001
0010
0001
0000
1000
0000
0001
0000
0100
0010
0100
0010
,
1000
0001
0010
0100
1000
0001
0010
0100
1000
0001
0010
0100
1000
0100
0010
0001
,
0100
0010
0100
0001
1000
0100
1000
0001
0100
0010
0100
0001
1000
0001
0010
0100
,
1000
0100
0010
0001
1000
0001
0010
0100
1000
0001
0010
0001
0100
0001
0100
0010
,
1000
0001
1000
0010
0100
0001
0100
0010
1000
0001
1000
0100
0010
0001
0010
0001
,
1000
0010
0100
0001
0100
0001
1000
0001
0100
0010
1000
0001
0100
0001
0010
0100
,
1000
0100
0010
0001
1000
0001
1000
0001
0100
0010
1000
0010
0100
0001
1000
0001
,
1000
0100
0010
0001
0100
0001
0100
0010
1000
0001
0010
0100
1000
0010
0100
0001
,
0100
0010
1000
0001
1000
0100
1000
0100
0010
0001
0010
0100
1000
0001
0100
0010
,
1000
0010
0100
0001
1000
0010
0100
0001
1000
0010
0100
0001
1000
0100
0010
0001
,
0100
0010
0100
0001
1000
0010
1000
0001
0010
0100
0010
0001
1000
0001
0100
0010
,
1000
0010
0100
0001
1000
0001
0100
0010
1000
0001
0100
0001
0010
0001
0010
0100
,
1000
0001
1000
0100
0010
0001
0010
0100
1000
0001
1000
0010
0100
0001
0100
0001
,
1000
0100
0010
0001
0010
0001
1000
0001
0010
0100
1000
0100
0010
0001
1000
0001
,
1000
0100
0010
0001
1000
0001
0010
0100
1000
0001
1000
0100
0010
0100
1000
0001
,
1000
0101
0000
0011
0000
1100
0000
1010
,
0000
0100
0001
1001
0000
0001
0100
0010
,
1000
1001
0000
0011
0000
1100
0000
1010
,
0000
0100
0001
0011
0000
1100
1000
0001
,
0100
0001
0010
0001
1000
0010
0100
0010
1000
0001
0100
0001
1000
0100
0010
0100
,
1000
0001
0100
0001
0100
0010
1000
0010
0100
0001
1000
0100
0010
0001
0010
0001
,
2000
0000
0000
0000
,
0000
0000
0000
0000
,
3000
0000
0000
0000
;

//---------------dance-single - 15- (TYLR)----------------
#NOTES:
     dance-single:
     15- (TYLR):
     Hard:
     15:
     1.000,1.000,0.379,0.168,1.000,2899.000,129.000,57.000,75.000,0.000:
0000
0000
0000
0000
,
0001
1100
0010
1001
,
0010
0101
1000
0110
,
0001
1010
0100
1001
,
0100
0000
0011
0000
1000
0000
0110
0001
,
1000
0011
0100
1001
,
0100
1010
0001
0110
,
1000
0011
0100
1001
,
0100
0000
1010
0000
0001
0000
1100
0010
,
0002
0003
1000
0000
0010
0000
1000
0000
0001
0100
0001
0000
0010
0000
0001
0000
,
1000
0000
0100
0000
0010
0000
0100
0000
1000
0001
1000
0000
0010
0000
0100
0000
,
0001
0000
1000
0000
0010
0000
1000
0000
0001
0100
0001
0000
0010
0000
0001
0000
,
1000
0000
0100
0000
0010
0000
0100
0000
1000
0001
1000
0000
0010
0000
1000
0000
,
1000
0000
0001
0000
0010
0000
0001
0000
1000
0100
1000
0000
0010
0000
1000
0000
,
0001
0010
0001
0010
0100
1000
0100
1000
0001
1000
0010
0100
0001
0100
0010
1000
,
0001
0010
0100
1000
0001
1000
0100
0010
0001
1000
0010
0100
0001
0100
0010
1000
,
0100
0010
0100
1000
0001
1000
0010
0100
0001
1000
0001
0100
0010
1000
0100
0010
,
0001
0010
0001
0000
1000
0100
1000
0000
0001
1000
0001
0000
1000
0100
1000
0000
,
0001
1000
0001
0000
0100
0001
0100
0000
0010
1000
0010
0000
0100
0001
0100
0000
,
0010
1000
0010
0000
1000
0001
1000
0000
0001
0100
0001
0000
1000
0001
1000
0000
,
0001
0010
0001
0000
1000
0100
1000
0000
0001
1000
0001
0000
1000
0100
1000
0000
,
0010
1000
0010
0000
0100
0001
0100
0000
0010
0100
0010
0000
0100
0001
0100
0000
,
0001
1000
0001
0000
0010
0100
0010
0000
0001
0010
0001
0000
0010
0100
0010
0000
,
0001
1000
0001
0000
0100
0010
0100
0000
0001
0100
0001
0000
0100
0010
0100
0000
,
0001
1000
0001
0000
0010
0100
0010
0000
0002
0003
0200
0300
0020
0000
0000
0030
,
101M
1000
1001
0001
0010
0100
1100
1000
,
0100
0000
0010
0000
0011
0000
0001
0000
1000
0000
0010
0100
M00M
0100
1000
0000
,
0010
0100
0101
0001
0010
0100
1100
1000
,
0100
0000
0010
0000
0011
0000
0001
0000
0100
0000
0001
0010
M00M
0010
1000
0000
,
0100
0010
0011
0001
0100
0010
1010
1000
,
0010
0000
0100
0000
0101
0000
0001
0000
0010
0000
0001
0100
M00M
0100
1000
0000
,
0100
0010
0011
0001
0100
0010
1010
1000
,
0010
0000
0100
0000
0101
0000
0001
0000
0010
0000
0001
0100
M00M
0100
1000
0000
,
1001
0001
0101
0100
0010
1000
1100
0100
,
1000
0000
0001
0000
0101
0000
0100
0000
0010
0000
1000
0100
M00M
0100
0001
0000
,
0010
0001
0101
0100
0010
1000
1100
0100
,
1000
0000
0001
0000
0011
0000
0010
0000
0100
0000
1000
0010
M00M
0010
0001
0000
,
0100
0010
1010
1000
0100
0010
0011
0001
,
0010
0000
0100
0000
1100
0000
1000
0000
0001
0000
1000
0100
M00M
0100
0001
0000
,
0010
0001
1000
0010
0100
0001
0010
0001
1000
0010
0100
0001
0010
0001
1000
0001
,
0010
0001
1000
0010
0100
0001
0010
0001
0100
0010
1000
0100
0010
0001
0100
0001
,
10M0
0001
1001
1000
0100
0010
0011
0001
,
0010
0000
0100
0000
1100
0000
1000
0000
0001
0000
0100
0010
M00M
0010
0001
0000
,
0100
0010
1010
1000
0100
0010
0011
0001
,
0010
0000
0100
0000
1100
0000
1000
0000
0010
0000
1000
0100
M00M
0100
0010
0000
,
1000
0001
0011
0010
0100
1000
1001
0001
,
0100
0000
0010
0000
1010
0000
1000
0000
0100
0000
1000
0010
M00M
0010
0001
0000
,
0100
0010
1010
1000
0100
0010
0011
0001
,
0010
0000
0100
0000
1100
0000
1000
0000
0010
1000
0010
0000
0100
0000
0001
0000
,
1M01
1000
1100
0100
0010
0001
0101
0100
,
0001
0000
1000
0000
1100
0000
0100
0000
0010
0000
0001
0100
M00M
0100
1000
0000
,
0010
1000
1100
0100
0010
0001
0101
0100
,
0001
0000
1000
0000
1010
0000
0010
0000
0100
0000
0001
0010
M00M
0010
1000
0000
,
0100
0010
0011
0001
0100
0010
1010
1000
,
0001
0010
0100
1000
0001
0010
0001
1000
0010
0100
0001
0010
0100
1000
0010
1000
,
0001
1000
0010
1000
0100
0010
0001
1000
0010
1000
0100
0010
0001
1000
0010
1000
,
0004
0000
0000
0000
0403
0000
0000
0000
0310
0000
0000
0000
0100
0001
0100
0001
,
1000
0000
0001
1000
0000
0001
1000
0001
0010
0100
1000
0000
0001
0000
0010
0000
,
0001
0000
1000
0001
0000
1000
0001
1000
0100
0010
0100
0010
0002
0000
0003
0000
,
1000
0000
0001
1000
0000
0001
1000
0001
0100
0010
1000
0000
0010
0000
0100
0000
,
0001
0000
1000
0001
0000
1000
0001
1000
0100
0010
0100
0010
0002
0000
0003
0000
,
1000
0000
0001
1000
0000
0001
1000
0001
0100
0010
1000
0000
0001
0000
0100
0000
,
0010
0000
1000
0010
0000
1000
0010
1000
0001
1000
0001
1000
0200
0000
0300
0000
,
0010
0000
0001
0010
0000
0001
0010
0001
1000
0010
0100
0000
0001
0000
1000
0000
,
0100
0000
1000
0100
0000
1000
0100
0010
0001
1000
0001
1000
0020
0000
0030
0000
,
0101
0000
0001
0100
0000
0001
0100
0001
1000
0100
0010
0000
0100
1000
0001
0000
,
0100
0000
0001
0100
0000
0001
0100
0001
1000
0100
0010
0000
0100
1000
0001
0000
,
0100
0000
0001
0100
0000
0001
0100
0001
1000
0100
0010
0000
0100
1000
0001
0000
,
0100
0000
0001
0100
0000
0001
0100
0001
1000
0100
0010
0000
0001
0000
0100
0000
,
0010
1000
0001
0010
0001
1000
0010
1000
0100
0010
0001
1000
0010
0100
0001
1000
,
0100
1000
0001
0100
0001
1000
0100
1000
0001
0100
0010
1000
0001
0010
0100
1000
,
0001
0100
0010
1000
0100
0010
0001
0100
0010
1000
0001
1000
0010
0100
0001
1000
,
01M0
0000
0000
0000
0000
0000
1000
0000
0000
0100
0000
0000
0000
0000
0000
1000
0000
0000
0100
0000
0000
1000
0000
0000
0100
0000
0000
0000
0000
0000
0010
0000
0000
0000
0000
0000
0001
0000
0000
0000
0000
0000
0100
0000
0001
0000
0100
0000
,
00M1
1000
0100
0010
0000
0001
0010
0001
0100
0010
1000
0000
0010
0100
0001
0000
,
1000
0001
1000
0001
0000
1000
0001
1000
0100
0010
0000
0100
0010
0000
0001
0100
,
0010
1000
0010
1000
0000
0010
1000
0010
0100
0001
1000
0000
0100
1000
0001
0000
,
0100
0001
0000
0100
0010
1000
0010
1000
0100
0010
0001
0000
1000
0000
0010
0000
,
0100
0001
0100
0001
0000
1000
0001
1000
0100
0010
0001
0000
0010
0100
1000
0000
,
0001
1000
0001
1000
0000
0001
1000
0001
0100
0010
0000
0100
0010
0000
1000
0100
,
0010
0001
0010
0001
0000
1000
0100
1000
0001
0100
0010
0000
0100
0001
1000
0000
,
0100
1000
0000
0100
1000
0001
0100
0010
1000
0001
0010
0000
0100
0000
1000
0000
,
M001
0100
0001
0100
0000
0001
0100
0001
1000
0100
0010
0000
0100
1000
0001
0000
,
0100
0001
0100
0001
0000
0100
0001
0100
0010
1000
0000
0010
1000
0000
0100
0010
,
0001
1000
0001
1000
0000
0001
1000
0001
0100
0010
1000
0000
0010
0100
0001
0000
,
1000
0001
0000
1000
0001
0010
0001
0010
0100
1000
0001
0000
0100
0000
0010
0000
,
1000
0001
1000
0001
0000
1000
0001
1000
0100
0010
0001
0000
0010
0100
1000
0000
,
0001
1000
0001
1000
0000
0001
1000
0001
0100
0010
0000
0100
0010
0000
1000
0100
,
0010
0001
0010
0001
0000
0010
0100
0010
0001
1000
0010
0000
1000
0001
0100
0000
,
0001
0000
1000
0001
0000
1000
0001
0010
0100
0000
1000
0001
0100
0001
0100
0001
,
M010
0100
1000
0001
0000
1000
0001
1000
0010
0100
0001
0100
0010
1000
0001
0000
,
0010
0100
1000
0001
0000
1000
0001
1000
0010
0100
0001
0100
0010
1000
0001
0000
,
0010
0100
1000
0001
0000
1000
0001
1000
0010
0100
0001
0100
0010
1000
0001
0000
,
0010
0100
0000
0010
0001
1000
0001
1000
0010
0100
0001
0000
0010
0000
0100
0000
,
1000
0001
0100
0010
0000
0100
0010
0100
0001
1000
0100
0010
0100
1000
0001
0000
,
1000
0001
0100
0010
0000
0100
0010
0100
0001
1000
0100
0010
0100
1000
0001
0000
,
1000
0001
0100
0010
0000
0100
0010
0100
0001
1000
0100
0010
0100
1000
0001
0000
,
0100
0010
0000
0100
0001
1000
0001
1000
0100
0010
0001
0000
1000
0000
0010
0000
,
M100
0010
1000
0001
0000
1000
0001
1000
0100
0010
0001
0010
0100
1000
0001
0000
,
0100
0010
1000
0001
0000
1000
0001
1000
0100
0010
0001
0010
0100
1000
0001
0000
,
0100
0010
1000
0001
0000
1000
0001
1000
0100
0010
0001
0010
0100
1000
0001
0000
,
0100
0010
0000
0100
0001
1000
0001
1000
0100
0010
0001
0000
0100
0000
0010
0000
,
1000
0001
1000
0100
0010
0001
0010
0100
1000
0001
1000
0010
0100
0001
0100
0010
,
1000
0001
1000
0100
0010
0001
1000
0010
0100
0001
0010
0100
1000
0100
0010
0001
,
0100
0001
0100
0010
1000
0001
1000
0100
0010
0100
1000
0001
0100
0010
1000
0100
,
0010
0010
0001
1000
1000
0010
0100
0100
,
2001
0000
0000
3002
,
0023
0000
0032
0000
0203
0000
0320
2030
,
0000
0000
3000
0200
,
0320
0000
0230
0000
2300
0000
3002
0203
,
0000
0000
0320
0000
2030
0000
0000
0000
3000
0000
0000
0000
0000
0200
0000
2300
,
0000
0000
3000
0002
0000
0203
0000
0000
0300
0000
0000
0000
0000
0000
0020
0000
,
2030
0000
3200
0320
0000
0032
0000
0203
,
0000
0000
0302
0000
0203
0000
0320
0000
0000
0000
0000
0000
1030
0001
1000
0001
,
10M0
0100
1000
0000
0001
0010
0001
0000
1000
0100
1000
0000
0001
0100
0001
0000
,
0010
0100
0010
0000
0001
1000
0001
0000
1000
0100
1000
0000
0001
0010
0001
0000
,
1000
0010
1000
0000
0001
0100
0001
0000
1000
0010
1000
0000
0001
1000
0001
0000
,
0010
0100
0010
0000
0001
0100
0001
0000
1000
0100
1000
0000
0001
0010
0001
0000
,
1000
0100
1000
0000
0001
1000
0001
0000
1000
0100
1000
0000
0001
1000
0001
0000
,
0100
0001
0100
0000
0010
0100
0010
0000
0100
0001
0100
0000
0010
0100
0010
0000
,
1010
1000
0000
0001
0000
1000
0000
1020
,
0000
0000
0130
0000
0100
0000
0001
0002
,
0000
0000
0000
0000
0000
0000
0003
0020
,
0000
0000
0000
0000
0032
0003
0000
0000
0200
0300
0000
0000
0020
0030
0000
0000
2000
3000
0000
0000
0200
0300
0020
0000
0000
0000
0000
0000
0230
0300
2000
3000
,
0001
0100
0010
1000
0001
0100
0010
1000
0001
0100
0010
1000
0001
0010
0100
1000
,
0010
0100
0010
1000
0001
0100
0001
1000
0100
0010
0100
1000
0001
1000
0010
0100
,
0001
0100
0010
1000
0001
1000
0010
0100
0001
1000
0010
1000
0100
1000
0100
0010
,
0001
1000
0001
0010
0100
1000
0100
0010
0001
1000
0001
0100
0010
1000
0010
1000
,
0001
0010
0100
1000
0100
1000
0001
1000
0100
0010
0001
1000
0100
1000
0010
0100
,
0001
0100
0010
1000
0001
1000
0001
1000
0100
0010
0001
0010
0100
1000
0001
1000
,
0001
0100
0010
1000
0100
1000
0100
0010
0001
1000
0010
0100
0001
0010
0100
1000
,
0100
0010
0001
1000
0001
0100
0001
0100
0010
1000
0010
0000
0100
0000
0001
0000
,
10M0
0100
0010
0001
1000
0100
0010
0001
1000
0100
0010
0001
1000
0010
0100
0001
,
0010
0100
0010
0001
1000
0100
1000
0001
0100
0010
0100
0001
1000
0001
0010
0100
,
1000
0100
0010
0001
1000
0001
0010
0100
1000
0001
0010
0001
0100
0001
0100
0010
,
1000
0001
1000
0010
0100
0001
0100
0010
1000
0001
1000
0100
0010
0001
0010
0001
,
1000
0010
0100
0001
0100
0001
1000
0001
0100
0010
1000
0010
0100
0001
1000
0001
,
1000
0100
0010
0001
1000
0001
0010
0100
1000
0001
0010
0001
1000
0001
0010
0100
,
1000
0010
0100
0001
1000
0001
0100
0010
0100
0001
1000
0010
1000
0001
0010
0100
,
0010
0100
1000
0100
0010
0001
1000
0001
0100
0010
0100
0000
0001
0000
1000
0000
,
0100
1000
0100
0000
0010
0001
0010
0000
0100
1000
0100
0000
0010
0001
0200
0000
,
0301
0000
0000
0000
2000
3000
0000
0000
0200
0300
0000
0000
0020
0030
0000
0000
0002
0003
0000
0000
2000
3000
0020
0000
0000
0000
0000
0000
0230
0300
0001
0000
,
1000
0100
0010
0001
1000
0100
0010
0001
1000
0100
0010
0001
1000
0010
0100
0001
,
0010
0100
0010
0001
1000
0100
1000
0001
0100
0010
0100
0001
1000
0001
0010
0100
,
1000
0100
0010
0001
1000
0001
0010
0100
1000
0001
0010
0001
0100
0001
0100
0010
,
1000
0001
1000
0010
0100
0001
0100
0010
1000
0001
1000
0100
0010
0001
0010
0001
,
1000
0010
0100
0001
0100
0001
1000
0001
0100
0010
1000
0001
0100
0001
0010
0100
,
1000
0100
0010
0001
1000
0001
1000
0001
0100
0010
1000
0010
0100
0001
1000
0001
,
1000
0100
0010
0001
0100
0001
0100
0010
1000
0001
0010
0100
1000
0010
0100
0001
,
0100
0010
1000
0001
1000
0100
1000
0100
0010
0001
0010
0100
1000
0001
0010
0001
,
1M00
0010
0100
0001
1000
0010
0100
0001
1000
0010
0100
0001
1000
0100
0010
0001
,
0100
0010
0100
0001
1000
0010
1000
0001
0010
0100
0010
0001
1000
0001
0100
0010
,
1000
0010
0100
0001
1000
0001
0100
0010
1000
0001
0100
0001
0010
0001
0010
0100
,
1000
0001
1000
0100
0010
0001
0010
0100
1000
0001
1000
0010
0100
0001
0100
0001
,
1000
0100
0010
0001
0010
0001
1000
0001
0010
0100
1000
0100
0010
0001
1000
0001
,
1000
0100
0010
0001
1000
0001
0010
0100
1000
0001
1000
0100
0010
0100
1000
0001
,
1000
0010
0100
0001
1000
0001
0100
0010
0100
0001
1000
0010
1000
0001
0010
0100
,
0010
0100
1000
0100
0010
0001
1000
0001
0100
0001
0100
0010
1000
0001
1000
0001
,
0010
0001
1000
0100
0010
0100
1000
0001
0100
0010
1000
0001
0010
0001
0100
0001
,
0100
0001
1000
0001
0010
0100
1000
0001
0100
0010
1000
0100
0010
0100
1000
0001
,
M100
0010
0100
0000
0001
0000
1000
0010
1000
0000
0001
0000
1000
0010
1000
0000
,
0001
0010
0001
0000
1000
0000
0100
0010
0100
0000
1000
0000
0100
0010
0100
0000
,
1000
0001
1000
0000
0010
0000
0100
0001
0100
0000
0010
0000
0100
0001
0100
0000
,
0001
1000
0001
0000
0010
0000
0100
1000
0100
0000
0010
0000
0100
1000
0100
0000
,
1000
0001
1000
0000
0001
0000
0100
0010
0100
0000
0001
0000
0100
0010
0100
0000
,
0001
1000
0001
0000
0010
0000
0100
1000
0100
0000
0010
0000
0100
1000
0100
0000
,
1000
0001
1000
0000
0001
0000
0100
0010
0100
0000
0001
0000
0100
0010
0100
0000
,
10M1
0001
0000
0001
,
10M0
0100
1000
0000
0001
0010
0001
0000
1000
0001
1000
0000
0001
0010
0001
0000
,
1000
0001
1000
0000
0010
1000
0010
0000
0100
0001
0100
0000
0010
1000
0010
0000
,
0100
0001
0100
0000
0001
1000
0001
0000
1000
0010
1000
0000
0001
1000
0001
0000
,
1000
0100
1000
0000
0001
0010
0001
0000
1000
0001
1000
0000
0001
0010
0001
0000
,
0100
0001
0100
0010
1000
0001
1000
0001
0010
0100
0010
0001
1000
0001
1000
0010
,
0100
0001
1000
0100
0010
0100
1000
0001
0100
0010
1000
0100
0010
0100
1000
0010
,
0100
0001
0010
0100
1000
0100
0010
0001
0100
0010
1000
0100
0010
0001
0100
0010
,
100M
0000
0000
0000
1000
0000
0000
0000
1000
0000
0010
1000
0100
0000
0010
0001
,
M100
0001
0010
0100
1000
0010
0100
0001
,
0100
0000
0001
0000
0010
0000
0100
0000
1000
0000
0001
0100
0000
0001
1000
0000
,
0100
0010
0001
0100
0010
1000
0001
0010
,
0001
0000
0010
0000
0100
0000
1000
0000
0010
0000
0100
0001
0000
0100
0010
0000
,
1000
0100
0010
0001
0100
0010
1000
0100
,
1000
0100
1000
0001
0010
0001
1000
0010
0100
0001
0100
0010
1000
0001
0010
0100
,
1000
0001
0100
0010
1000
0100
0010
0001
0100
0001
0010
0100
1000
0010
0100
0001
,
1000
0000
0000
0000
0000
0000
0000
0000
0010
0000
1000
0100
M00M
0100
0001
0000
,
0011
0010
0110
0100
1000
0010
0110
0100
,
0010
0000
1000
0000
1001
0000
0001
0000
0010
0000
0001
0100
M00M
0100
1000
0000
,
0010
0100
0101
0001
0010
0100
1100
1000
,
0100
0000
0010
0000
0011
0000
0001
0000
0100
0000
0001
0010
M00M
0010
0100
0000
,
0001
1000
1001
0001
0010
0100
1100
1000
,
0100
0000
0010
0000
0011
0000
0001
0000
0100
0000
0001
0010
M00M
0010
1000
0000
,
0100
0010
0011
0001
0100
0010
1010
1000
,
0010
0000
0100
0000
0101
0000
0001
0000
0010
0000
0001
0100
M00M
0100
0010
0000
,
0M11
0001
0101
0100
0010
1000
1100
0100
,
1000
0000
0001
0000
0101
0000
0100
0000
0010
0000
1000
0100
M00M
0100
0001
0000
,
0010
0001
0101
0100
0010
1000
1100
0100
,
1000
0000
0001
0000
0011
0000
0010
0000
0100
0000
1000
0010
M00M
0010
0001
0000
,
0100
0010
1010
1000
0100
0010
0011
0001
,
0010
0000
0100
0000
1100
0000
1000
0000
0001
0000
1000
0100
M00M
0100
0001
0000
,
1000
0100
1100
1000
0010
0100
0101
0001
,
0100
0000
0010
0000
1000
0000
0100
0000
0010
0000
0001
0100
M00M
0100
1000
0000
,
1M10
0010
0110
0100
0001
0010
0110
0100
,
0010
0000
0001
0000
1001
0000
1000
0000
0010
0000
1000
0100
M00M
0100
0001
0000
,
0010
0100
1100
1000
0010
0100
0101
0001
,
0100
0000
0010
0000
1010
0000
1000
0000
0100
0000
1000
0010
M00M
0010
0100
0000
,
1000
0001
0101
0100
0010
1000
1100
0100
,
1000
0000
0001
0000
0101
0000
0100
0000
0010
0000
1000
0100
M00M
0100
0001
0000
,
0010
0100
1100
1000
0010
0100
0101
0001
,
0100
0000
0010
0000
1010
0000
1000
0000
0100
0000
1000
0010
M00M
0010
0001
0000
,
01M1
0100
0110
0010
1000
0100
0110
0010
,
0001
0000
0010
0000
0110
0000
0100
0000
1000
0000
0001
0100
M00M
0100
1000
0000
,
0001
0100
0110
0010
1000
0100
0110
0010
,
0100
0000
1000
0000
1010
0000
0010
0000
0100
0000
0001
0010
M00M
0010
1000
0000
,
0001
0100
0110
0010
1000
0100
0110
0010
,
0001
0010
0100
1000
0001
1000
0010
0100
0001
0100
0010
1000
0100
0010
0001
0100
,
0010
1000
0100
0010
0001
1000
0010
1000
0100
0010
0001
1000
0010
1000
0100
0010
,
0004
0403
0320
0000
,
1030
0001
0010
0100
1000
0001
0010
0100
1000
0001
0010
0100
1000
0001
0100
0001
,
0010
0100
0010
0001
1000
0010
1000
0001
0010
0100
0010
0001
1000
0001
0100
0010
,
1000
0010
0100
0001
1000
0001
0100
0010
1000
0001
0100
0001
0010
0001
0010
0100
,
1000
0001
1000
0100
0010
0001
0010
0100
1000
0001
1000
0010
0100
0001
0100
0001
,
1000
0100
0010
0001
0010
0001
1000
0001
0010
0100
1000
0001
0010
0001
0100
0010
,
1000
0010
0100
0001
1000
0001
1000
0001
0010
0100
1000
0100
0010
0001
1000
0001
,
1000
0010
0100
0001
0010
0001
0010
0100
1000
0001
0100
0010
1000
0100
0010
0001
,
0010
0100
1000
0001
1000
0010
1000
0010
0100
0001
0100
0000
0010
0000
1000
0000
,
0M01
0010
0100
1000
0001
0010
0100
1000
0001
0010
0100
1000
0001
0100
0010
1000
,
0100
0010
0100
1000
0001
0010
0001
1000
0010
0100
0010
1000
0001
1000
0100
0010
,
0001
0010
0100
1000
0001
1000
0100
0010
0001
1000
0100
1000
0010
1000
0010
0100
,
0001
1000
0001
0100
0010
1000
0010
0100
0001
1000
0001
0010
0100
1000
0100
1000
,
0001
0100
0010
1000
0010
1000
0001
1000
0010
0100
0001
0100
0010
1000
0001
1000
,
0001
0010
0100
1000
0001
1000
0100
0010
0001
1000
0100
1000
0001
1000
0100
0010
,
0001
0100
0010
1000
0001
1000
0010
0100
0010
1000
0001
0100
0001
1000
0100
0010
,
0100
0010
0001
0010
0100
1000
0001
1000
0010
0100
0010
0000
1000
0000
0001
0000
,
0010
0001
0010
0000
0100
1000
0100
0000
0010
0001
0010
0000
0100
1000
0001
0000
,
1000
0100
1000
0000
0001
0010
0001
0000
1000
0000
0001
0000
0100
0010
0100
0010
,
1000
0001
0010
0100
1000
0001
0010
0100
1000
0001
0010
0100
1000
0100
0010
0001
,
0100
0010
0100
0001
1000
0100
1000
0001
0100
0010
0100
0001
1000
0001
0010
0100
,
1000
0100
0010
0001
1000
0001
0010
0100
1000
0001
0010
0001
0100
0001
0100
0010
,
1000
0001
1000
0010
0100
0001
0100
0010
1000
0001
1000
0100
0010
0001
0010
0001
,
1000
0010
0100
0001
0100
0001
1000
0001
0100
0010
1000
0001
0100
0001
0010
0100
,
1000
0100
0010
0001
1000
0001
1000
0001
0100
0010
1000
0010
0100
0001
1000
0001
,
1000
0100
0010
0001
0100
0001
0100
0010
1000
0001
0010
0100
1000
0010
0100
0001
,
0100
0010
1000
0001
1000
0100
1000
0100
0010
0001
0010
0100
1000
0001
0100
0010
,
100M
0010
0100
0001
1000
0010
0100
0001
1000
0010
0100
0001
1000
0100
0010
0001
,
0100
0010
0100
0001
1000
0010
1000
0001
0010
0100
0010
0001
1000
0001
0100
0010
,
1000
0010
0100
0001
1000
0001
0100
0010
1000
0001
0100
0001
0010
0001
0010
0100
,
1000
0001
1000
0100
0010
0001
0010
0100
1000
0001
1000
0010
0100
0001
0100
0001
,
1000
0100
0010
0001
0010
0001
1000
0001
0010
0100
1000
0100
0010
0001
1000
0001
,
1000
0100
0010
0001
1000
0001
0010
0100
1000
0001
1000
0100
0010
0100
1000
0001
,
1000
0101
0000
0011
0000
1100
0000
1010
,
0000
0100
0001
1001
0000
0001
0100
0010
,
1000
1001
0000
0011
0000
1100
0000
1010
,
0000
0100
0001
0011
0000
1100
1000
0001
,
0100
0110
0000
1010
0000
0101
0000
0011
,
0000
0000
1000
0000
0100
0010
0001
0010
0100
1000
0010
0100
0001
0010
0100
1000
,
0002
0000
0000
0000
,
0000
0000
0000
0000
,
0003
0000
0000
0000
;

//---------------dance-single - Switches----------------
#NOTES:
     dance-single:
     Switches:
     Edit:
     15:
     1.000,1.000,0.376,0.170,1.000,2963.000,128.000,58.000,75.000,0.000:
0000
0000
0000
0000
,
0001
1100
0010
1001
,
0010
0101
1000
0110
,
0001
1010
0100
1001
,
0100
0000
0011
0000
1000
0000
0110
0001
,
1000
0011
0100
1001
,
0100
1010
0001
0110
,
1000
0011
0100
1001
,
0100
0000
1010
0000
0001
0000
1100
0010
,
0002
0003
1000
0000
0010
0000
1000
0000
0001
0100
0001
0000
0010
0000
0001
0000
,
1000
0000
0100
0000
0010
0000
0100
0000
1000
0001
1000
0000
0010
0000
0100
0000
,
0001
0000
1000
0000
0010
0000
1000
0000
0001
0100
0001
0000
0010
0000
0001
0000
,
1000
0000
0100
0000
0010
0000
0100
0000
1000
0001
1000
0000
0010
0000
1000
0000
,
1000
0000
0001
0000
0010
0000
0001
0000
1000
0100
1000
0000
0010
0000
1000
0000
,
0001
0010
0001
0010
0100
1000
0100
1000
0001
1000
0010
0100
0001
0100
0010
1000
,
0001
0010
0100
1000
0001
1000
0100
0010
0001
1000
0010
0100
0001
0100
0010
1000
,
0100
0010
0100
1000
0001
1000
0010
0100
0001
1000
0001
0100
0010
1000
0100
0010
,
0001
0010
0001
0000
1000
0100
1000
0000
0001
1000
0001
0000
1000
0100
1000
0000
,
0001
1000
0001
0000
0100
0001
0100
0000
0010
1000
0010
0000
0100
0001
0100
0000
,
0010
1000
0010
0000
1000
0001
1000
0000
0001
0100
0001
0000
1000
0001
1000
0000
,
0001
0010
0001
0000
1000
0100
1000
0000
0001
1000
0001
0000
1000
0100
1000
0000
,
0010
1000
0010
0000
0100
0001
0100
0000
0010
0100
0010
0000
0100
0001
0100
0000
,
0001
1000
0001
0000
0010
0100
0010
0000
0001
0010
0001
0000
0010
0100
0010
0000
,
0001
1000
0001
0000
0100
0010
0100
0000
0001
0100
0001
0000
0100
0010
0100
0000
,
0001
1000
0001
0000
0010
0100
0010
0000
0002
0003
0200
0300
0020
0000
0000
0030
,
101M
1000
1001
0001
0010
0100
1100
1000
,
0100
0000
0010
0000
0011
0000
0001
0000
1000
0000
0010
0100
M00M
0100
1000
0000
,
0010
0100
0101
0001
0010
0100
1100
1000
,
0100
0000
0010
0000
0011
0000
0001
0000
0100
0000
0001
0010
M00M
0010
0100
0000
,
0001
1000
1001
0001
0010
0100
1100
1000
,
0100
0000
0010
0000
0011
0000
0001
0000
0100
0000
0001
0010
M00M
0010
1000
0000
,
0100
0010
0011
0001
0100
0010
1010
1000
,
0010
0000
0100
0000
0101
0000
0001
0000
0010
0000
0001
0100
M00M
0100
1000
0000
,
1001
0001
0101
0100
0010
1000
1100
0100
,
1000
0000
0001
0000
0101
0000
0100
0000
0010
0000
1000
0100
M00M
0100
0001
0000
,
0010
0001
0101
0100
0010
1000
1100
0100
,
1000
0000
0001
0000
0011
0000
0010
0000
0100
0000
1000
0010
M00M
0010
0001
0000
,
0100
0010
1010
1000
0100
0010
0011
0001
,
0010
0000
0100
0000
1100
0000
1000
0000
0001
0000
1000
0100
M00M
0100
0001
0000
,
0010
0001
1000
0010
0100
0001
0010
0001
1000
0010
0100
0001
0010
0001
1000
0001
,
0010
0001
1000
0010
0100
0001
0010
0001
0100
0010
1000
0100
0010
0001
0100
0001
,
10M0
0001
1001
1000
0100
0010
0011
0001
,
0010
0000
0100
0000
1100
0000
1000
0000
0001
0000
0100
0010
M00M
0010
0001
0000
,
0100
0010
1010
1000
0100
0010
0011
0001
,
0010
0000
0100
0000
1100
0000
1000
0000
0010
0000
1000
0100
M00M
0100
0010
0000
,
1000
0001
0011
0010
0100
1000
1001
0001
,
0100
0000
0010
0000
1010
0000
1000
0000
0100
0000
1000
0010
M00M
0010
0001
0000
,
0100
0010
1010
1000
0100
0010
0011
0001
,
0010
0000
0100
0000
1100
0000
1000
0000
0010
1000
0010
0000
0100
0000
0001
0000
,
1M01
1000
1100
0100
0010
0001
0101
0100
,
0001
0000
1000
0000
1100
0000
0100
0000
0010
0000
0001
0100
M00M
0100
1000
0000
,
0010
1000
1100
0100
0010
0001
0101
0100
,
0001
0000
1000
0000
1010
0000
0010
0000
0100
0000
0001
0010
M00M
0010
1000
0000
,
0100
0010
0011
0001
0100
0010
1010
1000
,
0001
0010
0100
1000
0001
0010
0001
1000
0010
0100
0001
0010
0100
1000
0010
1000
,
0001
1000
0010
1000
0100
0010
0001
1000
0010
1000
0100
0010
0001
1000
0010
1000
,
0004
0000
0000
0000
0403
0000
0000
0000
0310
0000
0000
0000
0100
0001
0100
0001
,
1000
0000
0001
1000
0000
0001
1000
0001
0100
0100
1000
0000
0010
0000
0100
0000
,
0001
0000
0100
0001
0000
0100
0001
0100
0010
1000
0010
1000
0200
0000
0300
0000
,
1000
0000
0001
1000
0000
0001
1000
0001
0100
0100
1000
0000
0010
0000
0100
0000
,
0001
0000
1000
0001
0000
1000
0001
1000
0100
0010
0100
0010
0002
0000
0003
0000
,
1000
0000
0001
1000
0000
0001
1000
0001
0100
0100
1000
0000
0001
0000
0100
0000
,
0010
0000
1000
0010
0000
1000
0010
1000
0001
1000
0001
1000
0200
0000
0300
0000
,
0010
0000
0001
0010
0000
0001
0010
0001
0100
0100
1000
0000
0010
0000
0100
0000
,
0001
0000
0100
0001
0000
0100
0001
0100
0010
1000
0010
1000
0200
0000
0300
0000
,
0011
0000
0001
0010
0000
0001
0010
0001
0100
0100
1000
0000
0100
0100
0001
0000
,
0010
0000
0001
0010
0000
0001
0010
0001
0100
0100
1000
0000
0100
0100
0001
0000
,
0010
0000
0001
0010
0000
0001
0010
0001
0100
0100
1000
0000
0100
0100
0001
0000
,
0010
0000
0001
0010
0000
0001
0010
0001
0100
0100
1000
0000
0010
0000
0100
0000
,
0001
1000
0100
1000
0001
0100
0001
1000
0100
0100
0001
0010
0100
0100
0010
1000
,
0001
1000
0100
1000
0001
0100
0001
0010
0100
0100
0010
1000
0100
0100
0001
0010
,
0100
1000
0001
0100
0001
1000
0100
1000
0010
0010
0001
0100
0010
0010
0100
1000
,
00M1
0000
0000
0000
0000
0000
1000
0000
0000
0001
0000
0000
0000
0000
0000
1000
0000
0000
0001
0000
0000
1000
0000
0000
0001
0000
0000
0000
0000
0000
0100
0000
0000
0000
0000
0000
0010
0000
0000
0000
0000
0000
1000
0000
0001
0000
1000
0000
,
00M1
0100
0100
1000
0000
0001
1000
0001
0010
0010
1000
0000
0010
0010
0001
0000
,
0100
0001
0100
0001
0000
1000
0001
0100
0100
1000
0000
0010
1000
0000
0100
0010
,
0001
0100
0100
1000
0000
0001
1000
0001
0010
0010
1000
0000
0010
0010
0001
0000
,
0100
0001
0000
0100
0010
1000
0100
1000
0010
0010
0001
0000
0100
0000
0010
0000
,
1000
0010
0010
0001
0000
1000
0001
1000
0100
0100
0001
0000
0100
0100
1000
0000
,
0010
1000
0010
1000
0000
0001
1000
0010
0010
0001
0000
0100
0001
0000
0010
0100
,
1000
0010
0010
0001
0000
1000
0001
1000
0100
0100
0001
0000
0100
0100
1000
0000
,
0010
1000
0000
0010
0100
0001
0010
0001
0100
0100
1000
0000
0010
0000
0100
0000
,
M001
0010
0010
1000
0000
0001
1000
0001
0100
0100
1000
0000
0100
0100
0001
0000
,
0010
0001
0010
0001
0000
1000
0001
0010
0010
1000
0000
0100
1000
0000
0010
0100
,
0001
0010
0010
1000
0000
0001
1000
0001
0100
0100
1000
0000
0100
0100
0001
0000
,
0010
0001
0000
0010
0100
1000
0010
1000
0100
0100
0001
0000
0010
0000
0100
0000
,
1000
0100
0100
0001
0000
1000
0001
1000
0010
0010
0001
0000
0010
0010
1000
0000
,
0100
1000
0100
1000
0000
0001
1000
0100
0100
0001
0000
0010
0001
0000
0100
0010
,
1000
0100
0100
0001
0000
1000
0001
1000
0010
0010
0001
0000
0010
0010
1000
0000
,
0100
0000
0010
0100
0000
1000
0100
0010
0001
0000
1000
0010
0100
0001
0100
0001
,
10M0
0100
0100
0001
0000
1000
0010
1000
0100
0100
0010
0010
0100
0100
0001
0000
,
1000
0100
0100
0001
0000
1000
0010
1000
0100
0100
0010
0010
0100
0100
0001
0000
,
1000
0100
0100
0001
0000
1000
0010
1000
0100
0100
0010
0010
0100
0100
0001
0000
,
1000
0001
0000
1000
0001
1000
0001
1000
0100
0100
0001
0000
0010
0000
0100
0000
,
1000
0100
0100
0001
0000
1000
0010
1000
0100
0100
0010
0010
0100
0100
0001
0000
,
1000
0100
0100
0001
0000
1000
0010
1000
0100
0100
0010
0010
0100
0100
0001
0000
,
1000
0100
0100
0001
0000
1000
0010
1000
0100
0100
0010
0010
0100
0100
0001
0000
,
1000
0001
0000
1000
0001
1000
0001
1000
0100
0100
0001
0000
0010
0000
0100
0000
,
100M
0010
0010
0001
0000
1000
0100
1000
0010
0010
0100
0100
0010
0010
0001
0000
,
1000
0010
0010
0001
0000
1000
0100
1000
0010
0010
0100
0100
0010
0010
0001
0000
,
1000
0010
0010
0001
0000
1000
0100
1000
0010
0010
0100
0100
0010
0010
0001
0000
,
1000
0001
0000
1000
0001
1000
0001
1000
0010
0010
0001
0000
0100
0000
0010
0000
,
1000
0001
1000
0001
1000
0100
0010
0001
1000
0001
0100
0001
1000
0010
0100
0001
,
1000
0100
0010
0001
1000
0001
0010
0100
1000
0010
0100
0001
1000
0001
0100
0010
,
1000
0100
0010
0001
0100
0001
0010
0100
1000
0010
0100
0001
0010
0100
1000
0010
,
0100
0100
0001
1000
1000
0100
0010
0001
,
2001
0000
0000
3002
,
0023
0000
0032
0000
0203
0000
0320
2030
,
0000
0000
3000
0200
,
0320
0000
0230
0000
2300
0000
3002
0203
,
0000
0000
0320
0000
2030
0000
0000
0000
3000
0000
0000
0000
0000
0200
0000
2300
,
0000
0000
3000
0002
0000
0203
0000
0000
0300
0000
0000
0000
0000
0000
0020
0000
,
2030
0000
3200
0320
0000
0032
0000
0203
,
0000
0000
0302
0000
0203
0000
0320
0000
0000
0000
0000
0000
1030
0001
1000
0001
,
10M0
0100
1000
0000
0001
0010
0001
0000
1000
0100
1000
0000
0001
0100
0001
0000
,
0010
0100
0010
0000
0001
1000
0001
0000
1000
0100
1000
0000
0001
0010
0001
0000
,
1000
0010
1000
0000
0001
0100
0001
0000
1000
0010
1000
0000
0001
1000
0001
0000
,
0010
0100
0010
0000
0001
0100
0001
0000
1000
0100
1000
0000
0001
0010
0001
0000
,
1000
0100
1000
0000
0001
1000
0001
0000
1000
0100
1000
0000
0001
1000
0001
0000
,
0100
0001
0100
0000
0010
0100
0010
0000
0100
0001
0100
0000
0010
0100
0010
0000
,
1010
1000
0000
0001
0000
1000
0000
1020
,
0000
0000
0130
0000
0100
0000
0001
0002
,
0000
0000
0000
0000
0000
0000
0003
0020
,
0000
0000
0000
0000
0032
0003
0000
0000
0200
0300
0000
0000
0020
0030
0000
0000
2000
3000
0000
0000
0200
0300
0020
0000
0000
0000
0000
0000
0230
0300
2000
3000
,
0001
0100
0010
1000
0001
0100
0010
1000
0001
0100
0010
1000
0001
0010
0100
1000
,
0010
0100
0010
1000
0001
0100
0001
1000
0100
0010
0100
1000
0001
1000
0010
0100
,
0001
0100
0010
1000
0001
1000
0010
0100
0001
1000
0010
1000
0100
1000
0100
0010
,
0001
1000
0001
0010
0100
1000
0100
0010
0001
1000
0001
0100
0010
1000
0010
1000
,
0001
0010
0100
1000
0100
1000
0001
1000
0100
0010
0001
1000
0100
1000
0010
0100
,
0001
0100
0010
1000
0001
1000
0001
1000
0100
0010
0001
0010
0100
1000
0001
1000
,
0001
0100
0010
1000
0100
1000
0100
0010
0001
1000
0010
0100
0001
0010
0100
1000
,
0100
0010
0001
1000
0001
0100
0001
0100
0010
1000
0010
0000
0100
0000
0001
0000
,
10M0
0100
0010
0001
1000
0100
0010
0001
1000
0100
0010
0001
1000
0010
0100
0001
,
0010
0100
0010
0001
1000
0100
1000
0001
0100
0010
0100
0001
1000
0001
0010
0100
,
1000
0100
0010
0001
1000
0001
0010
0100
1000
0001
0010
0001
0100
0001
0100
0010
,
1000
0001
1000
0010
0100
0001
0100
0010
1000
0001
1000
0100
0010
0001
0010
0001
,
1000
0010
0100
0001
0100
0001
1000
0001
0100
0010
1000
0010
0100
0001
1000
0001
,
1000
0100
0010
0001
1000
0001
0010
0100
1000
0001
0010
0001
1000
0001
0010
0100
,
1000
0010
0100
0001
1000
0001
0100
0010
0100
0001
1000
0010
1000
0001
0010
0100
,
0010
0100
1000
0100
0010
0001
1000
0001
0100
0010
0100
0000
0001
0000
1000
0000
,
0100
1000
0100
0000
0010
0001
0010
0000
0100
1000
0100
0000
0010
0001
0200
0000
,
0301
0000
0000
0000
2000
3000
0000
0000
0200
0300
0000
0000
0020
0030
0000
0000
0002
0003
0000
0000
2000
3000
0020
0000
0000
0000
0000
0000
0230
0300
0001
0000
,
1000
0100
0010
0001
1000
0100
0010
0001
1000
0100
0010
0001
1000
0010
0100
0001
,
0010
0100
0010
0001
1000
0100
1000
0001
0100
0010
0100
0001
1000
0001
0010
0100
,
1000
0100
0010
0001
1000
0001
0010
0100
1000
0001
0010
0001
0100
0001
0100
0010
,
1000
0001
1000
0010
0100
0001
0100
0010
1000
0001
1000
0100
0010
0001
0010
0001
,
1000
0010
0100
0001
0100
0001
1000
0001
0100
0010
1000
0001
0100
0001
0010
0100
,
1000
0100
0010
0001
1000
0001
1000
0001
0100
0010
1000
0010
0100
0001
1000
0001
,
1000
0100
0010
0001
0100
0001
0100
0010
1000
0001
0010
0100
1000
0010
0100
0001
,
0100
0010
1000
0001
1000
0100
1000
0100
0010
0001
0010
0100
1000
0001
0010
0001
,
1M00
0010
0100
0001
1000
0010
0100
0001
1000
0010
0100
0001
1000
0100
0010
0001
,
0100
0010
0100
0001
1000
0010
1000
0001
0010
0100
0010
0001
1000
0001
0100
0010
,
1000
0010
0100
0001
1000
0001
0100
0010
1000
0001
0100
0001
0010
0001
0010
0100
,
1000
0001
1000
0100
0010
0001
0010
0100
1000
0001
1000
0010
0100
0001
0100
0001
,
1000
0100
0010
0001
0010
0001
1000
0001
0010
0100
1000
0100
0010
0001
1000
0001
,
1000
0100
0010
0001
1000
0001
0010
0100
1000
0001
1000
0100
0010
0100
1000
0001
,
1000
0010
0100
0001
1000
0001
0100
0010
0100
0001
1000
0010
1000
0001
0010
0100
,
0010
0100
1000
0100
0010
0001
1000
0001
0100
0001
0100
0010
1000
0001
1000
0001
,
0010
0001
1000
0100
0010
0100
1000
0001
0100
0010
1000
0001
0010
0001
0100
0001
,
0100
0001
1000
0001
0010
0100
1000
0001
0100
0010
1000
0100
0010
0100
1000
0001
,
M100
0010
1000
0010
1000
0010
0100
0001
1000
0001
1000
0001
0100
0010
1000
0001
,
0010
0100
1000
0100
1000
0100
0010
0001
1000
0001
1000
0001
0100
0010
1000
0010
,
0100
0001
1000
0001
1000
0001
0010
0100
1000
0100
1000
0100
0010
0001
1000
0001
,
0100
0010
1000
0010
1000
0010
0100
0001
1000
0001
1000
0001
0100
0001
1000
0001
,
0010
0100
1000
0100
1000
0100
0010
0001
1000
0001
1000
0001
0100
0010
1000
0001
,
1000
0100
0010
0100
0010
0100
1000
0001
0010
0001
0010
0001
1000
0010
0100
0010
,
1000
0001
0100
0001
0100
0001
1000
0001
0010
0001
0010
0001
1000
0100
0010
0100
,
10M0
0001
0100
0001
0100
0001
1000
0010
0100
0010
0100
0010
1000
0001
0010
0001
,
M100
0010
1000
0001
1000
0001
0100
0010
1000
0001
1000
0001
0100
0010
1000
0001
,
0010
0100
1000
0001
1000
0001
0010
0100
1000
0001
1000
0001
0010
0100
1000
0001
,
1000
0010
0100
0001
0100
0001
1000
0010
0100
0001
0100
0001
1000
0010
0100
0001
,
1000
0100
0010
0001
0010
0001
1000
0100
0010
0001
0010
0001
1000
0100
0010
0001
,
1000
0001
1000
0010
0100
0001
1000
0001
1000
0010
0100
0001
1000
0010
0100
0001
,
1000
0100
0010
0001
1000
0001
1000
0100
0010
0001
1000
0001
1000
0100
0010
0001
,
1000
0010
0100
0001
0100
0001
0010
0100
1000
0001
1000
0001
0100
0010
1000
0100
,
001M
0000
0000
0000
0001
0000
0000
0000
0100
0000
0010
1000
0100
0000
0010
0001
,
M100
0001
0010
0100
1000
0010
0100
0001
,
0100
0000
0001
0000
0010
0000
0100
0000
1000
0000
0001
0100
0000
0001
1000
0000
,
0100
0010
0001
0100
0010
1000
0001
0010
,
0001
0000
0010
0000
0100
0000
1000
0000
0010
0000
0100
0001
0000
0100
0010
0000
,
1000
0100
0010
0001
0100
0010
1000
0100
,
1000
0100
1000
0001
0010
0001
1000
0010
0100
0001
0100
0010
1000
0001
0010
0100
,
1000
0001
0100
0010
1000
0100
0010
0001
0100
0001
0010
0100
1000
0010
0100
0001
,
1000
0000
0000
0000
0000
0000
0000
0000
0100
0000
1000
0010
M00M
0010
0001
0000
,
0101
0100
0110
0010
1000
0100
0110
0010
,
0100
0000
1000
0000
1001
0000
0001
0000
0100
0000
0001
0010
M00M
0010
1000
0000
,
0100
0010
0011
0001
0100
0010
1010
1000
,
0010
0000
0100
0000
0101
0000
0001
0000
0010
0000
0001
0100
M00M
0100
0010
0000
,
0001
1000
1001
0001
0100
0010
1010
1000
,
0010
0000
0100
0000
0101
0000
0001
0000
0010
0000
0001
0100
M00M
0100
1000
0000
,
0010
0100
0101
0001
0010
0100
1100
1000
,
0100
0000
0010
0000
0011
0000
0001
0000
0100
0000
0001
0010
M00M
0010
1000
0000
,
10M1
0001
0011
0010
0100
1000
1010
0010
,
1000
0000
0001
0000
0011
0000
0010
0000
0100
0000
1000
0010
M00M
0010
0001
0000
,
0100
0001
0011
0010
0100
1000
1010
0010
,
1000
0000
0001
0000
0101
0000
0100
0000
0010
0000
1000
0100
M00M
0100
0001
0000
,
0010
0100
1100
1000
0010
0100
0101
0001
,
0100
0000
0010
0000
1010
0000
1000
0000
0001
0000
1000
0010
M00M
0010
0001
0000
,
1000
0010
1010
1000
0100
0010
0011
0001
,
0010
0000
0100
0000
1000
0000
0010
0000
0100
0000
0001
0010
M00M
0010
1000
0000
,
11M0
0100
0110
0010
0001
0100
0110
0010
,
0100
0000
0001
0000
1001
0000
1000
0000
0100
0000
1000
0010
M00M
0010
0001
0000
,
0100
0010
1010
1000
0100
0010
0011
0001
,
0010
0000
0100
0000
1100
0000
1000
0000
0010
0000
1000
0100
M00M
0100
0010
0000
,
1000
0001
0011
0010
0100
1000
1010
0010
,
1000
0000
0001
0000
0011
0000
0010
0000
0100
0000
1000
0010
M00M
0010
0001
0000
,
0100
0010
1010
1000
0100
0010
0011
0001
,
0010
0000
0100
0000
1100
0000
1000
0000
0010
0000
1000
0100
M00M
0100
0001
0000
,
0M11
0010
0110
0100
1000
0010
0110
0100
,
0001
0000
0100
0000
0110
0000
0010
0000
1000
0000
0001
0010
M00M
0010
1000
0000
,
0001
0010
0110
0100
1000
0010
0110
0100
,
0010
0000
1000
0000
1100
0000
0100
0000
0010
0000
0001
0100
M00M
0100
1000
0000
,
0001
0010
0110
0100
1000
0010
0110
0100
,
0001
0100
0010
1000
0001
1000
0100
0010
0001
0010
0100
1000
0010
0100
0001
0010
,
0100
1000
0010
0100
0001
1000
0100
1000
0010
0100
0001
1000
0100
1000
0010
0100
,
0004
0043
0230
0000
,
1300
0010
0100
0001
1000
0010
0100
0001
1000
0010
0100
0001
1000
0100
0010
0001
,
0100
0010
0100
0001
1000
0010
1000
0001
0010
0100
0010
0001
1000
0001
0100
0010
,
1000
0010
0100
0001
1000
0001
0100
0010
1000
0001
0100
0001
0010
0001
0010
0100
,
1000
0001
1000
0100
0010
0001
0010
0100
1000
0001
1000
0010
0100
0001
0100
0001
,
1000
0100
0010
0001
0010
0001
1000
0001
0010
0100
1000
0001
0010
0001
0100
0010
,
1000
0010
0100
0001
1000
0001
1000
0001
0010
0100
1000
0100
0010
0001
1000
0001
,
1000
0010
0100
0001
0010
0001
0010
0100
1000
0001
0100
0010
1000
0100
0010
0001
,
0010
0100
1000
0001
1000
0010
1000
0010
0100
0001
0100
0000
0010
0000
1000
0000
,
0M01
0010
0100
1000
0001
0010
0100
1000
0001
0010
0100
1000
0001
0100
0010
1000
,
0100
0010
0100
1000
0001
0010
0001
1000
0010
0100
0010
1000
0001
1000
0100
0010
,
0001
0010
0100
1000
0001
1000
0100
0010
0001
1000
0100
1000
0010
1000
0010
0100
,
0001
1000
0001
0100
0010
1000
0010
0100
0001
1000
0001
0010
0100
1000
0100
1000
,
0001
0100
0010
1000
0010
1000
0001
1000
0010
0100
0001
0100
0010
1000
0001
1000
,
0001
0010
0100
1000
0001
1000
0100
0010
0001
1000
0100
1000
0001
1000
0100
0010
,
0001
0100
0010
1000
0001
1000
0010
0100
0010
1000
0001
0100
0001
1000
0100
0010
,
0100
0010
0001
0010
0100
1000
0001
1000
0010
0100
0010
0000
1000
0000
0001
0000
,
0010
0001
0010
0000
0100
1000
0100
0000
0010
0001
0010
0000
0100
1000
0020
0000
,
0130
0001
0100
0000
0010
1000
0010
0000
0100
0000
0001
0000
0010
0100
0010
0100
,
1000
0100
0010
0001
1000
0100
0010
0001
1000
0100
0010
0001
1000
0010
0100
0001
,
0010
0100
0010
0001
1000
0100
1000
0001
0100
0010
0100
0001
1000
0001
0010
0100
,
1000
0100
0010
0001
1000
0001
0010
0100
1000
0001
0010
0001
0100
0001
0100
0010
,
1000
0001
1000
0010
0100
0001
0100
0010
1000
0001
1000
0100
0010
0001
0010
0001
,
1000
0010
0100
0001
0100
0001
1000
0001
0100
0010
1000
0001
0100
0001
0010
0100
,
1000
0100
0010
0001
1000
0001
1000
0001
0100
0010
1000
0010
0100
0001
1000
0001
,
1000
0100
0010
0001
0100
0001
0100
0010
1000
0001
0010
0100
1000
0010
0100
0001
,
0100
0010
1000
0001
1000
0100
1000
0100
0010
0001
0010
0001
1000
0010
0100
0001
,
10M0
0100
0010
0001
1000
0100
0010
0001
1000
0100
0010
0001
1000
0010
0100
0001
,
0010
0100
0010
0001
1000
0100
1000
0001
0100
0010
0100
0001
1000
0001
0010
0100
,
1000
0100
0010
0001
1000
0001
0010
0100
1000
0001
0010
0001
0100
0001
0100
0010
,
1000
0001
1000
0010
0100
0001
0100
0010
1000
0001
1000
0100
0010
0001
0010
0001
,
1000
0010
0100
0001
0100
0001
1000
0001
0100
0010
1000
0010
0100
0001
1000
0001
,
1000
0100
0010
0001
1000
0001
0010
0100
1000
0001
0010
0001
1000
0001
0010
0100
,
1000
1001
0000
0101
0000
1010
0000
1100
,
0000
0010
0001
1001
0000
0001
0010
0100
,
1000
1001
0000
0101
0000
1010
0000
1100
,
0000
0010
0001
0101
0000
1010
1000
0001
,
0010
0110
0000
1100
0000
0011
0000
0101
,
0000
0000
1000
0000
0010
0100
0001
0100
0010
1000
0100
0010
0001
0100
0010
1000
,
0002
0000
0000
0000
,
0000
0000
0000
0000
,
0003
0000
0000
0000
;
