#TITLE:The Watchdog of Hell;
#SUBTITLE:Super Robot Wars-MX;
#ARTIST:S.S.H.;
#TITLETRANSLIT:;
#SUBTITLETRANSLIT:;
#ARTISTTRANSLIT:;
#CREDIT:SulferDragon;
#BANNER:The Watchdog of Hell-banner.png;
#BACKGROUND:The Watchdog of Hell-bg.png;
#LYRICSPATH:;
#CDTITLE:!Sulfer.png;
#MUSIC:The Watchdog of Hell.mp3;
#OFFSET:-0.116;
#SAMPLESTART:95.915;
#SAMPLELENGTH:12.220;
#SELECTABLE:YES;
#BPMS:0.000=194.080;
#STOPS:;
#BGCHANGES:;
// cache tags:
#FIRSTBEAT:1.500;
#LASTBEAT:645.500;
#SONGFILENAME:Songs/Astronomic Metal Collection 2/(SulferDragon) The Watchdog of Hell/The Watchdog of Hell.sm;
#HASMUSIC:1;
#HASBANNER:1;
#MUSICLENGTH:204.282;
// end cache tags

//---------------dance-single - ----------------
#NOTES:
     dance-single:
     :
     Hard:
     11:
     1.000,1.000,1.000,0.538,0.521,1239.000,532.000,110.000,0.000,34.000:
0000
0000
0000
0220
0330
0220
0331
0000
,
0010
0100
0000
2020
3030
2020
3130
0000
,
1000
0010
0000
2200
3300
2200
3310
0000
,
1000
0000
0000
0000
0000
0000
0000
0000
0001
0000
0000
0000
0000
0000
0000
0000
0000
0000
0000
0000
0000
0000
0000
0000
0220
0000
0000
0000
0000
0000
0000
0000
0330
0000
0000
0000
0000
0000
0000
0000
0220
0000
0000
0000
0000
0000
0000
0000
0331
0000
0000
0000
0000
0000
0000
0000
0000
0000
0000
0000
0000
0000
0000
0001
,
1100
0022
0033
0220
0330
0220
0331
0000
,
0010
0100
0000
2020
3030
2020
3130
0000
,
1000
0010
0000
2200
3300
2200
3310
0000
,
1000
0000
0000
0000
0000
0000
0000
0000
0001
0000
0000
0000
0000
0000
0000
0000
1000
0000
0000
0000
1000
0000
0000
0000
0220
0000
0000
0000
0000
0000
0000
0000
0330
0000
0000
0000
0000
0000
0000
0000
0220
0000
0000
0000
0000
0000
0000
0000
1331
0000
0000
0000
0000
0000
0000
0000
0010
0000
0000
0000
0010
0000
0000
0001
,
1000
0000
0000
0000
0100
0000
0000
0000
1000
0000
1000
0000
0011
0200
0000
0000
0000
0000
0000
0300
0100
0000
0010
0000
1001
0000
0000
0000
0010
0000
0000
0000
,
0100
0000
0000
0000
1000
0000
0000
0000
0101
0000
0000
0000
0020
0000
0000
0000
0000
0000
0000
0030
0010
0000
0000
0000
1001
0000
0000
0000
0100
0000
0000
0000
,
0010
0000
0000
0000
0100
0000
0000
0000
1010
0000
0000
0000
0002
0000
0000
0000
0000
0000
0000
0003
0001
0000
0000
0000
1100
0000
0000
0000
0010
0000
0000
0000
,
0001
0010
1100
0011
0000
0101
0001
1010
,
0001
0100
0010
0000
0101
0000
2010
0000
0000
0000
0000
0000
0010
0000
3002
0000
,
0000
0000
1023
0231
0000
0000
0001
0000
,
0310
0001
1000
0000
0110
0000
0101
0000
0000
0000
0101
0000
0100
0000
0000
0000
,
0100
0000
0010
0000
0000
0000
0011
0000
0000
0000
0110
0001
1100
0000
0011
0000
,
0100
0000
0001
0000
0110
0000
1000
0000
0101
0000
0010
0000
0100
0000
0010
0000
0100
0001
0000
0000
0000
0000
0000
0000
1001
0000
0000
0000
0000
0000
0000
0000
,
0100
0110
1001
0101
0000
0000
0101
0110
,
0000
1100
1001
1100
0011
0100
1001
0000
,
0101
0100
0011
0000
0110
0000
0011
1100
,
0001
0000
1001
1010
0101
0000
1001
0010
,
0100
0010
1001
1100
0011
0000
0110
0101
,
0000
0000
0011
1100
0011
0000
1100
1000
,
1010
0000
1000
0000
1001
0000
1000
0000
0011
0000
1100
0010
0101
0000
0011
0000
,
0000
0000
0100
0000
1001
0000
0100
0010
0101
0000
0000
0000
0101
0000
0010
0000
,
1100
0000
0000
0000
0000
0000
0000
0000
0000
0000
0000
0000
0000
0000
0000
0000
0000
0000
0000
0000
0000
0000
0000
0000
0011
0000
0000
0000
0000
0000
0000
0000
0000
0000
0000
0000
0000
0000
0000
0000
0000
0000
0000
0000
0000
0000
0000
0000
1100
0000
0000
0000
0000
0000
0000
0000
0000
0000
0000
0000
0000
0000
0000
0000
0000
0000
0000
0000
0000
0000
0000
0000
0101
0000
0000
0000
0000
0000
0000
0000
0000
0000
0000
0000
0000
0000
0000
0000
0000
0000
0000
0000
0000
0000
0000
0000
0000
0000
0000
0000
0000
0000
0000
0000
0000
0000
0000
0000
0000
0000
0000
0000
0000
0000
0000
0000
0000
0000
0000
0000
0100
0000
0000
0001
0000
0000
0000
0000
0010
0000
0000
0000
0000
0000
0000
0000
0000
0000
0000
0000
0000
0000
0000
0000
1001
0000
0000
0000
0000
0000
0000
0000
0000
0000
0000
0000
0000
0000
0000
0000
0000
0000
0000
0000
0000
0000
0000
0000
0110
0000
0000
0000
0000
0000
0000
0000
0000
0000
0000
0000
0000
0000
0000
0000
0000
0000
0000
0000
0000
0000
0000
0000
,
0010
0001
0000
0000
0000
0000
0000
0000
1100
0000
0000
0000
0000
0000
0000
0000
1001
0000
0000
0000
0000
0000
0000
0000
1010
0000
0000
0000
0000
0000
0000
0000
0110
0000
0001
0000
0000
0000
0000
0000
1100
0000
0000
0000
0000
0000
0000
0000
0011
0000
0000
0000
0000
0000
0000
0000
0000
0000
0000
0000
0000
0000
0000
0000
,
0101
0010
1001
0000
0101
1000
0110
0101
,
0000
0000
1010
1100
0101
0000
0011
0100
,
1000
0110
1001
0100
1000
0010
0001
0010
,
0001
0100
0011
1100
0011
0000
1001
1010
,
1000
0000
1000
0000
1010
0000
1001
0000
1000
0000
1100
0010
1100
0000
0001
0000
,
0010
0100
1001
0100
0011
0000
0011
0100
1000
0000
0000
0000
0001
0000
0110
0000
,
0000
0100
0011
0100
0001
0000
0100
1001
,
0000
0000
1100
0010
0101
0000
1001
0000
0011
0000
0000
0000
0100
0000
0001
0000
,
0100
0010
1001
0100
0010
0100
0001
0010
,
0000
1100
0011
1010
0110
0000
0000
0010
,
0000
0010
0101
0010
0100
0000
0001
0100
,
0010
0000
1001
0100
1010
0000
1001
0000
0011
0000
0000
0000
0100
0000
0101
0000
,
0000
0000
0100
0000
0001
0000
0110
0000
0000
0000
0100
0001
1000
0000
0101
0000
,
0000
0000
1001
0010
0101
0000
1010
0000
0011
0000
0000
0000
1001
0000
0010
0000
,
0001
0100
0011
0100
0010
0000
0101
1000
,
0001
1100
0110
0001
0000
1000
0011
1000
,
0001
0100
0011
0100
0010
0000
1010
0001
,
0010
0100
0011
0000
0110
0000
1001
1100
,
1000
1000
1001
1000
1000
1000
1001
1000
,
1100
1000
1010
1000
0110
0000
0010
1001
,
0000
0000
0010
1000
0101
0000
0011
0000
0000
0000
0010
1000
0011
0000
1000
0100
,
0011
0100
1000
0010
0101
0000
0012
0000
0000
0000
0000
0000
0000
0000
0000
0000
,
0000
0000
0000
0000
0000
0000
0000
0000
0000
0000
0000
0000
0000
0000
0000
0000
0000
0000
0000
0000
0000
0000
0000
0000
0100
0000
0000
0000
0000
0000
0000
0000
0000
0000
0000
0000
0000
0000
0000
0000
0000
0000
0000
0000
0003
0001
0000
0000
1000
0000
0000
0000
0000
0000
0000
0000
0000
0000
0000
0000
0000
0000
0000
0000
0000
0000
0000
0000
0000
0000
0000
0000
0011
0000
0000
0000
0000
0000
0000
0000
0000
0000
0000
0000
0000
0000
0000
0000
0000
0000
0000
0000
0000
0000
0000
0000
0000
0000
0000
0000
0000
0000
0000
0000
0000
0000
0000
0000
0000
0000
0000
0000
0000
0000
0000
0000
0000
0000
0000
0000
0010
0000
0000
0000
0000
0000
0000
0000
0000
0000
0000
0000
1000
0000
0000
0000
0000
0000
0000
0000
0000
0000
0000
0000
0110
0000
0000
0000
0000
0000
0000
0000
0000
0000
0000
0000
0000
0000
0000
0000
0000
0000
0000
0000
0000
0000
0000
0000
0000
0000
0000
0000
0000
0000
0000
0000
0000
0000
0000
0000
0000
0000
0000
0000
0000
0000
0000
0000
0000
0000
0000
0000
,
1010
0001
0110
0001
1100
0000
0011
0000
0000
0000
0000
0000
0110
0000
0000
0000
,
1010
0001
0110
0001
1100
0000
1001
0000
0000
0000
0010
1000
0110
0000
0000
0000
,
1100
0000
1010
0000
0100
0000
1001
0000
0000
0000
0110
0001
1010
0000
1001
0000
,
0010
0000
1010
0000
1100
0000
1010
0001
0110
0000
0000
0000
0010
0000
0101
0000
,
0000
0000
0000
0000
0110
0001
0100
0001
1100
0000
0000
0000
0101
0000
0010
0000
,
0000
0100
1010
1100
0011
0000
0101
0000
,
0110
0000
0000
0000
0101
0000
1000
0000
0011
0000
1000
0100
0011
0000
1000
0100
,
0011
0000
0000
0000
0011
0000
0000
0000
0011
0000
0000
0000
1000
0000
0000
0000
1000
0000
0000
0000
1000
0000
0000
0000
0100
0000
0000
0010
0000
0000
0001
0000
0000
1000
0000
0000
0011
0000
0000
0000
0000
0000
0100
0000
0000
0000
0000
0000
,
0010
0000
0000
0000
0100
0000
0000
0000
0010
0000
0000
0000
0000
0000
0000
0001
1000
0000
0000
0000
0000
0000
0000
0000
0011
0000
0000
0000
0000
0000
0000
0000
0001
0000
0000
0000
0000
0000
0000
0000
0010
0000
0000
0000
1000
0000
0000
0000
0011
0000
0000
0000
1000
0000
0000
0000
0001
0000
0000
0000
0000
0000
0000
0000
,
0110
1000
0010
1000
0101
0000
0001
0000
1100
0000
0000
0000
0001
0000
0100
0000
,
0000
0000
0000
0000
0110
1000
0101
1000
0001
0000
0010
1000
0011
1000
0001
0000
,
0110
1000
0010
1000
0101
0000
1000
0000
0011
0000
0000
0000
0001
0000
1000
0000
,
0100
1100
0011
0101
0000
1010
0101
1100
,
0010
0010
0101
1000
0011
0000
0000
0000
0000
0000
0010
0100
0010
0000
0000
0000
,
0010
0000
0000
0000
0010
0000
0000
0000
0011
1000
0011
0100
1000
0000
1100
0001
,
1100
0000
0010
0000
1000
0000
0001
0000
1100
0000
0010
0000
1001
0200
0000
0000
0000
0000
0000
0300
0100
0000
0010
0000
1001
0000
0000
0000
0010
0000
0000
0000
,
0100
0000
0000
0000
1000
0000
0000
0000
0101
0000
0000
0000
0020
0000
0000
0000
0000
0000
0000
0030
0010
0000
0000
0000
1001
0000
0000
0000
0100
0000
0000
0000
,
0010
0000
0000
0000
0100
0000
0000
0000
1010
0000
0000
0000
0002
0000
0000
0000
0000
0000
0000
0003
0001
0000
0000
0000
1100
0000
0000
0000
0010
0000
0000
0000
,
0001
0010
1100
0011
0000
0101
0001
1010
,
0001
0100
0010
0000
0101
0000
2010
0000
0000
0000
0000
0000
0010
0000
3002
0000
,
0000
0000
1023
0231
0000
0000
0001
0000
,
0310
0001
1000
0000
0110
0000
0101
0000
0000
0000
0101
0000
0100
0000
0000
0000
,
0100
0000
0010
0000
0000
0000
0011
0000
0000
0000
0110
0001
1100
0000
0011
0000
,
0100
0001
0110
1000
0101
0100
0012
0000
0000
0000
0013
0100
1000
0000
0100
0000
,
0001
0010
0100
1000
0000
0100
0010
1000
,
0000
0100
1000
0001
0000
1000
0001
1000
,
0100
0001
1000
0010
0001
0100
0010
0001
,
0100
0010
0001
0000
0010
0000
0100
0000
0010
0100
1000
0100
0010
0001
0010
0100
,
1000
0100
0010
0001
0010
0100
1000
0100
0010
1000
0100
1000
0010
1000
0100
0010
,
0001
0000
1000
0000
0100
0000
0001
0000
0100
0000
0010
0000
1000
0000
0000
0000
0000
0000
0100
0000
0000
1000
0000
0000
,
0000
0000
1000
0000
0100
0000
0010
0000
0001
0000
0100
0000
0010
0000
0100
0010
,
0001
0000
0010
0000
0001
0010
0001
0000
0000
0000
0100
1000
0001
0000
0100
1000
,
0001
0000
0100
1000
0001
0000
0100
1000
0001
0000
0100
1000
0001
0000
0100
1000
,
0001
0000
0100
1000
0001
0010
0001
0100
1000
0100
0010
0001
0100
0010
1000
0100
,
0010
0000
1000
0000
0100
0000
0010
0000
1000
0000
0100
0000
0010
0000
1000
0000
0100
0000
0010
0000
1000
0000
0100
0000
0010
0000
1000
0000
0100
0000
1000
0001
,
0000
0100
0010
0100
1000
0100
1000
0020
,
0000
0230
0000
0302
0000
2003
0000
3020
,
0000
0000
0230
0000
0000
0000
0310
0001
1000
0000
0001
0000
0010
0000
0100
0000
,
0001
0000
1000
0000
0010
0000
0001
0000
1100
0010
1001
0010
0101
1000
0011
0100
,
0001
0000
0000
0000
0110
0000
1000
0000
0101
0000
0010
0000
0100
0000
0010
0000
0100
0001
0000
0000
0000
0000
0000
0000
1001
0000
0000
0000
0000
0000
0000
0000
,
0100
0110
1001
0101
0000
0000
0101
0110
,
0000
1100
1001
1100
0011
0100
1001
0000
,
0101
0100
0011
0000
0110
0000
0011
1100
,
0001
0000
1001
1010
0101
0000
1001
0010
,
0100
0010
1001
1100
0011
0000
0110
0101
,
0000
0000
0011
1100
0011
0000
1100
1000
,
1010
0000
1000
0000
1001
0000
1000
0000
0011
0000
1100
0010
0101
0000
0011
0000
,
0000
0000
1200
0000
2310
0000
3210
1000
0312
0000
0000
0000
0100
0000
0000
0000
,
0000
0000
0000
0000
0000
0000
0000
0000
0000
0000
0000
0000
0000
0000
0000
0000
0000
0000
0000
0000
0000
0000
0000
0000
0000
0000
0000
0000
0000
0000
0000
0000
0000
0000
0000
0000
0000
0000
0000
0000
0000
0000
0000
0000
0000
0000
0000
0000
0100
0000
0000
0000
0000
0000
0000
0000
0000
0000
0000
0000
0000
0000
0000
0000
0000
0000
0000
0000
0000
0000
0000
0000
0000
0000
0000
0000
0000
0000
0000
0000
0000
0000
0000
0000
0000
0000
0000
0000
0000
0000
0000
0000
0000
0000
0000
0000
0000
0000
0000
0000
0000
0000
0000
0000
0000
0000
0000
0000
0000
0000
0000
0000
0003
0000
0000
0000
0000
0000
0000
0000
0002
0000
0000
0100
0000
0000
0010
0000
0000
0000
0000
0000
0000
0000
0000
0000
0000
0000
0000
0000
0000
0000
0000
0000
1203
0000
0000
0000
0000
0000
0000
0000
0000
0000
0000
0000
0000
0000
0000
0000
0000
0000
0000
0000
0000
0000
0000
0000
0321
0000
0000
0000
0000
0000
0000
0000
0000
0000
0000
0000
0000
0000
0000
0000
0000
0000
0000
0000
0000
0000
0000
0000
,
0132
1023
0231
2301
3120
0000
0001
0000
,
0000
0000
0000
0000
0000
0000
0231
0000
0000
2300
0000
0000
0000
0000
3000
2000
0000
0000
3021
0000
0000
0230
0000
0000
,
0320
0000
0230
0000
2301
0000
3200
0000
0000
0000
0000
0000
0312
2003
3020
0000
,
0230
0320
0132
0023
0000
0230
0312
2003
,
3020
0032
1023
0230
2300
3200
1302
0023
,
0230
0320
2130
3002
0000
0000
0100
0000
,
0013
0100
1001
0100
0011
0000
0011
0100
1000
0000
0000
0000
0001
0000
0110
0000
,
0000
0100
0011
0100
0001
0000
0100
1001
,
0000
0000
1100
0010
0101
0000
1001
0000
0011
0000
0000
0000
0100
0000
0001
0000
,
0100
0010
1001
0100
0010
0100
0001
0010
,
0000
1100
0011
1010
0110
0000
0000
0010
,
0000
0010
0101
0010
0100
0000
0001
0100
,
0010
0000
1001
0100
1010
0000
1001
0000
0011
0000
0000
0000
0100
0000
0101
0000
,
0000
0000
0100
0000
0001
0000
0110
0000
0000
0000
0100
0001
1000
0000
0101
0000
,
0000
0000
1001
0010
0101
0000
1010
0000
0011
0000
0000
0000
1001
0000
0010
0000
,
0001
0100
0011
0100
0010
0000
0101
1000
,
0001
1100
0110
0001
0000
1000
0011
1000
,
0001
0100
0011
0100
0010
0000
1010
0001
,
0010
0100
0011
0000
0110
0000
1001
1100
,
1000
1000
1001
1000
1000
1000
1001
1000
,
1100
1000
1010
1000
0110
0000
0010
1001
,
0000
0000
0010
1000
0101
0000
0011
0000
0000
0000
0010
1000
0011
0000
1000
0100
,
0011
0100
1000
0010
0101
0000
0011
0000
1100
0001
0100
0010
1100
0001
0100
0010
,
1100
0000
0000
0000
0001
0000
0000
0000
1010
0000
0000
0000
0100
0000
0000
0001
1000
0000
0000
0000
0000
0000
0000
0000
0101
0000
0000
0000
0000
0000
0000
0000
0000
0000
0000
0000
0000
0000
0000
0000
0010
0000
0000
0000
1000
0000
0000
0000
0110
0000
0000
0000
0000
0000
0000
0000
0000
0000
0000
0000
0000
0000
0000
0000
,
1100
0001
0110
0001
1010
0000
0101
0000
0000
0000
0000
0000
0110
0000
0000
0000
,
1100
0001
0110
0001
1010
0000
0011
0000
0000
0000
0010
1000
0110
0000
0000
0000
,
1100
0000
1010
0000
0001
0000
1100
0000
0000
0000
0110
0001
1010
0000
1001
0000
,
0010
0000
1010
0000
1100
0000
1010
0001
0110
0000
0000
0000
0100
0000
0011
0000
,
0000
0000
0000
0000
0110
0001
0100
0001
1100
0000
0000
0000
0101
0000
0010
0000
,
0000
0100
1010
1100
0011
0000
0101
0000
,
1001
0000
0000
0000
0101
0000
1000
0000
0011
0000
1000
0100
0011
0000
1000
0100
,
0011
0000
0000
0000
0011
0000
0000
0000
0011
0000
0000
0000
1000
0000
0000
0000
1000
0000
0000
0000
1000
0000
0000
0000
0100
0000
0000
0010
0000
0000
0001
0000
0000
1000
0000
0000
0011
0000
0000
0000
0000
0000
0100
0000
0000
0000
0000
0000
,
0010
0000
0000
0000
0100
0000
0000
0000
0010
0000
0000
0000
0000
0000
0000
0001
1000
0000
0000
0000
0000
0000
0000
0000
0011
0000
0000
0000
0000
0000
0000
0000
0001
0000
0000
0000
0000
0000
0000
0000
0010
0000
0000
0000
1000
0000
0000
0000
0011
0000
0000
0000
1000
0000
0000
0000
0001
0000
0000
0000
0000
0000
0000
0000
,
0110
1000
0010
1000
0101
0000
0001
0000
1100
0000
0000
0000
0001
0000
0100
0000
,
0000
0000
0000
0000
0110
1000
0101
1000
0001
0000
0010
1000
0011
1000
0001
0000
,
0110
1000
0010
1000
0101
0000
1000
0000
0011
0000
0000
0000
0001
0000
1000
0000
,
0100
1100
0011
0101
0000
1010
0101
1100
,
0010
0010
0101
1000
0011
0000
1100
0000
0000
0000
0010
0100
1001
0000
0000
0000
,
0100
0010
0100
0001
0000
0000
1001
0000
,
0100
0010
1200
0302
0000
0000
0100
0000
,
0000
0000
0000
0000
0000
0000
0000
0000
0000
0000
0000
0000
1013
0000
0000
0100
0000
0000
0020
0000
0000
0000
0000
0000
0000
0000
0000
0000
0030
0000
0010
0000
0000
0000
0000
0000
0101
0000
0000
0000
0000
0000
0010
0000
0000
0000
0000
0000
,
1000
0010
0101
1001
0000
0110
1001
0100
,
1010
0101
1100
0011
0000
0110
1001
0100
,
1010
0101
1100
0011
0000
0110
1001
0100
,
1010
0101
1100
0011
0000
1100
0011
0100
,
1001
0001
1100
0001
0110
0000
0011
0000
0000
0000
0110
1000
0101
0000
0010
0000
,
1100
0011
1010
0101
0000
1010
0101
0010
,
1100
0011
1010
0101
0000
1010
0101
0010
,
1100
0011
0110
1001
0000
1100
0011
0100
,
1010
0101
1100
0011
0000
1010
0101
0010
,
1100
0011
1010
0101
0000
1010
0101
0010
,
1100
0011
1010
0101
0000
1010
0101
0010
,
1100
0000
0011
0000
0110
0000
1001
0000
0011
1000
0101
1000
0001
0010
1100
0001
,
1010
0000
0001
0000
1000
0000
0010
0000
0101
0000
1000
0000
0011
0200
0000
0000
0000
0000
0000
0300
0100
0000
0010
0000
1001
0000
0000
0000
0010
0000
0000
0000
,
0100
0000
0000
0000
1000
0000
0000
0000
0101
0000
0000
0000
0020
0000
0000
0000
0000
0000
0000
0030
0010
0000
0000
0000
1001
0000
0000
0000
0100
0000
0000
0000
,
0010
0000
0000
0000
0100
0000
0000
0000
1010
0000
0000
0000
0002
0000
0000
0000
0000
0000
0000
0003
0001
0000
0000
0000
1100
0000
0000
0000
0010
0000
0000
0000
,
0001
0010
1100
0011
0000
0101
0001
1010
,
0001
0100
1010
0000
0101
0000
2001
0000
0000
0000
0000
0000
0010
0000
3002
0000
,
0000
0000
0000
0000
0000
0000
0000
0000
1023
0000
0000
0000
0231
0000
0000
0000
0000
0000
0000
0000
0000
0000
0000
0000
0001
0000
0000
0000
0000
0000
0000
0300
,
0110
0001
1000
0000
0110
0000
0101
0000
0000
0000
0101
0000
0110
0000
0110
0100
,
0010
0100
1000
0001
1100
0100
1001
0000
0000
0000
1100
0010
1001
0000
0101
0000
,
0000
0000
0110
1000
0011
0100
0010
0100
0012
0000
0000
0000
0010
0000
0000
0000
,
0010
0000
0000
0000
0000
0000
0000
0000
0000
0000
0000
0003
1001
0000
0000
0000
0000
0000
0101
0000
0000
0000
0000
0000
0000
0000
0000
0000
0000
0000
0000
0000
0000
0000
0000
0000
0000
0000
0000
0000
0000
0000
0000
0000
0000
0000
0000
0000
;
