#TITLE:MODEL DD5;
#SUBTITLE:;
#ARTIST:Mutuhiko Izumi;
#TITLETRANSLIT:;
#SUBTITLETRANSLIT:;
#ARTISTTRANSLIT:;
#CREDIT:;
#BANNER:dd5bn.bmp;
#BACKGROUND:dr_mamo.bmp;
#LYRICSPATH:;
#CDTITLE:;
#MUSIC:MODEL DD5_mp3.wav;
#OFFSET:0.683;
#SAMPLESTART:39.868;
#SAMPLELENGTH:12.000;
#SELECTABLE:NO;
#BPMS:0.000=150.000,100.000=300.000,184.000=600.000,398.000=300.000,484.000=600.000;
#STOPS:15.000=0.551
,520.000=0.823
;
#BGCHANGES:;
// cache tags:
#FIRSTBEAT:15.000;
#LASTBEAT:527.000;
#SONGFILENAME:Songs/keyboard/DD5/DD5.sm;
#HASMUSIC:1;
#HASBANNER:1;
#MUSICLENGTH:104.321;
// end cache tags

//---------------dance-single - model dd5----------------
#NOTES:
     dance-single:
     model dd5:
     Hard:
     12:
     1.000,1.000,1.000,0.144,0.225,652.000,188.000,15.000,0.000,0.000:

0000
0000
0000
0000
,
0000
0000
0000
0000
,
0000
0000
0000
0000
,
0000
0000
0000
0000
0000
0000
2002
2002
,
0100
0000
1010
0000
0100
0000
0010
0000
0001
0000
0010
0000
0100
1000
0100
0000
,
1010
0000
0001
0000
0010
0000
0100
0000
1000
0000
0100
0010
0001
0000
0110
0000
,
0100
0000
1000
0000
0100
0000
0010
0000
0001
0100
1000
0000
0110
0000
0001
0000
,
0010
0000
0100
0001
0010
1000
0100
0010
0100
0000
1000
0000
0011
0000
0001
0000
,
0010
0000
0100
0000
1000
0100
0010
0000
1001
0000
0010
0000
0100
0000
1000
0000
,
0010
0000
0001
1000
0100
0000
1010
0000
0100
0000
0010
0000
0001
0000
0010
0000
,
0100
1000
0100
0000
1010
0000
0001
0000
0010
0000
1000
0000
0100
0000
0010
0001
,
0100
0000
1010
0000
0101
0000
0110
0000
1100
0000
0010
0100
0010
0001
1000
0100
,
0000
0100
0010
0000
0010
0001
0000
0001
0020
0000
0000
0020
1100
0000
0010
0000
,
0100
0000
0010
0000
0100
0000
0010
0000
0100
0010
0100
1000
0100
1000
0100
0010
,
0100
0010
0100
0010
0100
0001
1000
0001
0010
0000
1100
0000
0010
0000
0001
0000
,
0100
0000
1000
0000
0010
1000
0100
0000
0110
0000
0001
0000
0010
0000
0100
0000
,
0010
0000
0001
0010
0100
0000
1010
0000
0100
0000
0010
0000
0100
0000
0010
0000
,
0001
0010
1000
0000
1001
0000
0100
0000
0010
0000
0100
0000
0010
0000
0100
0010
,
1000
0000
0101
0000
0010
0000
0100
0000
1000
0000
0100
0000
0001
0010
0100
0000
,
1001
0000
0100
0000
0010
0000
0100
0000
1000
0000
0010
0001
0010
0000
1100
0000
,
0100
0000
0110
0000
0001
0000
0110
0000
0100
0010
1000
0000
0101
0000
0011
0000
,
0101
0000
0011
0000
1100
0000
0010
0001
0100
1000
0100
0010
0100
0000
0010
0000
,
0001
0000
0010
0000
0100
1000
0010
0001
0000
0001
0010
0000
0010
0100
0000
0100
,
0020
0000
0000
0020
1001
0000
0100
0000
1010
0000
0100
0000
0001
0000
0010
0000
,
0100
1000
0100
0010
0100
0010
0100
0010
0100
0010
1000
0010
1000
0010
1000
0010
,
0101
1100
0101
1010
,
0101
0000
1010
0000
0101
0010
1001
0100
,
0010
1000
0100
0010
0001
0100
0010
1000
,
0100
0001
1010
0100
0011
0000
1010
0000
,
0110
1001
0110
0110
,
1100
0001
1010
0100
0010
1000
0100
0001
,
0010
0100
1000
0010
0100
0010
1001
0100
,
0011
1100
1010
0101
,
1100
0000
1001
0000
0101
0100
0101
0010
,
0100
0010
1000
0100
1000
0100
0010
0001
,
0010
1000
0101
0010
1001
0000
0110
0000
,
1010
0101
0110
1010
,
0011
0100
1010
0100
0001
0010
0100
1000
,
0100
0010
0001
0010
0100
1000
0101
0010
,
1010
0110
0101
1010
,
0110
0000
0110
0000
0101
0100
1100
0100
,
0000
0001
0001
0000
1010
0000
0110
0000
,
0101
0010
1010
0100
1000
0100
1000
0000
,
0100
0000
0010
0000
1001
0000
1001
0100
,
1000
0100
1010
0000
1100
0000
1010
0000
,
0101
0000
1010
0000
0101
0000
0110
0010
,
1100
0000
0110
0000
,
0101
0000
1100
0000
,
0101
0000
1100
0000
,
1010
0010
0011
0000
,
1100
0000
0110
0000
,
0101
0000
1010
0000
,
0110
0000
1010
0010
,
0011
0100
1000
0100
,
0010
0001
0100
1000
,
0010
0001
0100
0001
,
0110
0100
1001
0100
,
0010
1000
0100
0001
,
1000
0010
0100
0010
,
0010
1000
0101
0100
,
1100
0000
0101
0000
,
1010
0000
1001
0000
,
0110
0000
1010
0000
,
0011
0010
1100
0010
,
0100
0100
0010
0100
,
0010
1000
0100
0010
,
0100
0001
0110
1000
,
0011
0000
1100
0000
,
0110
0000
1010
0000
,
0110
0000
0101
0000
,
1100
0100
0110
0000
,
1100
0000
0011
1000
,
0100
0000
0110
0000
,
1010
0000
0101
0001
,
0011
0100
0010
0100
,
0001
1000
0001
1000
,
0010
0100
0001
0100
,
0110
1000
0100
0110
,
0000
0010
0011
0000
,
0001
1001
0000
0100
,
0110
1000
0100
1000
,
0100
0010
0001
0010
,
0001
1000
0010
0100
,
0010
0001
1000
0100
,
1000
0100
0001
0010
,
1000
0100
0001
0100
,
1000
0100
0010
0011
,
0010
0100
1000
0100
,
1100
0000
1010
0000
,
0100
0001
0010
0000
,
0100
0000
0010
0000
,
0100
0010
0100
0110
,
0010
0000
1000
0100
,
0201
0000
0001
0200
,
1000
0000
0110
0000
,
0011
0000
0100
1000
,
0100
0000
0010
0010
,
0020
1000
0000
1020
,
0010
0100
1000
0100
,
0010
0001
0100
1000
,
1001
0110
0110
1100
,
0011
0000
0110
0000
1100
0100
0110
0000
,
0101
0000
0010
0100
0011
0000
0110
0000
,
1100
0000
0101
0001
0010
0001
0100
0000
,
1100
0110
0011
0110
,
1100
1000
1000
0100
1000
0010
0100
0001
,
1100
0000
0010
0100
0010
1000
0011
0010
,
0011
0100
1000
0100
0010
0001
0010
0000
,
0110
0000
0110
0000
1000
0010
0001
0100
,
1000
0000
1000
0100
0001
0000
0110
0000
,
1010
0100
0110
0000
0001
0000
0110
0000
,
1000
0000
0110
0000
0001
0000
0110
0010
,
1100
0000
0010
0100
0001
0100
0010
0001
,
0100
0001
1000
0001
0100
0100
0110
0100
,
0100
0110
1010
0101
,
0110
0100
1100
0100
0100
0020
0020
0002
,
0020
0022
2000
0200
2200
0020
0002
0022
,
1000
1100
0000
0010
0011
0000
0100
1100
,
0000
0100
0110
0000
0000
0000
1000
0100
,
1000
0100
1000
0100
1000
0100
1000
0100
,
0010
0001
1000
1001
0000
0000
0000
0000
,
1010
0010
0010
0011
,
0000
0000
1000
1000
,
0010
0100
0010
0110
,
0001
1000
0100
0010
,
1000
1000
0000
1010
,
0000
0000
0100
0010
,
0000
2002
0000
0000
,
0000
0000
0000
0000
,
0000
0000
0000
2002
,
1010
0100
0010
0100
,
0010
0000
0010
0110
,;
