#TITLE:Code Red;
#SUBTITLE:(Atomic Mix);
#ARTIST:Grim5768 feat. Agent Snookie;
#TITLETRANSLIT:;
#SUBTITLETRANSLIT:;
#ARTISTTRANSLIT:;
#CREDIT:;
#BANNER:Code Red (Atomic Mix)-bn.PNG;
#BACKGROUND:Code Red (Atomic Mix)-bg.PNG;
#LYRICSPATH:;
#CDTITLE:D_M_BLZ_CDTITLE.PNG;
#MUSIC:Code Red (Atomic Mix).mp3;
#OFFSET:-0.038;
#SAMPLESTART:13.900;
#SAMPLELENGTH:12.000;
#SELECTABLE:YES;
#BPMS:0.000=138.000;
#STOPS:;
#BGCHANGES:;
// cache tags:
#FIRSTBEAT:16.000;
#LASTBEAT:229.500;
#SONGFILENAME:Songs/new cedric/Code Red (Atomic Mix)/Code Red (Atomic Mix).sm;
#HASMUSIC:1;
#HASBANNER:1;
#MUSICLENGTH:100.784;
// end cache tags

//---------------dance-single - Light----------------
#NOTES:
     dance-single:
     Light:
     Easy:
     3:
     0.197,0.255,0.040,0.000,0.000,135.000,4.000,0.000,0.000,0.000:
0000
0000
0000
0000
,
0000
0000
0000
0000
,
0000
0000
0000
0000
,
0000
0000
0000
0000
,
1000
0010
0001
0000
,
0001
0100
1000
0000
,
0010
1000
0100
0000
,
0010
0001
0100
0000
,
1000
1000
0001
0000
,
0001
0001
1000
0000
,
0100
0100
0010
0000
,
0010
0010
0100
0000
,
1000
0010
0100
0000
,
0001
0010
0100
0000
,
1000
0001
0100
0000
,
1000
0010
0100
0000
,
1000
0000
1000
0000
,
0001
0000
0001
0000
,
0100
0000
0100
0000
,
0010
0000
1000
0000
,
0001
0000
0100
0000
,
0010
0000
1000
0000
,
0001
0000
1000
0000
,
0010
0000
0001
0000
,
1001
0000
0000
0000
,
1000
1000
1000
1000
,
0001
0001
0001
0001
,
0010
0010
0010
0010
,
0100
0100
0100
0100
,
1000
0100
0000
0010
,
0000
0001
0000
1000
,
0000
0100
0000
0010
,
0000
0001
0000
1000
,
0000
0010
0000
1000
,
0100
0010
0000
0001
,
0100
0010
0000
1000
,
0010
0001
0000
0001
,
0100
1000
0010
0001
,
0100
0000
0010
0000
,
1000
0000
0001
0000
,
0010
0000
0100
0000
,
1000
0000
1000
0000
,
0001
0000
0001
0000
,
0010
0000
0010
0000
,
0100
0000
0100
0000
,
1000
1001
0000
0001
,
0000
0010
1000
0100
,
0010
1001
0000
1000
,
0000
1000
0001
0010
,
0100
0000
1000
0000
,
0010
0000
0001
0000
,
1000
0000
0100
0000
,
0010
0000
0001
0000
,
1000
0000
0000
0000
,
0010
0000
0000
0000
,
0100
0000
0000
0000
,
0001
1000
0010
1000
,
1001
0000
0000
0000
;

//---------------dance-single - Beginner----------------
#NOTES:
     dance-single:
     Beginner:
     Beginner:
     1:
     0.120,0.141,0.040,0.040,0.000,77.000,4.000,4.000,0.000,0.000:
0000
0000
0000
0000
,
0000
0000
0000
0000
,
0000
0000
0000
0000
,
0000
0000
0000
0000
,
1000
0000
0001
0000
,
0001
0000
1000
0000
,
0010
0000
0100
0000
,
0010
0000
0100
0000
,
1000
0000
0001
0000
,
0001
0000
1000
0000
,
0100
0000
0010
0000
,
0010
0000
0100
0000
,
1000
0000
0100
0000
,
0001
0000
0100
0000
,
1000
0000
0100
0000
,
1000
0000
0100
0000
,
1000
0000
0000
0000
,
0001
0000
0000
0000
,
0100
0000
0000
0000
,
0010
0000
0000
0000
,
0001
0000
0000
0000
,
0010
0000
0000
0000
,
0001
0000
0000
0000
,
0010
0000
0000
0000
,
1001
0000
0000
0000
,
2000
0000
0000
3000
,
0002
0000
0000
0003
,
0020
0000
0000
0030
,
0200
0000
0000
0300
,
1000
0000
0000
0010
,
0000
0000
0000
1000
,
0000
0000
0000
0010
,
0000
0000
0000
1000
,
0000
0000
0000
1000
,
0000
0010
0000
0001
,
0000
0010
0000
1000
,
0000
0001
0000
0001
,
0000
1000
0000
0001
,
0000
0000
0010
0000
,
1000
0000
0000
0000
,
0010
0000
0000
0000
,
1000
0000
0000
0000
,
0001
0000
0000
0000
,
0010
0000
0000
0000
,
0100
0000
0000
0000
,
1000
1001
0000
0001
,
0000
0010
0000
0100
,
0000
1001
0000
0000
,
0000
1000
0001
0000
,
0100
0000
1000
0000
,
0000
0000
0001
0000
,
1000
0000
0000
0000
,
0010
0000
0000
0000
,
1000
0000
0000
0000
,
0010
0000
0000
0000
,
0100
0000
0000
0000
,
0001
0000
0010
0000
,
1001
0000
0000
0000
;

//---------------dance-single - Medium----------------
#NOTES:
     dance-single:
     Medium:
     Medium:
     7:
     0.489,0.569,0.159,0.556,0.089,273.000,16.000,56.000,0.000,0.000:
0000
0000
0000
0000
,
0000
0000
0000
0000
,
0000
0000
0000
0000
,
0000
0000
0000
0000
,
1000
0000
0010
0000
0001
1000
0001
0000
,
0001
0000
0100
0000
1000
0010
1000
0000
,
0010
0000
1000
0000
0100
0010
0100
0000
,
0010
0000
0001
0000
0100
0001
0100
0000
,
0100
0000
1000
0000
0001
1000
0100
1000
,
0001
0000
0001
0000
1000
0010
1000
0001
,
0100
0000
0100
0000
0010
1000
0001
0000
,
0010
0000
0011
0000
0100
0001
0100
0010
,
1000
0000
0000
0010
0000
0000
0001
0000
0100
0000
0001
0000
2000
0000
3200
0000
,
0301
0000
0000
0100
0000
0000
0010
0000
0100
0000
0001
0000
2000
0000
3200
0000
,
1300
0000
0000
0001
0000
0000
1000
0000
0100
0000
1000
0000
0200
0000
2300
0000
,
3100
0000
0000
0010
0000
0000
1000
0000
0100
0000
1000
0000
0001
0000
0100
0000
,
2000
0000
3200
0000
2300
0100
3200
0000
,
0302
0000
0023
0000
0032
1000
2003
0100
,
3200
0000
0320
0000
0230
0010
0320
0100
,
2030
0000
3200
0000
2300
0000
3200
0001
,
0302
0000
2003
0000
3200
0000
0302
0010
,
0023
0000
0230
0000
2300
0000
3200
0001
,
0302
0000
0023
0000
1030
0000
0100
0010
,
0100
0000
1001
0000
0101
0000
1000
0010
,
2002
0000
0000
3003
,
1000
1000
1000
1000
,
0001
0001
0001
0001
,
0010
0010
0010
0010
,
0100
0100
0100
0100
,
1000
1100
0000
0110
,
0000
1001
0000
0110
,
0000
0101
0000
1010
,
0000
1001
0000
1100
,
0000
0000
0011
0000
0000
0000
2000
3200
,
0300
0000
0011
0000
0000
0000
0002
2003
,
3100
0000
0010
0000
0000
0000
2000
3200
,
0310
0000
0101
0000
0000
0000
0002
2003
,
3100
0000
0000
0000
0000
1000
0000
0000
0000
0000
0000
0000
1000
0000
0000
0000
0010
0000
0000
0000
1000
0000
0000
0000
0001
0000
0000
0000
1000
0000
0000
0000
,
0100
0000
0000
0010
0000
0000
0100
0000
0010
0000
0100
0000
0001
0000
0100
0000
,
1000
0000
0000
0100
0000
0000
1000
0000
0001
0000
1000
0000
0001
0000
0100
0000
,
0010
0000
0000
1000
0000
0000
0001
0000
0100
0000
0001
0000
0010
0000
0100
0000
,
1000
0010
1000
0000
1000
0010
0100
0000
,
0001
1000
0001
0000
0001
0100
0001
0000
,
0010
0001
0100
0000
0010
0100
1000
0000
,
0100
0010
0001
0000
0100
0010
0100
0000
,
1000
0020
0030
0000
1000
0200
0300
0000
,
0010
0000
0200
0000
0300
0000
0000
0000
2000
0000
0000
3200
0000
0000
0320
0000
,
0000
0032
1000
0003
0000
0200
1000
0300
,
0000
0000
0200
0000
1000
0000
0300
0000
0002
0000
0000
0023
0000
0000
0230
0000
,
1000
0300
0000
1000
0000
0000
1000
0000
0100
0000
0010
0000
0001
0000
0100
0000
,
0010
0000
0000
0010
0000
0000
0010
0000
0001
0000
0100
0000
0001
0000
0100
0000
,
1000
0000
0000
1000
0000
0000
1000
0000
0100
0000
1000
0000
0010
0000
0100
0000
,
0010
0000
0000
0010
0000
0000
0100
0000
0001
0000
0100
0000
0010
0000
0001
0000
,
1000
0000
0000
0001
0000
0000
0100
0000
0010
0000
1000
0000
0000
0000
0000
0000
,
0010
0000
0000
1000
0000
0000
0001
0000
1000
0000
0001
0000
0000
0000
0000
0000
,
0100
0000
0000
0010
0000
0000
1000
0000
0001
0000
0100
0000
0000
0000
0000
0000
,
0001
0000
0000
0100
0000
0000
1000
0000
0010
0000
0000
0000
1000
0000
0010
0000
,
2002
0000
0000
3003
0000
0000
0000
0000
;

//---------------dance-single - Heavy----------------
#NOTES:
     dance-single:
     Heavy:
     Hard:
     9:
     0.648,0.712,0.298,0.605,0.308,366.000,30.000,61.000,0.000,8.000:
0000
0000
0000
0000
,
0000
0000
0000
0000
,
0000
0000
0000
0000
,
0000
0000
0000
0000
,
1000
0000
0000
0001
0000
0000
0001
1000
0001
0000
0100
0000
1010
0000
0000
0000
,
0001
0000
0000
0100
0000
0000
0010
1000
0010
0000
0100
0000
0001
0000
0000
0000
,
0010
0000
0000
0100
0000
0000
1000
0100
1000
0000
0010
0000
0100
0000
0000
0000
,
0010
0000
0000
0001
0000
0000
1000
0100
1000
0000
0100
0000
2000
0000
3200
0000
,
1300
0000
0000
0100
0000
0000
0001
0100
0001
0000
1000
0000
0001
0000
1000
0000
,
0001
0000
0000
0100
0000
0000
0010
0100
1000
0000
0100
0000
1000
0000
0000
0000
,
0100
0000
0000
0010
0000
0000
0100
0000
0010
0000
1000
0000
0001
0000
0000
0000
,
0010
0000
0000
0100
0000
0000
0010
0100
0010
0000
1000
0000
0001
0000
0100
0000
,
1000
0000
0000
0001
0000
0000
0010
0100
0010
0000
1000
0000
0020
0000
0230
0000
,
0301
0000
0000
0100
0000
0000
0001
0100
0001
0000
1000
0000
0002
0000
0203
0000
,
0301
0000
0000
1010
0000
0000
0100
1000
0100
0000
0010
0000
1000
0000
0100
0000
,
2000
0000
0000
3011
0000
0000
0001
0010
0100
0000
0010
0000
1000
0000
0001
0000
,
1000
0010
1000
0010
1000
0000
0010
0000
1000
0001
1000
0001
1000
0000
0010
0000
,
0001
0100
0001
0100
0001
0000
0100
0000
0001
0100
0010
0100
1000
0000
0010
0000
,
0100
0010
1000
0001
0100
0000
0010
0000
0100
0010
0100
0010
0100
0000
0001
0000
,
0010
0100
0010
0000
0100
0000
0001
0000
1000
0000
0001
0000
0200
0000
0320
0000
,
0031
1000
0001
1000
0100
0001
0200
2300
,
3010
0001
0100
0001
1000
0010
0200
0320
,
0031
1000
0001
0100
1000
0010
0200
0320
,
0130
1000
0010
0100
0001
1000
0200
0320
,
1031
0000
2002
3003
,
0020
1000
1000
1000
,
0001
0001
0001
0001
,
0032
0010
0010
0010
,
0100
0100
0100
0100
,
1000
0000
0000
0003
1100
0000
0001
0000
0100
0000
0000
0000
0011
0000
0100
0000
,
0010
0000
1001
0010
1000
0000
1100
0100
,
1000
0000
0110
0100
0010
0000
0011
0010
,
0001
0000
0101
0010
0001
0000
1100
0010
,
0001
0000
0011
0001
0100
0000
2000
3200
,
0310
0000
0011
0000
0000
0000
0002
2003
,
3100
0000
0110
0000
0000
0000
2000
3200
,
0310
0000
0101
0000
0000
0000
2002
3023
,
0130
0000
0000
1000
0000
0000
0100
0010
0100
0000
1000
0000
0002
0000
0023
0000
,
0230
0000
0000
1310
0000
0000
0100
0001
0100
0000
0001
0000
0020
0000
0230
0000
,
2300
0000
0000
3101
0000
0000
1000
0001
1000
0000
0100
0000
0001
0000
0100
0000
,
0020
0000
0000
0131
0000
0000
0001
0100
0001
0000
0100
0000
1000
0000
0100
0000
,
1000
0001
1000
0001
1000
0100
0010
1000
,
0001
0100
0001
1000
0001
0100
0001
1000
,
0010
0100
0001
1000
0010
0001
1000
0001
,
0100
1000
0001
0010
0100
1000
0010
0100
,
1000
0022
0000
0033
0000
2200
0000
3300
,
0000
0000
0020
0000
0000
0000
0030
0000
2000
0000
0000
3200
0000
0000
0320
0000
,
0000
0030
0002
0000
1000
0000
0003
0000
0000
0000
0020
0000
1000
0000
0030
0000
,
0000
0000
0200
0000
1000
0000
0300
0000
0002
0000
0000
0023
0000
0000
0230
0000
,
2000
0300
0000
0100
3000
0000
0100
1000
0100
0000
1000
0000
0001
0000
0100
0000
,
0010
0000
0000
0101
0000
0000
0001
0100
0001
0000
0010
0000
1000
0000
0010
0000
,
1000
0000
0000
0100
0000
0000
1000
0100
1000
0000
0001
0000
2000
0000
3200
0000
,
0310
0000
0000
0101
0000
0000
0001
0100
0001
0000
1000
0000
0010
0000
0001
0000
,
2000
0000
0000
3101
0000
0000
0001
0100
0001
0000
1000
0000
0000
0000
0000
0000
,
0010
0000
0000
0101
0000
0000
0001
1000
0001
0000
0100
0000
0000
0000
0000
0000
,
2200
0000
0000
3311
0000
0000
0001
0100
0001
0000
1000
0000
0000
0000
0000
0000
,
0002
0000
0000
2003
0000
0000
3010
0100
0010
0000
0001
0000
1000
0000
0001
0000
,
2002
0000
0000
3003
0000
0000
0000
0000
;
