#TITLE:Stage 2;
#SUBTITLE:Axelay;
#ARTIST:M.C. Ada, Souji Taro;
#TITLETRANSLIT:;
#SUBTITLETRANSLIT:;
#ARTISTTRANSLIT:;
#CREDIT:;
#BANNER:Stage 2.png;
#BACKGROUND:Stage 2-bg.png;
#LYRICSPATH:;
#CDTITLE:!yesssss-cdtitle.png;
#MUSIC:Stage 2.mp3;
#OFFSET:-0.015;
#SAMPLESTART:100.000;
#SAMPLELENGTH:12.000;
#SELECTABLE:YES;
#BPMS:0.000=136.600,36.000=136.800,100.000=136.650,176.000=138.000,180.000=136.600;
#STOPS:;
#BGCHANGES:;
// cache tags:
#FIRSTBEAT:0.000;
#LASTBEAT:243.500;
#SONGFILENAME:Songs/VGMP 2/Stage 2 (Yesssss)/Stage 2.sm;
#HASMUSIC:1;
#HASBANNER:1;
#MUSICLENGTH:115.867;
// end cache tags

//---------------dance-single - Copied from Copied f----------------
#NOTES:
     dance-single:
     Copied from Copied f:
     Hard:
     13:
     1.000,1.000,1.000,0.535,1.000,831.000,245.000,62.000,0.000,15.000:
0020
0000
0000
0000
0000
0000
0000
0000
0000
0000
0000
0000
0000
0000
0000
0000
0000
0000
0000
0000
0000
0000
0000
0000
0000
0000
0000
0000
0000
0000
0031
0000
0000
0001
0000
0000
1000
0000
0000
1000
0000
0000
0100
0000
0010
0000
0100
0000
,
2001
0000
0000
0000
0000
0000
0000
0000
0000
0000
0000
0000
0000
0000
0000
0000
0000
0000
0000
0000
0000
0000
0000
0000
3110
0000
0000
0000
0000
0000
0001
0000
0000
0011
0000
0000
1000
0000
0000
1000
0000
0000
0001
0000
0010
0000
0100
0000
,
1001
0000
0000
0100
0000
0000
0010
0000
0000
0010
0000
0000
0000
0000
0000
0000
0000
0000
0000
0000
0000
0000
0000
0000
0000
0000
0000
0000
0000
0000
0001
0000
0000
0001
0000
0000
1000
0000
0000
1000
0000
0000
0100
0000
0010
0000
0100
0000
,
0000
0000
0000
0000
0000
0000
0100
0000
0000
0100
0000
0000
0010
0000
0000
0010
0000
0000
1000
0000
0000
1000
0000
0000
0000
0000
0000
0000
0000
0000
0001
0000
0000
0001
0000
0000
1000
0000
0000
1000
0000
0000
0100
0000
0010
0000
0100
0000
,
0001
0000
0000
0010
0000
0000
0101
0000
0000
0000
0000
0000
1010
0000
0000
0000
0000
0000
1001
0000
0000
0000
0000
0000
0010
0000
0100
0000
0010
0000
0001
0000
0000
0001
0000
0000
1000
0000
0000
1000
0000
0000
0001
0000
0100
0000
0010
0000
,
1000
0000
0000
0000
0000
0000
0001
0000
0000
0001
0000
0000
1000
0000
0000
1000
0000
0000
0001
0000
0000
0100
0000
0000
0001
0000
0000
1000
0000
0000
0001
0000
0000
0010
0000
0000
1001
0000
0000
0010
0000
0000
0100
0000
1000
0000
0100
0000
,
0010
0000
0000
0000
0000
0000
0000
0000
0000
0000
0000
0000
1001
0000
0000
0000
0000
0000
0000
0000
0000
0000
0000
0000
0110
0000
0000
0000
0000
0000
0000
0000
0000
0000
0000
0000
0000
0000
0000
0000
0000
0000
0000
0000
0000
0000
0000
0000
0010
0000
0000
0000
0000
0000
0100
0000
0000
0000
0000
0000
1001
0000
0000
0000
0000
0000
0000
0000
0000
0000
0000
0000
0110
0000
0000
0000
0000
0000
0000
0000
0000
0000
0000
0000
0000
0000
0000
0000
0000
0000
0000
0000
0000
0000
0000
0000
0000
0000
0000
0000
0000
0000
0000
0000
0000
0000
0000
0000
0000
0000
0000
0000
0000
0000
0000
0000
0000
0000
0000
0000
0001
0000
0000
0000
0000
0000
0000
0000
0000
0000
0000
0000
0001
0000
0000
0000
0000
0000
0000
0000
0000
0000
0000
0000
1000
0000
0000
0000
0000
0000
0000
0000
0000
0000
0000
0000
1000
0000
0000
0000
0000
0000
0000
0000
0000
0000
0000
0000
0100
0000
0000
0000
0000
0000
0000
0000
0010
0000
0000
0000
0000
0000
0000
0000
0100
0000
0000
0000
0000
0000
0000
0000
,
0000
0000
0000
0000
0000
0000
0000
0000
0000
0000
0000
0000
0000
0000
0000
0000
0000
0000
0000
0000
0000
0000
0000
0000
0000
0000
0000
0000
0000
0000
0001
0000
0000
0001
0000
0000
1000
0000
0000
1000
0000
0000
0100
0000
0010
0000
0100
0000
,
1001
0000
0000
1001
0000
0000
1001
0000
0000
1001
0000
0000
0110
0000
0000
0000
0000
0000
0001
0000
0000
0000
0000
0000
0010
0000
0100
0000
0010
0000
0001
0000
0000
0001
0000
0000
1000
0000
0000
1000
0000
0000
0001
0000
0010
0000
0100
0000
,
1001
0010
1100
0001
0220
0030
1300
0001
1010
0000
0001
0101
1020
1000
0231
0000
,
0010
0000
0000
0000
0000
0000
0000
0000
0000
0000
0000
0000
0300
0000
0000
0000
0000
0000
0000
0000
0000
0000
0000
0000
1010
0000
0000
0000
0000
0000
0000
0000
0000
0000
0000
0000
0001
0000
0000
0000
0000
0000
0000
0000
0000
0000
0000
0000
0220
0000
0000
0000
0000
0000
0000
0000
0000
0000
0000
0000
0030
0000
0000
0000
0000
0000
0000
0000
0000
0000
0000
0000
1301
0000
0000
0000
0000
0000
0000
0000
0000
0000
0000
0000
0100
0000
0000
0000
0000
0000
0000
0000
0000
0000
0000
0000
0010
0000
0000
0000
0000
0000
0000
0000
0000
0000
0000
0000
0001
0000
0000
0000
0000
0000
0000
0000
0000
0000
0000
0000
0010
0000
0000
0000
0000
0000
0000
0000
0000
0000
0000
0000
0100
0000
0000
0000
0000
0000
0000
0000
0000
0000
0000
0000
0020
0000
0000
0000
0000
0000
0000
0000
0000
0000
0000
0000
0000
0000
0000
0000
0000
0000
0000
0000
0000
1030
0000
0000
0000
0000
0100
0000
0000
0000
0000
0010
0000
0000
0000
0000
0000
0001
0000
0000
0000
0000
0000
0010
0000
0000
0000
0000
,
0100
0010
0101
1000
0220
0030
1300
0001
1010
0000
0001
0101
1020
1000
0231
0000
,
0001
0000
0000
0000
0000
0000
0000
0000
0000
0000
0000
0000
0300
0000
0000
0000
0000
0000
0000
0000
0000
0000
0000
0000
1010
0000
0000
0000
0000
0000
0000
0000
0000
0000
0000
0000
0001
0000
0000
0000
0000
0000
0000
0000
0000
0000
0000
0000
0220
0000
0000
0000
0000
0000
0000
0000
0000
0000
0000
0000
0030
0000
0000
0000
0000
0000
0000
0000
0000
0000
0000
0000
1301
0000
0000
0000
0000
0000
0000
0000
0000
0000
0000
0000
0010
0000
0000
0000
0000
0000
0000
0000
0000
0000
0000
0000
1100
0000
0000
0000
0000
0000
0000
0000
0000
0000
0000
0000
0010
0000
0000
0000
0000
0000
0000
0000
0000
0000
0000
0000
0001
0000
0000
0000
0000
0000
0000
0000
0000
0000
0000
0000
0100
0000
0000
0000
0000
0000
0000
0000
0000
0000
0000
0000
0020
0000
0000
0000
0000
0000
0000
0000
0000
0000
0000
0000
0000
0000
0000
0000
0000
0000
0000
0000
0000
1030
0000
0000
0000
0000
0100
0000
0000
0000
0000
0010
0000
0000
0000
0000
0000
0001
0000
0000
0000
0000
0000
1000
0000
0000
0000
0000
,
0100
0010
0101
1000
0220
0030
1300
0001
1100
0000
0001
0101
1020
0001
1230
0000
,
0001
0000
0000
0000
0000
0000
0000
0000
0000
0000
0000
0000
0300
0000
0000
0000
0000
0000
0000
0000
0000
0000
0000
0000
0001
0000
0000
0000
0000
0000
0000
0000
0000
0000
0000
0000
1000
0000
0000
0000
0000
0000
0000
0000
0000
0000
0000
0000
0220
0000
0000
0000
0000
0000
0000
0000
0000
0000
0000
0000
0030
0000
0000
0000
0000
0000
0000
0000
0000
0000
0000
0000
1301
0000
0000
0000
0000
0000
0000
0000
0000
0000
0000
0000
0010
0000
0000
0000
0000
0000
0000
0000
0000
0000
0000
0000
1100
0000
0000
0000
0000
0000
0000
0000
0000
0000
0000
0000
0001
0000
0000
0000
0000
0000
0000
0000
0000
0000
0000
0000
1010
0000
0000
0000
0000
0000
0000
0000
0000
0000
0000
0000
0100
0000
0000
0000
0000
0000
0000
0000
0000
0000
0000
0000
0020
0000
0000
0000
0000
0000
0000
0000
0000
0000
0000
0000
0000
0000
0000
0000
0000
0000
0000
0000
0000
0031
0000
0000
0000
0000
1000
0000
0000
0000
0000
0100
0000
0000
0000
0000
0000
0010
0000
0000
0000
0000
0000
0001
0000
0000
0000
0000
,
1000
0010
1100
0001
0220
0030
1300
0001
1010
0000
0001
0001
1020
1000
0231
0000
,
0000
0000
0000
0000
0000
0000
0000
0000
0000
0000
0000
0000
0300
0000
0000
0000
0000
0000
0000
0000
0000
0000
0000
0000
0011
0000
0000
0000
0000
0000
0000
0000
0000
0000
0000
0000
1000
0000
0000
0000
0000
0000
0000
0000
0000
0000
0000
0000
0220
0000
0000
0000
0000
0000
0000
0000
0000
0000
0000
0000
0030
0000
0000
0000
0000
0000
0000
0000
0000
0000
0000
0000
0301
0000
0000
0000
0000
0000
0000
0000
0000
0000
0000
0000
0100
0000
0000
0000
0000
0000
0000
0000
0000
0000
0000
0000
0010
0000
0000
0000
0000
0000
0000
0000
0000
0000
0000
0000
0001
0000
0000
0000
0000
0000
0000
0000
0000
0000
0000
0000
0100
0000
0000
0000
0000
0000
0000
0000
0000
0000
0000
0000
1000
0000
0000
0000
0000
0000
0000
0000
0000
0000
0000
0000
0020
0000
0000
0000
0000
0000
0000
0000
0000
0000
0000
0000
0000
0000
0000
0000
0000
0000
0000
0000
0000
1030
0000
0000
0000
0000
0001
0000
0000
0000
0000
0010
0000
0000
0000
0000
0000
0100
0000
0000
0000
0000
0000
1000
0000
0000
0000
0000
,
0001
0010
1100
0001
0220
0030
1300
0001
1010
0000
0001
0101
1020
1000
0231
0000
,
0010
0000
0000
0000
0000
0000
0000
0000
0000
0000
0000
0000
0300
0000
0000
0000
0000
0000
0000
0000
0000
0000
0000
0000
1010
0000
0000
0000
0000
0000
0000
0000
0000
0000
0000
0000
0001
0000
0000
0000
0000
0000
0000
0000
0000
0000
0000
0000
0220
0000
0000
0000
0000
0000
0000
0000
0000
0000
0000
0000
0030
0000
0000
0000
0000
0000
0000
0000
0000
0000
0000
0000
1301
0000
0000
0000
0000
0000
0000
0000
0000
0000
0000
0000
0100
0000
0000
0000
0000
0000
0000
0000
0000
0000
0000
0000
0010
0000
0000
0000
0000
0000
0000
0000
0000
0000
0000
0000
0001
0000
0000
0000
0000
0000
0000
0000
0000
0000
0000
0000
0010
0000
0000
0000
0000
0000
0000
0000
0000
0000
0000
0000
0100
0000
0000
0000
0000
0000
0000
0000
0000
0000
0000
0000
0020
0000
0000
0000
0000
0000
0000
0000
0000
0000
0000
0000
0000
0000
0000
0000
0000
0000
0000
0000
0000
1030
0000
0000
0000
0000
0100
0000
0000
0000
0000
0010
0000
0000
0000
0000
0000
0001
0000
0000
0000
0000
0000
0010
0000
0000
0000
0000
,
0100
0010
0101
1000
0220
0030
1300
0001
1010
0000
0001
0101
1020
1000
0231
0000
,
0001
0000
0000
0000
0000
0000
0000
0000
0000
0000
0000
0000
0300
0000
0000
0000
0000
0000
0000
0000
0000
0000
0000
0000
1010
0000
0000
0000
0000
0000
0000
0000
0000
0000
0000
0000
0001
0000
0000
0000
0000
0000
0000
0000
0000
0000
0000
0000
0220
0000
0000
0000
0000
0000
0000
0000
0000
0000
0000
0000
0030
0000
0000
0000
0000
0000
0000
0000
0000
0000
0000
0000
1301
0000
0000
0000
0000
0000
0000
0000
0000
0000
0000
0000
0010
0000
0000
0000
0000
0000
0000
0000
0000
0000
0000
0000
1100
0000
0000
0000
0000
0000
0000
0000
0000
0000
0000
0000
0010
0000
0000
0000
0000
0000
0000
0000
0000
0000
0000
0000
0001
0000
0000
0000
0000
0000
0000
0000
0000
0000
0000
0000
0100
0000
0000
0000
0000
0000
0000
0000
0000
0000
0000
0000
0020
0000
0000
0000
0000
0000
0000
0000
0000
0000
0000
0000
0000
0000
0000
0000
0000
0000
0000
0000
0000
1030
0000
0000
0000
0000
0100
0000
0000
0000
0000
0010
0000
0000
0000
0000
0000
0001
0000
0000
0000
0000
0000
1000
0000
0000
0000
0000
,
0100
0010
0101
1000
0220
0030
1300
0001
1100
0000
0001
0101
1020
0001
1230
0000
,
0001
0000
0000
0000
0000
0000
0000
0000
0000
0000
0000
0000
0300
0000
0000
0000
0000
0000
0000
0000
0000
0000
0000
0000
0001
0000
0000
0000
0000
0000
0000
0000
0000
0000
0000
0000
1000
0000
0000
0000
0000
0000
0000
0000
0000
0000
0000
0000
0220
0000
0000
0000
0000
0000
0000
0000
0000
0000
0000
0000
0030
0000
0000
0000
0000
0000
0000
0000
0000
0000
0000
0000
1301
0000
0000
0000
0000
0000
0000
0000
0000
0000
0000
0000
0010
0000
0000
0000
0000
0000
0000
0000
0000
0000
0000
0000
1100
0000
0000
0000
0000
0000
0000
0000
0000
0000
0000
0000
0001
0000
0000
0000
0000
0000
0000
0000
0000
0000
0000
0000
1010
0000
0000
0000
0000
0000
0000
0000
0000
0000
0000
0000
0100
0000
0000
0000
0000
0000
0000
0000
0000
0000
0000
0000
0020
0000
0000
0000
0000
0000
0000
0000
0000
0000
0000
0000
0000
0000
0000
0000
0000
0000
0000
0000
0000
0031
0000
0000
0000
0000
1000
0000
0000
0000
0000
0100
0000
0000
0000
0000
0000
0010
0000
0000
0000
0000
0000
0001
0000
0000
0000
0000
,
1100
0000
1100
0000
1100
0000
1100
0000
0022
0000
0003
0030
1000
0000
0001
0000
0010
0000
0100
0000
0010
0000
2200
0000
3000
0300
0000
0000
0201
0000
0001
0000
,
0010
0000
0000
0000
0000
0000
0000
0000
0000
0000
0000
0000
0300
0000
0000
0000
0000
0000
0000
0000
0000
0000
0000
0000
0010
0000
0000
0000
0000
0000
0000
0000
0000
0000
0000
0000
1000
0000
0000
0000
0000
0000
0000
0000
0000
0000
0000
0000
0022
0000
0000
0000
0000
0000
0000
0000
0000
0000
0000
0000
0003
0000
0000
0000
0000
0000
0030
0000
0000
0000
0000
0000
1000
0000
0000
0000
0000
0000
0000
0000
0000
0000
0000
0000
0000
0000
0000
0000
0000
0000
0000
0000
0000
0000
0000
0000
1000
0000
0000
0000
0001
0000
0000
0000
0000
0000
0000
0000
0000
0000
0000
0000
0000
0000
0000
0000
0000
0000
0000
0000
0001
0000
0000
0000
1000
0000
0000
0000
0000
0000
0000
0000
0000
0000
0000
0000
0000
0000
0000
0000
0000
0000
0000
0000
0000
0000
0000
0000
0000
0000
0000
0000
0000
0000
0000
0000
0010
0000
0000
0000
0100
0000
0000
0000
0000
0000
0000
0000
0000
0000
0000
0000
0000
0000
0000
0000
0000
0000
0000
0000
0000
0000
0000
0000
0000
0000
0000
0000
0000
0000
0000
0000
,
1000
0001
0010
0100
2000
0000
3001
0000
0100
0010
1000
0001
0000
0011
1100
0000
,
1000
0001
1000
0100
0020
0000
0031
0000
0100
0010
1000
0001
0000
1010
0101
0000
,
0100
0000
0000
0001
0000
0000
1000
0000
0000
0010
0000
0000
0100
0000
0000
0001
0000
0000
0010
0000
0000
0100
0000
0000
1000
0000
0100
0000
0010
0000
0001
0000
0000
0010
0000
0000
0100
0000
0000
1000
0000
0000
0011
0000
0000
1100
0000
0000
,
0011
0000
0010
0001
1010
0000
0100
0010
1001
0000
1000
0011
1100
0000
0110
0001
,
1000
0001
1000
0100
0011
0000
0100
0010
0010
0100
0001
0100
0011
0000
1010
0110
,
1001
0000
0000
0000
0000
0000
1000
0000
0000
0010
0000
0000
1001
0000
0000
0000
0000
0000
0001
0000
0100
0000
0010
0000
1001
0000
0000
0000
0000
0000
0100
0000
0000
0011
0000
0000
1100
0000
0000
0000
0000
0000
1100
0000
0000
0001
0000
0000
,
1000
0001
0100
0011
1100
0000
1001
0010
0110
0001
0100
0010
1001
0000
1001
0110
,
0101
0000
0001
0100
1001
0000
0100
0001
1010
0000
0100
0011
1100
0000
1010
0100
,
0001
0100
0010
1100
0011
0000
0011
1000
1100
0001
0010
1100
0011
0000
0101
0010
,
1100
0000
0000
0000
0000
0000
0010
0000
0000
0100
0000
0000
1010
0000
0000
0000
0000
0000
1000
0000
0001
0000
0010
0000
0100
0000
0000
0000
0000
0000
0001
0000
0000
0010
0000
0000
1001
0000
0000
0000
0000
0000
0100
0000
0000
0001
0000
0000
,
0000
0001
0100
0010
1001
0000
0100
0010
0010
0001
0010
0100
1001
0000
1001
0110
,
1001
0000
0010
0001
1010
0000
0100
0010
1001
0000
1000
0011
1100
0000
0110
0001
,
1000
0001
1000
0100
0011
0000
0100
0010
0010
0100
0001
0100
0011
0000
1010
0110
,
1001
0000
0000
0000
0000
0000
1000
0000
0000
0010
0000
0000
1001
0000
0000
0000
0000
0000
0001
0000
0100
0000
0010
0000
1001
0000
0000
0000
0000
0000
0100
0000
0000
0011
0000
0000
1100
0000
0000
0000
0000
0000
1100
0000
0000
0001
0000
0000
,
1000
0001
0100
0011
1100
0000
1001
0010
0110
0001
0100
0010
1001
0000
1001
0110
,
0101
0000
0001
0100
1001
0000
0100
0001
1010
0000
0100
0011
1100
0000
1010
0100
,
0001
0100
0010
1100
0011
0000
0011
1000
1100
0001
0010
1100
0011
0000
0101
0010
,
1100
0000
0000
0000
0000
0000
0010
0000
0000
0100
0000
0000
1010
0000
0000
0000
0000
0000
1000
0000
0001
0000
0010
0000
0100
0000
0000
0000
0000
0000
0001
0000
0000
0010
0000
0000
1001
0000
0000
0000
0000
0000
0100
0000
0000
0001
0000
0000
,
0000
0001
0100
0010
1001
0000
0100
0010
0010
0001
0010
0100
1001
0000
1001
0110
,
1001
0100
0010
0001
1100
0010
0100
0001
1010
0100
0010
0001
1010
0100
1001
0110
,
1001
0010
0001
0010
1100
0000
0100
0010
0001
0010
0000
0100
1001
0000
1000
0001
,
1000
0010
0100
0010
1001
0000
0100
0001
1000
0011
0000
0001
1100
0001
1000
0001
,
1000
0000
0000
0100
0000
0000
0010
0000
0000
0001
0000
0000
1010
0000
0000
0100
0000
0000
0010
0000
0000
0001
0000
0000
0010
0000
0000
0100
0000
0000
1000
0000
0000
0100
0000
0000
0011
0000
0000
0100
0000
0000
1000
0000
0100
0000
0010
0000
,
0001
0100
0001
0010
1100
0000
0001
1000
0001
1010
0000
0001
1010
0001
0100
0001
,
0010
1000
0100
1000
0011
0000
1000
0001
0100
0010
0000
0100
1001
0100
0010
0001
,
0010
0100
1000
0100
0011
0000
0001
0010
1000
0110
1000
0001
1010
0100
1001
0110
,
0001
1000
0001
0100
1001
0000
0010
0000
0010
0100
0010
1001
0000
0110
1001
0000
,
1000
0000
0000
0001
0000
0000
0100
0000
0000
1001
0000
0000
0000
0000
0000
0100
0000
0000
1001
0000
0000
0110
0000
0000
0001
0000
0010
0000
0100
0000
1002
0000
0000
0003
0000
0000
1020
0000
0000
1031
0000
0000
1010
0000
0000
1100
0000
0000
,
1001
0010
0001
0010
1100
0000
0100
0010
0001
0010
0000
0100
1001
0000
1000
0001
,
1000
0010
0100
0010
1001
0000
0100
0001
1000
0011
0000
0001
1100
0001
1000
0001
,
1000
0000
0000
0100
0000
0000
0010
0000
0000
0001
0000
0000
1010
0000
0000
0100
0000
0000
0010
0000
0000
0001
0000
0000
0010
0000
0000
0100
0000
0000
1000
0000
0000
0100
0000
0000
0011
0000
0000
0100
0000
0000
1000
0000
0100
0000
0010
0000
,
0001
0100
0001
0010
1100
0000
0001
1000
0001
1010
0000
0001
1010
0001
0100
0001
,
0010
1000
0100
1000
0011
0000
1000
0001
0100
0010
0000
0100
1001
0100
0010
0001
,
0010
0100
1000
0100
0011
0000
0001
0010
1000
0110
1001
0110
1000
0100
0001
0110
,
0001
1000
0001
0100
1001
0000
0011
0000
0010
0100
0010
1001
0000
0110
1001
0000
,
1000
0000
0000
0001
0000
0000
0100
0000
0000
0001
0000
0000
1010
0000
0000
0100
0000
0000
1000
0000
0100
0000
0010
0000
0001
0000
0000
1100
0000
0000
0010
0000
0000
0100
0000
0000
1000
0000
0000
0001
0000
0000
1010
0000
0000
0000
0000
0000
;

//---------------dance-single - Copied from Copied f----------------
#NOTES:
     dance-single:
     Copied from Copied f:
     Challenge:
     15:
     1.000,1.000,1.000,0.734,1.000,875.000,544.000,85.000,0.000,115.000:
0020
0000
0000
0000
0000
0000
0000
0000
0000
0000
0000
0000
0000
0000
0000
0000
0000
0000
0000
0000
0000
0000
0000
0000
0000
0000
0000
0000
0000
0000
0031
0000
0000
0001
0000
0000
1000
0000
0000
1000
0000
0000
0100
0000
0010
0000
0100
0000
,
2001
0000
0000
0000
0000
0000
0000
0000
0000
0000
0000
0000
0000
0000
0000
0000
0000
0000
0000
0000
0000
0000
0000
0000
3110
0000
0000
0000
0000
0000
0001
0000
0000
0011
0000
0000
1000
0000
0000
1000
0000
0000
0101
0000
0010
0000
0100
0000
,
1001
0000
0000
0100
0000
0000
0010
0000
0000
0010
0000
0000
0000
0000
0000
0000
0000
0000
0000
0000
0000
0000
0000
0000
0000
0000
0000
0000
0000
0000
0101
0000
0000
0101
0000
0000
1000
0000
0000
1000
0000
0000
0100
0000
0010
0000
0100
0000
,
0000
0000
0000
0000
0000
0000
0100
0000
0000
0100
0000
0000
0010
0000
0000
0010
0000
0000
1000
0000
0000
1000
0000
0000
0000
0000
0000
0000
0000
0000
0001
0000
0000
0001
0000
0000
1000
0000
0000
1000
0000
0000
0110
0000
1000
0001
0100
0000
,
0001
0000
0000
0010
0000
0000
0101
0000
0000
0000
0000
0000
1010
0000
0000
0000
0000
0000
1001
0000
0000
0000
0000
0000
0010
0000
0100
0000
0010
0000
0101
0000
0000
0101
0000
0000
1000
0000
0000
1000
0000
0000
0101
0000
1010
0000
0101
0000
,
1001
0000
0000
0000
0000
0000
0101
0000
0000
0010
0000
0000
1001
0000
0000
0100
0000
0000
1010
0000
0000
0101
0000
0000
0110
0000
0000
1000
0000
0000
0101
0000
0000
0101
0000
0000
1011
0000
0000
1010
0000
0000
0101
0000
1000
0001
0100
0000
,
0011
0000
0000
0000
0000
0000
0000
0000
0000
0000
0000
0000
1110
0000
0000
0000
0000
0000
0000
0000
0000
0000
0000
0000
1011
0000
0000
0000
0000
0000
0000
0000
0000
0000
0000
0000
0100
0000
0000
0000
0000
0000
0000
0000
0000
0000
0000
0000
0011
0000
0000
0000
0000
0000
0100
0000
0000
0000
0000
0000
1011
0000
0000
0000
0000
0000
0000
0000
0000
0000
0000
0000
1111
0000
0000
0000
0000
0000
0000
0000
0000
0000
0000
0000
0000
0000
0000
0000
0000
0000
0000
0000
0000
0000
0000
0000
0000
0000
0000
0000
0000
0000
0000
0000
0000
0000
0000
0000
0000
0000
0000
0000
0000
0000
0000
0000
0000
0000
0000
0000
0001
0000
0000
0000
0000
0000
0000
0000
0000
0000
0000
0000
0001
0000
0000
0000
0000
0000
0000
0000
0000
0000
0000
0000
1000
0000
0000
0000
0000
0000
0000
0000
0000
0000
0000
0000
1000
0000
0000
0000
0000
0000
0000
0000
0000
0000
0000
0000
0100
0000
0000
0000
0000
0000
0000
0000
0010
0000
0000
0000
0000
0000
0000
0000
0100
0000
0000
0000
0000
0000
0000
0000
,
0000
0000
0000
0000
0000
0000
0000
0000
0000
0000
0000
0000
0000
0000
0000
0000
0000
0000
0000
0000
0000
0000
0000
0000
0000
0000
0000
0000
0000
0000
0001
0000
0000
0001
0000
0000
1000
0000
0000
1000
0000
0000
0100
0000
0010
0000
0100
0000
,
1001
0000
0000
1001
0000
0000
1001
0000
0000
1001
0000
0000
1011
0000
0000
0000
0000
0000
0100
0000
0000
0000
0000
0000
0010
0000
0100
0000
0010
0000
0101
0000
0000
0101
0000
0000
1010
0000
0000
1010
0000
0000
0101
0000
1000
0010
0100
0000
,
1001
0010
1100
0001
0220
0030
1300
0001
1010
0000
0001
0101
1020
1000
0231
0000
,
0010
0000
0000
0000
0000
0000
0000
0000
0000
0000
0000
0000
0300
0000
0000
0000
0000
0000
0000
0000
0000
0000
0000
0000
1010
0000
0000
0000
0000
0000
0000
0000
0000
0000
0000
0000
0001
0000
0000
0000
0000
0000
0000
0000
0000
0000
0000
0000
0220
0000
0000
0000
0000
0000
0000
0000
0000
0000
0000
0000
0030
0000
0000
0000
0000
0000
0000
0000
0000
0000
0000
0000
1301
0000
0000
0000
0000
0000
0000
0000
0000
0000
0000
0000
1001
0000
0000
0000
0000
0000
0000
0000
0000
0000
0000
0000
0110
0000
0000
0000
0000
0000
0000
0000
0000
0000
0000
0000
1001
0000
0000
0000
0000
0000
0000
0000
0000
0000
0000
0000
0110
0000
0000
0000
0000
0000
0000
0000
0000
0000
0000
0000
1001
0000
0000
0000
0000
0000
0000
0000
0000
0000
0000
0000
0021
0000
0000
0000
0000
0000
0000
0000
0000
0000
0000
0000
0000
0000
0000
0000
0000
0000
0000
0000
0000
1030
0000
0000
0000
0000
0100
0000
0000
0000
0000
0010
0000
0000
0000
0000
0000
0001
0000
0000
0000
0000
0000
0010
0000
0000
0000
0000
,
1100
0010
0101
1000
0220
0030
1300
0001
1010
0000
0001
0101
1020
1000
0231
0000
,
0001
0000
0000
0000
0000
0000
0000
0000
0000
0000
0000
0000
0300
0000
0000
0000
0000
0000
0000
0000
0000
0000
0000
0000
1010
0000
0000
0000
0000
0000
0000
0000
0000
0000
0000
0000
0001
0000
0000
0000
0000
0000
0000
0000
0000
0000
0000
0000
0220
0000
0000
0000
0000
0000
0000
0000
0000
0000
0000
0000
0030
0000
0000
0000
0000
0000
0000
0000
0000
0000
0000
0000
0301
0000
0000
0000
0000
0000
0000
0000
0000
0000
0000
0000
1010
0000
0000
0000
0000
0000
0000
0000
0000
0000
0000
0000
1100
0000
0000
0000
0000
0000
0000
0000
0000
0000
0000
0000
0110
0000
0000
0000
0000
0000
0000
0000
0000
0000
0000
0000
1001
0000
0000
0000
0000
0000
0000
0000
0000
0000
0000
0000
0110
0000
0000
0000
0000
0000
0000
0000
0000
0000
0000
0000
1020
0000
0000
0000
0000
0000
0000
0000
0000
0000
0000
0000
0000
0000
0000
0000
0000
0000
0000
0000
0000
1030
0000
0000
0000
0000
0100
0000
0000
0000
0000
0010
0000
0000
0000
0000
0000
0001
0000
0000
0000
0000
0000
1000
0000
0000
0000
0000
,
0101
0010
0101
1000
0220
0030
1300
0001
1100
0000
0001
0101
1020
1000
0231
0000
,
0001
0000
0000
0000
0000
0000
0000
0000
0000
0000
0000
0000
0300
0000
0000
0000
0000
0000
0000
0000
0000
0000
0000
0000
0011
0000
0000
0000
0000
0000
0000
0000
0000
0000
0000
0000
1100
0000
0000
0000
0000
0000
0000
0000
0000
0000
0000
0000
0220
0000
0000
0000
0000
0000
0000
0000
0000
0000
0000
0000
0030
0000
0000
0000
0000
0000
0000
0000
0000
0000
0000
0000
1301
0000
0000
0000
0000
0000
0000
0000
0000
0000
0000
0000
1010
0000
0000
0000
0000
0000
0000
0000
0000
0000
0000
0000
0110
0000
0000
0000
0000
0000
0000
0000
0000
0000
0000
0000
0101
0000
0000
0000
0000
0000
0000
0000
0000
0000
0000
0000
1010
0000
0000
0000
0000
0000
0000
0000
0000
0000
0000
0000
1001
0000
0000
0000
0000
0000
0000
0000
0000
0000
0000
0000
0021
0000
0000
0000
0000
0000
0000
0000
0000
0000
0000
0000
0000
0000
0000
0000
0000
0000
0000
0000
0000
0031
0000
0000
0000
0000
1000
0000
0000
0000
0000
0100
0000
0000
0000
0000
0000
0010
0000
0000
0000
0000
0000
0001
0000
0000
0000
0000
,
1100
0010
1100
0001
0220
0030
1300
0001
1010
0000
0001
0001
1020
1000
0231
0000
,
0000
0000
0000
0000
0000
0000
0000
0000
0000
0000
0000
0000
0300
0000
0000
0000
0000
0000
0000
0000
0000
0000
0000
0000
0011
0000
0000
0000
0000
0000
0000
0000
0000
0000
0000
0000
1000
0000
0000
0000
0000
0000
0000
0000
0000
0000
0000
0000
0220
0000
0000
0000
0000
0000
0000
0000
0000
0000
0000
0000
0030
0000
0000
0000
0000
0000
0000
0000
0000
0000
0000
0000
0301
0000
0000
0000
0000
0000
0000
0000
0000
0000
0000
0000
0110
0000
0000
0000
0000
0000
0000
0000
0000
0000
0000
0000
1010
0000
0000
0000
0000
0000
0000
0000
0000
0000
0000
0000
0101
0000
0000
0000
0000
0000
0000
0000
0000
0000
0000
0000
0110
0000
0000
0000
0000
0000
0000
0000
0000
0000
0000
0000
1001
0000
0000
0000
0000
0000
0000
0000
0000
0000
0000
0000
0021
0000
0000
0000
0000
0000
0000
0000
0000
0000
0000
0000
0000
0000
0000
0000
0000
0000
0000
0000
0000
1030
0000
0000
0000
0000
0001
0000
0000
0000
0000
0010
0000
0000
0000
0000
0000
0100
0000
0000
0000
0000
0000
1000
0000
0000
0000
0000
,
0101
0010
1100
0001
0220
0030
1300
0001
1010
0000
0001
0101
1020
1000
0231
0000
,
0010
0000
0000
0000
0000
0000
0000
0000
0000
0000
0000
0000
0300
0000
0000
0000
0000
0000
0000
0000
0000
0000
0000
0000
1010
0000
0000
0000
0000
0000
0000
0000
0000
0000
0000
0000
0001
0000
0000
0000
0000
0000
0000
0000
0000
0000
0000
0000
0220
0000
0000
0000
0000
0000
0000
0000
0000
0000
0000
0000
0030
0000
0000
0000
0000
0000
0000
0000
0000
0000
0000
0000
1301
0000
0000
0000
0000
0000
0000
0000
0000
0000
0000
0000
1001
0000
0000
0000
0000
0000
0000
0000
0000
0000
0000
0000
0110
0000
0000
0000
0000
0000
0000
0000
0000
0000
0000
0000
1001
0000
0000
0000
0000
0000
0000
0000
0000
0000
0000
0000
0110
0000
0000
0000
0000
0000
0000
0000
0000
0000
0000
0000
1100
0000
0000
0000
0000
0000
0000
0000
0000
0000
0000
0000
0021
0000
0000
0000
0000
0000
0000
0000
0000
0000
0000
0000
0000
0000
0000
0000
0000
0000
0030
0000
0000
0001
0000
0000
0000
0000
0100
0000
0000
0000
0000
0010
0000
0000
0000
0000
0000
1000
0000
0000
0000
0000
0000
0001
0000
0000
0000
0000
,
0110
1000
0101
1000
0220
0030
1300
0001
1010
0000
0001
0101
1020
1000
0231
0000
,
0001
0000
0000
0000
0000
0000
0000
0000
0000
0000
0000
0000
0300
0000
0000
0000
0000
0000
0000
0000
0000
0000
0000
0000
1010
0000
0000
0000
0000
0000
0000
0000
0000
0000
0000
0000
0001
0000
0000
0000
0000
0000
0000
0000
0000
0000
0000
0000
0220
0000
0000
0000
0000
0000
0000
0000
0000
0000
0000
0000
0030
0000
0000
0000
0000
0000
0000
0000
0000
0000
0000
0000
0301
0000
0000
0000
0000
0000
0000
0000
0000
0000
0000
0000
1010
0000
0000
0000
0000
0000
0000
0000
0000
0000
0000
0000
1100
0000
0000
0000
0000
0000
0000
0000
0000
0000
0000
0000
0110
0000
0000
0000
0000
0000
0000
0000
0000
0000
0000
0000
1001
0000
0000
0000
0000
0000
0000
0000
0000
0000
0000
0000
0110
0000
0000
0000
0000
0000
0000
0000
0000
0000
0000
0000
1020
0000
0000
0000
0000
0000
0000
0000
0000
0000
0000
0000
0000
0000
0000
0000
0000
0000
0030
0000
0000
1000
0000
0000
0000
0000
0100
0000
0000
0000
0000
0010
0000
0000
0000
0000
0000
0001
0000
0000
0000
0000
0000
1000
0000
0000
0000
0000
,
0011
0010
0101
1000
0220
0030
1300
0001
1100
0000
0001
0101
1020
1000
0231
0000
,
0001
0000
0000
0000
0000
0000
0000
0000
0000
0000
0000
0000
0300
0000
0000
0000
0000
0000
0000
0000
0000
0000
0000
0000
0011
0000
0000
0000
0000
0000
0000
0000
0000
0000
0000
0000
1100
0000
0000
0000
0000
0000
0000
0000
0000
0000
0000
0000
0220
0000
0000
0000
0000
0000
0000
0000
0000
0000
0000
0000
0030
0000
0000
0000
0000
0000
0000
0000
0000
0000
0000
0000
1301
0000
0000
0000
0000
0000
0000
0000
0000
0000
0000
0000
1010
0000
0000
0000
0000
0000
0000
0000
0000
0000
0000
0000
0110
0000
0000
0000
0000
0000
0000
0000
0000
0000
0000
0000
0101
0000
0000
0000
0000
0000
0000
0000
0000
0000
0000
0000
0110
0000
0000
0000
0000
0000
0000
0000
0000
0000
0000
0000
1001
0000
0000
0000
0000
0000
0000
0000
0000
0000
0000
0000
0021
0000
0000
0000
0000
0000
0000
0000
0000
0000
0000
0000
0000
0000
0000
0000
0000
0000
0030
0000
0000
1000
0000
0000
0000
0000
0001
0000
0000
0000
0000
0010
0000
0000
0000
0000
0000
0100
0000
0000
0000
0000
0000
1000
0000
0000
0000
0000
,
0011
0000
0101
0000
1100
0000
1001
0000
0222
0000
0003
0030
1300
0000
0001
0000
1010
0000
0100
0000
1001
0000
0211
0000
1000
0300
1000
0000
0201
0000
0001
0000
,
1010
0000
0000
0000
0000
0000
0000
0000
0000
0000
0000
0000
0300
0000
0000
0000
0000
0000
0000
0000
0000
0000
0000
0000
0011
0000
0000
0000
0000
0000
0000
0000
0000
0000
0000
0000
1000
0000
0000
0000
0000
0000
0000
0000
0000
0000
0000
0000
0222
0000
0000
0000
0000
0000
0000
0000
0000
0000
0000
0000
0003
0000
0000
0000
0000
0000
0030
0000
0000
0000
0000
0000
1300
0000
0000
0000
0000
0000
0000
0000
0000
0000
0000
0000
0000
0000
0000
0000
0000
0000
0000
0000
0000
0000
0000
0000
1000
0000
0000
0000
0001
0000
0000
0000
0000
0000
0000
0000
0000
0000
0000
0000
0000
0000
0000
0000
0000
0000
0000
0000
0001
0000
0000
0000
1000
0000
0000
0000
0000
0000
0000
0000
0000
0000
0000
0000
0000
0000
0000
0000
0000
0000
0000
0000
0000
0000
0000
0000
0000
0000
0000
0000
0000
0000
0000
0000
0010
0000
0000
0000
0100
0000
0000
0000
0000
0000
0000
0000
0000
0000
0000
0000
0000
0000
0000
0000
0000
0000
0000
0000
0000
0000
0000
0000
0000
0000
0000
0000
0000
0000
0000
0000
,
1010
1001
0011
0110
1200
0000
0311
0010
0101
0110
1010
0101
0000
1011
1110
0000
,
1010
0011
1100
0101
1020
0000
1031
1000
0110
1100
1001
0011
0000
1011
1101
0000
,
0110
0000
0000
0101
0000
0000
1010
0000
0000
0011
0000
0000
1100
0000
0000
0001
0000
0000
1010
0000
0000
0100
0000
0000
1010
0000
0101
0000
0011
0000
1100
0000
0000
0011
0000
0000
1010
0000
0000
1100
0000
0000
1010
0000
0000
0110
0000
0000
,
0101
0010
1100
1001
1120
0030
1100
0011
1001
0000
0011
0101
1011
1000
0210
0001
,
1000
0301
1100
0011
1110
0000
0101
1010
0011
1100
0011
1100
0111
1000
0110
1001
,
0101
0000
0000
0010
0000
0000
1001
0000
0000
0011
0000
0000
1210
0000
0000
0300
0000
0000
1100
0000
0010
0100
0001
0000
1010
0000
0000
0000
0000
0000
0101
0000
0000
0011
0000
0000
1101
0000
0000
1000
0000
0000
0120
0000
0000
0001
0000
0000
,
0100
0031
1100
1001
0121
0030
1001
0110
0110
1001
0110
1010
1101
0010
1100
1001
,
0101
0010
1100
0101
1021
0030
0110
1010
0101
0000
0101
0011
1110
1000
0200
0001
,
0010
0301
1010
0101
2011
3000
0011
1100
1100
0011
0110
1100
1011
0100
1001
1010
,
0101
0000
0000
1000
0000
0000
0011
0000
0000
0101
0000
0000
1021
0000
0000
0030
0000
0000
0110
0000
0001
1000
0010
0000
0101
0000
0000
0000
0000
0000
0011
0000
0000
0101
0000
0000
1110
0000
0000
1000
0000
0000
0120
0000
0000
0001
0000
0000
,
0000
0031
1100
0011
1012
0003
0110
1001
0110
0101
1010
1100
1011
0010
0101
1100
,
0011
0100
1010
1001
1120
0030
1100
0011
1001
0000
0011
0101
1011
1000
0210
0001
,
1000
0301
1100
0011
1110
0000
0101
1010
0011
1100
0011
1100
0111
1000
0110
1001
,
0101
0000
0000
0010
0000
0000
1001
0000
0000
0011
0000
0000
1210
0000
0000
0300
0000
0000
1100
0000
0010
0100
0001
0000
1010
0000
0000
0000
0000
0000
0101
0000
0000
0011
0000
0000
1101
0000
0000
1000
0000
0000
0120
0000
0000
0001
0000
0000
,
0100
0031
1100
1001
0121
0030
1001
0110
0110
1001
0110
1010
1101
0010
1100
1001
,
0101
0010
1100
0101
1021
0030
0110
1010
0101
0000
0101
0011
1110
1000
0200
0001
,
0010
0301
1010
0101
2011
3000
0011
1100
1100
0011
0110
1100
1011
0100
1001
1010
,
0101
0000
0000
1000
0000
0000
0011
0000
0000
0101
0000
0000
1021
0000
0000
0030
0000
0000
0110
0000
0001
1000
0010
0000
0101
0000
0000
0000
0000
0000
0011
0000
0000
0101
0000
0000
1110
0000
0000
1000
0000
0000
0120
0000
0000
0001
0000
0000
,
0000
0031
1100
0011
1012
0003
0110
1001
0110
0101
1010
1100
1011
0010
0101
1100
,
1001
0100
0010
0001
1100
0010
0100
0001
1010
0100
0011
1100
1010
0101
1011
1110
,
1101
0010
0001
0010
1101
0000
0100
0010
1100
0010
0000
0101
1011
0000
1100
0011
,
1100
0010
0100
0010
1101
0000
0100
0011
1100
0111
1000
0101
1110
0001
1100
0011
,
1010
0000
0000
0101
0000
0000
1010
0000
0000
0101
0000
0000
1011
0000
0000
0100
0000
0000
1010
0000
0000
0110
0000
0000
1001
0000
0000
0110
0000
0000
1100
0000
0000
0110
0000
0000
1011
0000
0000
0110
0000
0000
1001
0000
0110
0000
1010
0000
,
0101
0010
0001
0010
1101
0000
0011
1100
0001
1110
1000
0001
1110
0001
0010
0101
,
0110
1000
0100
1000
0111
0000
1100
0011
0100
0010
0000
0100
1011
0100
0010
0101
,
1010
0100
1000
0100
1011
0000
1001
0110
1000
0111
1001
0100
1011
0100
1011
1110
,
0101
1010
0011
0100
1011
0000
0011
0000
1010
0101
1010
1101
0010
1100
1011
0000
,
1010
0000
0000
0101
0000
0000
0110
0000
0000
1011
0000
0000
0100
0000
0000
0001
0000
0000
1110
0000
0000
1011
0000
0000
1100
0000
0010
0000
0100
0000
1012
0000
0000
0003
0000
0000
1021
0000
0000
1131
0000
0000
1110
0000
0000
1011
0000
0000
,
1101
0010
0001
0010
1101
0000
0100
0010
1100
0010
0000
0101
1011
0000
1100
0011
,
1100
0010
0100
0010
1101
0000
0100
0011
1100
0111
1000
0101
1110
0001
1100
0011
,
1010
0000
0000
0101
0000
0000
1010
0000
0000
0101
0000
0000
1011
0000
0000
0100
0000
0000
1010
0000
0000
0110
0000
0000
1001
0000
0000
0110
0000
0000
1100
0000
0000
0110
0000
0000
1011
0000
0000
0110
0000
0000
1001
0000
0110
0000
1010
0000
,
0101
0010
0001
0010
1101
0000
0011
1100
0001
1110
1000
0001
1110
0001
0010
0101
,
0110
1000
0100
1000
0111
0000
1100
0011
0100
0010
0000
0100
1011
0100
0010
0101
,
1010
0100
1000
0100
1011
0000
1001
0110
1000
0111
1011
1110
0011
0100
1001
1110
,
0101
1010
0011
0100
1011
0000
0011
1000
1010
0101
1010
1101
0010
1100
1011
0000
,
1100
0000
0000
0011
0000
0000
0101
0000
0000
0010
0000
0000
1101
0000
0000
0010
0000
0000
0101
0000
1000
0000
0010
0000
0101
0000
0000
1011
0000
0000
0100
0000
0000
0011
0000
0000
0100
0000
0000
1010
0000
0000
1101
0000
0000
0000
0000
0000
;
