#TITLE:Wolf and Raven;
#SUBTITLE:;
#ARTIST:Sonata Arctica;
#TITLETRANSLIT:;
#SUBTITLETRANSLIT:;
#ARTISTTRANSLIT:;
#CREDIT:;
#BANNER:BN.png;
#BACKGROUND:BG.png;
#LYRICSPATH:;
#CDTITLE:CDTitle.gif;
#MUSIC:Sonata Arctica - Wolf and Raven.mp3;
#OFFSET:-0.440;
#SAMPLESTART:61.748;
#SAMPLELENGTH:12.000;
#SELECTABLE:YES;
#BPMS:0.000=169.411,448.500=72.852,452.000=169.611;
#STOPS:;
#BGCHANGES:;
// cache tags:
#FIRSTBEAT:0.000;
#LASTBEAT:709.250;
#SONGFILENAME:Songs/toune 4/Wolf and Raven/Wolf and Raven.sm;
#HASMUSIC:1;
#HASBANNER:1;
#MUSICLENGTH:259.505;
// end cache tags

//---------------dance-single - Blank----------------
#NOTES:
     dance-single:
     Blank:
     Hard:
     13:
     1.000,1.000,1.000,0.235,1.000,2179.000,264.000,61.000,0.000,0.000:

1000
0100
0010
0001
0100
0010
1000
0100
0010
0100
1000
0001
0100
0001
1000
0010
,
1000
0100
0010
0001
0010
0100
1000
0001
0100
0010
0100
0001
1000
0010
0100
0001
,
0100
0010
1000
0100
0010
0100
1000
0001
0100
0001
1000
0010
1000
0100
0010
0001
,
0010
0100
1000
0010
0100
0001
0010
0100
1000
0001
0100
0001
1000
0010
1000
0100
,
0010
0001
1000
0010
1000
0001
0100
0010
1000
0100
0010
0001
0100
0001
0010
0100
,
1000
0001
0100
0001
1000
0010
1000
0100
0010
0100
1000
0001
0100
0010
0100
0001
,
1000
0010
0100
0001
0010
0100
1000
0100
0010
0001
1000
0010
0100
0010
0100
0001
,
0010
0100
1000
0010
0100
0001
0010
0001
1000
0010
1000
0001
0010
0100
1000
0010
,
1100
0001
0010
0100
0010
0001
1000
0100
0010
0001
1000
0001
0010
0100
1000
0001
,
0100
0001
1000
0010
1000
0100
0010
0100
1000
0001
0100
0010
0100
0001
1000
0010
,
0100
0001
0010
0100
1000
0100
0010
0001
1000
0010
0100
0001
0100
0010
1000
0100
,
1000
0010
0100
0001
0010
0001
1000
0010
1000
0001
0100
0001
0010
0100
1000
0010
,
0100
0001
0010
0100
1000
0001
0100
0001
1000
0100
1000
0001
0010
0001
1000
0010
,
0100
0001
0010
0100
0010
0100
1000
0100
0010
0001
0100
0010
1000
0100
0010
0001
,
0100
0001
1000
0001
0100
0010
1000
0100
0010
0001
0010
0100
1000
0010
0100
0001
,
0010
0100
1000
0100
0010
0001
0010
0100
2000
0000
0000
0000
0000
0000
3000
0000
,
1001
0011
1001
1100
1010
0110
1001
0011
,
0000
1100
1010
1001
0110
0000
0000
0000
,
0000
1001
0011
0101
1010
0110
1001
1100
,
2001
0000
0000
3000
0210
0000
0000
0300
0012
0000
0000
0003
1020
0000
0000
0030
,
0000
1100
1001
0011
0110
1100
1001
0011
,
1001
0110
1100
1001
0011
0000
0000
0000
,
0000
1100
1001
0011
0110
1100
1001
0011
,
0021
0000
1000
0030
2100
0000
0000
3000
0102
0000
1000
0003
0120
0000
0000
0030
,
1100
0010
0001
0100
0010
0100
0001
0010
0100
1000
0001
0100
0001
1000
0010
1000
,
0100
0010
0100
1000
0001
0100
0010
1000
0100
0010
0001
0010
0100
1000
0001
0100
,
0010
1000
0100
0010
0100
1000
0001
0100
0010
1000
0100
0010
0001
1000
0010
0100
,
0001
0010
0100
0010
0001
1000
0010
1000
0001
0010
0001
1000
0100
1000
0010
0100
,
0001
0010
0100
1000
0001
0100
0001
0010
0100
1000
0001
0100
0001
1000
0010
1000
,
0100
0010
0100
1000
0001
0100
0010
1000
0100
0010
0001
0100
0001
0010
0100
1000
,
0001
0100
0001
1000
0010
1000
0100
0010
0100
1000
0001
0100
0010
1000
0010
0100
,
0001
1000
0100
0010
0100
1000
0001
0100
0001
1000
0010
1000
0100
0010
0001
0010
,
1100
1001
0011
0110
1001
1100
1010
0110
,
0101
1001
1100
1010
0101
2200
0000
3300
,
0000
0000
0110
0101
0011
0110
1100
1010
,
0110
0000
1020
0000
0000
0030
0102
0000
0000
0003
0120
0000
0000
0030
1200
0000
,
0000
0300
0011
0110
1010
0110
1001
0011
,
1010
0000
0110
0101
1010
0011
0000
0000
,
0000
0000
1010
1001
0011
0110
1100
1001
,
0110
0000
0012
0000
0000
0003
2010
0000
0000
3000
0102
0000
0000
0003
0120
0000
,
0000
0030
0110
0001
0100
0010
1000
0100
0010
0001
1000
0010
1000
0001
0100
0001
,
1000
0100
0010
0100
1000
0001
0100
0001
1000
0010
0100
0010
1000
0001
0100
0010
,
1000
0100
0010
0001
1000
0100
0010
0100
1000
0001
1000
0100
0010
0100
1000
0001
,
0100
0001
0010
0100
1000
0010
1000
0100
0010
0001
1000
0100
0010
0001
0100
0010
,
0100
0001
1000
0001
0100
0010
1000
0001
0010
0100
1000
0010
0100
0001
0010
0100
,
1000
0010
0100
0001
0010
0100
1000
0001
0100
0001
1000
0010
1000
0001
0010
0001
,
0100
0010
0100
0001
0010
0001
1000
0010
0100
0010
1000
0001
0010
0100
0010
0001
,
1000
0010
0100
0001
1000
0100
0010
0100
1000
0010
0100
0010
1000
0001
0100
0010
,
1100
0010
0001
0100
0010
1000
0100
0010
0001
1000
0010
1000
0001
0100
0001
0010
,
0100
1000
0001
0100
0010
0100
0001
1000
0010
0100
0001
0010
0100
1000
0010
0100
,
0010
1000
0001
1000
0100
0010
0001
0100
0010
1000
0100
0010
0001
0010
0100
1000
,
0001
0010
0001
1000
0010
1000
0001
0100
0001
0010
0100
0010
0001
1000
0010
1000
,
0100
0010
0100
1000
0010
0100
0001
0100
0010
1000
0100
0010
0001
0010
0100
1000
,
0001
0010
0100
1000
0001
0100
0001
1000
0100
1000
0100
0010
0001
0100
0010
0100
,
0001
0010
0100
1000
0010
1000
0100
0010
0001
0100
0010
1000
0100
1000
0010
0100
,
0001
0010
0001
0100
0010
0100
0001
0010
0001
1000
0010
1000
0100
0010
0001
1000
,
0001
0010
0100
1000
0010
0100
0001
0010
0100
0010
0001
1000
0010
1000
0001
1000
,
0100
0010
0100
1000
0001
0100
0010
0100
0001
1000
0010
0100
0001
0010
0100
1000
,
0101
0011
1100
1010
0101
0110
1100
1001
,
0110
0011
0101
1010
1100
0000
0000
0000
,
0000
1100
1010
1001
0011
0110
1100
0110
,
1002
0000
0000
0003
0120
0000
0000
0030
2100
0000
0000
3000
0201
0000
0000
0300
,
0000
0101
1100
1010
0110
1001
0011
0110
,
1100
1010
1001
0011
0110
0000
0000
1100
,
1010
1001
0011
0110
1100
1001
0101
0011
,
2010
0000
0000
3000
0210
0000
0000
0300
1002
0000
0000
0003
1200
0000
0000
0300
,
0011
0100
1000
0010
0100
0001
0100
0001
1000
0100
0010
0100
1000
0010
0100
0001
,
0010
0100
1000
0001
0100
0001
1000
0010
0100
0010
1000
0001
0010
0001
1000
0100
,
0010
0100
0010
0100
1000
0001
0100
0010
1000
0100
0010
0001
0100
0001
0010
0100
,
1000
0010
0100
0001
1000
0010
1000
0001
0100
0010
1000
0100
0010
0100
1000
0001
,
0100
0001
1000
0010
1000
0100
0010
0001
0010
0100
1000
0010
0100
0001
0010
0100
,
1000
0010
0100
0010
1000
0001
1000
0100
0010
0100
0010
0001
1000
0010
0100
0001
,
0010
0100
1000
0001
0100
0001
1000
0010
0100
0010
1000
0100
1000
0010
0100
0001
,
0010
0001
1000
0100
1000
0001
0010
0001
1000
0100
0010
0100
1000
0001
0010
0100
,
1000
0001
0100
0001
1000
0010
1000
0001
0100
0001
0010
0100
1000
0001
0010
0100
,
1000
0001
0010
0001
1000
0100
0010
0100
1000
0001
0010
0001
1000
0010
1000
0100
,
0010
0001
0100
0010
1000
0100
0010
0001
0010
0100
1000
0001
0100
0010
1000
0100
,
0010
0100
1000
0010
0100
0001
0010
0100
1000
0010
0100
0001
1000
0100
0010
0001
,
0100
0010
1000
0100
0010
0100
1000
0001
0100
0001
1000
0010
1000
0100
0010
0001
,
0010
0100
1000
0001
0100
0010
1000
0100
0010
0100
1000
0001
0010
0100
0010
0001
,
1000
0100
0010
0100
1000
0001
0100
0010
1000
0001
0010
0001
1000
0010
1000
0100
,
0010
0001
0010
0100
1000
0001
0100
0001
1000
0010
1000
0100
0010
0001
0010
0100
,
1000
0010
0100
0001
0110
0000
1000
0100
0010
0001
1010
0000
0000
0000
0000
0000
,
1001
0000
0100
0000
0110
0000
1000
0001
,
0100
0001
0100
0000
1010
0000
0100
0000
,
1000
0100
0010
0001
1000
0100
0010
0001
0200
0000
0000
0000
0000
0300
0010
0001
,
1000
0100
0010
0100
2000
0000
0000
3000
0001
0100
0010
0100
0002
0000
0000
0000
,
1003
0100
0010
0100
1000
0001
0100
0001
1000
0010
0100
0001
0010
0100
1000
0001
,
0100
0010
1000
0100
0010
0001
0010
0100
0020
0000
0000
0000
0000
0000
0031
1000
,
0100
0010
0100
1000
0002
0000
0000
0000
0103
0010
1000
0010
0200
0000
0000
0000
,
0310
1000
0001
0100
0010
1000
0100
0010
0100
1000
0001
0100
0001
1000
0010
1000
,
0100
0010
0001
0100
0010
1000
0100
0010
0001
0010
0100
1000
0001
0100
0010
1000
,
0101
0000
0000
1100
0000
0000
1001
0000
,
0000
0011
0000
0000
0110
0000
0000
1001
,
0000
1100
1010
0110
,
0011
1000
0011
1000
0110
0001
0110
0001
,
1010
0100
1010
0100
0101
1000
0101
1000
,
0110
0000
0000
1001
0000
0000
1100
0000
,
0000
1010
0000
0000
0101
0000
0000
0011
,
0000
0101
1010
1100
,
1001
0010
1001
0010
1100
0001
1100
0001
,
0110
1000
0110
1000
0101
0010
0101
0010
,
1001
0000
0000
0110
0000
0000
1001
0000
,
0000
0011
0000
0000
1010
0000
0000
0110
,
0000
0101
0011
0110
,
0101
1000
0101
1000
0011
0100
0011
0100
,
1100
0010
1100
0010
0110
0001
0110
0001
,
0110
0000
0000
1100
0000
0000
1001
0000
,
0000
0101
0000
0000
1010
0000
0000
0011
,
0000
0110
1001
1010
,
0220
0000
0000
0330
2002
0000
0000
3003
1100
0000
1010
0000
1001
0000
0011
0000
,
0220
0000
0000
0330
1100
0000
1001
0000
0011
0000
0110
0000
1010
0000
1001
0000
,
0011
0000
2020
0000
0000
0000
0000
0000
0000
0000
0000
0000
0000
0000
0000
3030
,
1000
0100
0010
0001
0100
0010
1000
0100
0010
0100
1000
0001
0100
0001
1000
0010
,
1000
0010
0100
0001
0010
0001
1000
0010
1000
0100
0010
0001
0010
0100
1000
0001
,
0100
0010
1000
0100
0010
0001
0010
0100
1000
0001
0010
0100
0010
0001
1000
0010
,
0100
0001
0010
0100
1000
0010
0100
0001
0010
0001
1000
0100
0010
0001
0010
0100
,
1000
0010
0100
0010
1000
0100
0010
0001
1000
0010
1000
0001
0010
0100
0010
0001
,
1000
0100
0010
0100
0010
0001
1000
0010
0100
0001
0100
0010
1000
0100
0010
0001
,
0100
0001
0010
0100
1000
0001
0010
0001
1000
0100
1000
0001
0100
0001
1000
0010
,
1000
0100
0010
0001
1000
0100
1000
0001
0010
0001
1000
0001
0100
0010
1000
0100
,
0010
0001
1000
0001
0010
0100
0010
0001
1000
0010
1000
0001
0100
0001
0010
0100
,
1000
0010
0100
0010
1000
0100
0010
0100
1000
0001
0100
0010
0100
0001
1000
0010
,
0100
0001
0100
0010
1000
0100
0010
0100
1000
0001
0100
0010
0100
0001
0010
0100
,
1000
0001
0010
0100
1000
0001
0100
0001
1000
0010
1000
0100
0010
0100
1000
0010
,
0100
0010
1000
0010
0100
0010
1000
0001
0100
0010
1000
0100
0010
0001
0010
0100
,
1000
0001
0100
0010
1000
0100
0010
0001
0100
0001
0010
0100
1000
0001
0100
0001
,
1000
0010
1000
0100
0010
0001
0100
0010
1000
0100
0010
0100
1000
0001
0100
0001
,
0010
0100
1000
0001
0100
0001
1000
0010
1000
0100
0010
0001
0010
0100
1000
0010
,
1100
0010
0100
0101
1000
0010
1100
0001
,
0011
1000
0010
0110
1000
0001
0011
1000
,
1010
0001
0100
1010
0100
0001
1100
0101
,
0011
1000
0010
0100
1001
0010
0100
1000
,
0011
1000
0010
0110
1000
0001
0011
1000
,
1100
0010
0100
0001
0011
0100
0110
1000
,
1001
0010
0100
1010
1000
0001
1100
0010
,
0101
0010
1000
0100
0011
0100
1000
0010
,
1001
0100
0010
0001
0100
0010
0100
0001
0010
0100
1000
0001
0100
0001
1000
0010
,
2200
0000
0000
0000
0000
0000
0000
3300
2002
0000
0000
0000
0000
0000
0000
3003
,
0001
0100
0010
1000
0100
0010
0001
0010
0100
1000
0010
0100
0001
0010
0100
1000
,
0022
0000
0000
0000
0000
0000
0000
0000
0000
0000
0000
0033
2002
0000
0000
3003
,
0100
0010
0001
1000
0010
0100
0010
1000
0001
0010
0100
0010
0001
1000
0010
0100
,
0001
0010
0100
1000
0001
0100
0001
1000
0010
1000
0100
0010
0001
0100
0001
0010
,
2200
0000
0000
0000
0000
0000
0000
0000
0000
3300
0202
0000
0000
0303
0110
0000
,
2002
0000
0000
0000
0000
0000
0000
3003
0220
0000
0000
0330
0220
0000
0000
0330
,
1001
0100
0010
0001
0010
0100
1000
0010
1000
0100
0010
0001
1000
0010
1000
0001
,
0100
0001
0010
0100
0010
0001
1000
0010
0100
0001
0100
0010
1000
0100
0010
0001
,
1000
0010
1000
0001
0100
0001
1000
0100
1000
0001
0100
0001
0010
0100
1000
0001
,
0100
0010
1000
0001
0010
0001
1000
0010
1000
0100
0010
0001
0010
0100
1000
0001
,
0100
0001
1000
0010
1000
0100
0010
0100
1000
0001
0100
0010
1000
0100
0010
0001
,
0010
0100
1000
0001
1000
0010
0100
0001
0010
0100
0010
0001
0100
0010
0100
0001
,
1000
0001
0100
0010
0100
0001
1000
0100
0010
0100
1000
0001
0010
0001
1000
0010
,
0100
0010
1000
0001
0100
0010
1000
0100
0010
0001
1000
0001
1000
0001
0010
0100
,
1000
0001
0100
0010
0100
0001
1000
0010
0100
0001
1000
0010
0100
0001
0010
0100
,
1000
0001
0100
0001
1000
0010
0100
0001
0100
0010
1000
0100
0010
0100
1000
0001
,
0010
0001
1000
0010
0100
0001
1000
0010
1000
0001
0010
0001
1000
0100
0010
0001
,
1000
0100
0010
0100
1000
0001
0010
0001
0010
0100
0010
0001
1000
0010
0100
0001
,
0010
0100
1000
0001
0100
0001
1000
0010
1000
0100
0010
0001
0010
0100
1000
0100
,
0010
0001
1000
0010
1000
0001
0010
0001
0100
0010
1000
0100
0010
0100
1000
0001
,
0100
0010
0100
0001
0010
0100
1000
0100
1000
0001
0100
0010
0100
0001
1000
0100
,
0010
0100
1000
0010
0100
0001
0010
0100
1000
0001
0100
0001
1000
0100
0010
0001
,
0110
1000
0100
0010
0100
1000
0001
0100
0001
1000
0010
1000
0100
0010
0001
0100
,
0010
1000
0100
0010
0001
1000
0010
1000
0001
0010
0001
0100
0010
1000
0100
0010
,
0001
0010
0100
1000
0010
0100
0001
0010
0100
1000
0001
0100
0001
1000
0100
0010
,
0100
1000
0001
0100
0010
0100
0001
1000
0010
0100
0010
1000
0001
0100
0010
1000
,
0100
0010
0001
0010
0100
1000
0001
0100
0001
1000
0010
1000
0100
0010
0001
0100
,
0010
0100
0001
0010
0100
1000
0001
0100
0001
1000
0010
1000
0100
0010
0100
1000
,
0001
0100
0010
0100
0001
1000
0010
0100
0001
0010
0100
1000
0010
0100
0010
1000
,
0100
1000
0010
0100
0010
1000
0001
1000
0100
0010
0100
1000
0001
0100
0010
1000
,
0100
0010
0001
1000
0100
0010
0001
1000
0010
1000
0001
0100
0001
0100
0010
0100
,
0001
1000
0010
0100
0001
0010
0100
1000
0010
0100
0001
0010
0100
1000
0001
0010
,
0001
1000
0100
1000
0001
0010
0001
1000
0100
1000
0100
0010
0001
1000
0010
1000
,
0001
0100
0010
1000
0001
0100
0001
0010
0100
1000
0010
0100
0010
1000
0100
0010
,
0001
1000
0010
0100
0001
0010
0100
1000
0001
0100
0001
1000
0010
1000
0100
0010
,
0100
0010
0001
1000
0010
0100
0001
0100
0010
0100
0010
1000
0100
0010
0100
1000
,
0001
0100
0001
1000
0010
0100
0001
0010
0100
0010
0001
1000
0010
0100
0001
0010
,
0100
1000
0001
0100
0001
1000
0010
1000
0100
0010
0100
1000
0001
0010
0100
0010
,
2002
0000
0000
0000
0000
3003
0000
0000
0000
0000
0000
0000
0000
0000
0000
0000
;
