#TITLE:Saitama-X2 supremum;
#SUBTITLE:;
#ARTIST:R3;
#TITLETRANSLIT:;
#SUBTITLETRANSLIT:;
#ARTISTTRANSLIT:;
#CREDIT:;
#BANNER:saitama bana.png;
#BACKGROUND:saitama bg.png;
#LYRICSPATH:;
#CDTITLE:cdtitle.png;
#MUSIC:Saitama-X2 supremum.mp3;
#OFFSET:-0.120;
#SAMPLESTART:64.040;
#SAMPLELENGTH:12.000;
#SELECTABLE:YES;
#BPMS:0.000=300.000;
#STOPS:;
#BGCHANGES:;
// cache tags:
#FIRSTBEAT:32.000;
#LASTBEAT:446.000;
#SONGFILENAME:Songs/Japanese Collaboration Mix/saitama-x2/saitama-x2.sm;
#HASMUSIC:1;
#HASBANNER:1;
#MUSICLENGTH:90.691;
// end cache tags

//---------------dance-single - ----------------
#NOTES:
     dance-single:
     :
     Hard:
     11:
     1.000,1.000,1.000,0.000,0.044,525.000,165.000,0.000,0.000,0.000:
0000
0000
0000
0000
,
0000
0000
0000
0000
,
0000
0000
0000
0000
,
0000
0000
0000
0000
,
0000
0000
0000
0000
,
0000
0000
0000
0000
,
0000
0000
0000
0000
,
0000
0000
0000
0000
,
0001
0000
0001
1000
0010
0000
1000
0001
,
0010
0000
0001
1000
0100
0000
1000
0001
,
0100
0000
0001
1000
0010
0000
1000
0001
,
0010
0000
0001
1000
0100
0000
1000
0001
,
1001
0110
1001
0110
,
1001
1100
0101
0011
,
1001
0101
1010
0110
,
0101
1010
1001
0101
,
1001
1001
1001
1001
,
1001
1001
1001
1001
,
1001
1001
1001
1001
,
1001
0000
0000
0000
1001
0000
0000
0000
0010
0000
0000
0010
0100
0000
0000
0000
,
0110
0110
0110
0110
,
0110
0110
0110
0110
,
0110
0110
0110
0110
,
0110
0000
0000
0000
0110
0000
0000
0000
0100
0000
0000
0100
0010
0000
0000
0000
,
1001
1100
1001
1001
,
1001
0101
1001
1001
,
1001
1010
1001
1001
,
1001
0000
0000
0000
0011
0000
0000
0000
1001
0000
0000
0010
0100
0000
0000
0000
,
1001
1100
1001
0101
,
1001
1010
1001
0011
,
1001
0110
1001
0110
,
1001
0000
0000
0000
1001
0000
0000
0000
1100
0000
0000
0010
0001
0000
0000
0000
,
0001
1000
0100
0010
0001
0100
0010
1000
,
0100
0010
0001
0100
0010
1000
0100
0010
,
0100
1000
0010
0100
0001
0010
0100
1000
,
0001
0010
0001
0100
0010
1000
0010
0000
,
0100
0001
0010
0100
0001
0010
0100
1000
,
0001
0100
0010
1000
0100
0010
0100
1000
,
0010
0100
0001
0010
0100
1000
0001
0010
,
0001
0100
0010
1000
0001
1000
0001
0000
,
0001
1000
0100
0010
0001
0100
0010
1000
,
0100
0010
0100
1000
0010
0100
0001
0010
,
0100
1000
0010
0100
0001
0010
0001
0100
,
0010
1000
0001
0010
0100
1000
0001
0000
,
0001
1000
0100
0010
0001
0100
0010
1000
,
0100
0010
0100
1000
0010
0100
0001
0010
,
0100
1000
0001
0010
0100
1000
0001
0010
,
0100
1000
0001
0010
1001
0000
0000
0000
,
1001
0100
0010
0000
,
1001
0010
0100
0000
,
1001
0000
1001
0100
,
1001
0100
1001
0100
,
1001
0010
0100
0000
,
0011
0010
0100
0000
,
1010
0000
0110
0001
,
0110
0001
1100
0100
,
0110
0001
1000
0000
,
0110
1000
0010
0000
,
0110
0001
1001
0100
,
0110
0010
0011
0001
,
1001
1000
0100
0000
,
1010
1000
0100
0000
,
1001
0000
1001
1010
,
1001
0011
1001
1100
,
0001
1000
0100
0000
,
1000
0001
0100
0000
,
0001
1000
0010
1000
,
0001
0010
0100
0010
,
1001
0010
0100
0000
,
1001
0100
0010
0000
,
0001
1000
0010
0100
,
0001
0100
0010
0100
,
0001
0010
0100
0000
,
0010
0001
0100
0000
,
0010
1000
0100
0010
,
0100
1000
0001
0100
,
0010
1000
0001
0000
,
0100
1000
0001
0000
,
0100
0001
1000
0010
,
0100
0001
0110
0000
,
1001
1100
1001
0101
,
0011
1010
0110
0101
,
1010
0011
1100
0110
,
0011
0000
0000
0000
1100
0000
0000
0000
1001
0000
0000
0001
1000
0000
0000
0000
,
1001
0110
1001
0110
,
0011
1100
1010
0101
,
0011
1001
1010
0011
,
1100
0000
0000
0000
1001
0000
0000
0000
0001
0000
0000
0001
0100
0000
0000
0000
,
1001
0110
0011
1100
,
1010
1100
0101
0011
,
1100
0101
1010
0011
,
1100
0000
0000
0000
1010
0000
0000
0000
0110
0000
0000
0001
1000
0000
0000
0000
,
1001
1100
1010
0110
,
0101
0011
1100
1010
,
0101
1010
0011
1100
,
1001
0000
0000
0000
0110
0000
0000
0000
1001
0000
0000
0001
1000
0000
0000
0000
,
0001
1000
0100
1000
0001
1000
0100
1000
,
0001
1000
0010
1000
0001
1000
0010
1000
,
0001
0010
0001
1000
0001
0010
0001
1000
,
0001
0010
0001
1000
0001
0100
0001
1000
,
0100
0001
0100
0010
0100
1000
0010
0100
,
0001
0010
0100
1000
0010
0100
0001
0010
,
0100
1000
0100
0010
0001
0100
0010
1000
,
0100
0010
0001
0100
0010
0000
0000
0000
,
0001
1000
0100
1000
0001
1000
0100
1000
,
0001
0010
0001
1000
0001
0010
0001
1000
,
0010
1000
0001
1000
0010
1000
0001
1000
,
0001
0100
0001
1000
1001
0000
0000
0000
,
0001
1000
0100
0010
0001
0100
0010
1000
,
0001
0010
0100
1000
0010
1000
0100
0010
,
0001
1000
0010
1000
0001
0010
0100
1000
,
0001
0100
0010
1000
0001
0000
0000
0000
;
