#TITLE:Mario Hard-Core;
#SUBTITLE:Now Die;
#ARTIST:FireStorm;
#TITLETRANSLIT:;
#SUBTITLETRANSLIT:;
#ARTISTTRANSLIT:;
#CREDIT:;
#BANNER:Mario HardCore-banner.png;
#BACKGROUND:Mario HardCore BG.png;
#LYRICSPATH:;
#CDTITLE:;
#MUSIC:MARIO.mp3;
#OFFSET:0.200;
#SAMPLESTART:30.307;
#SAMPLELENGTH:12.000;
#SELECTABLE:YES;
#BPMS:0.000=150.000,5.667=250.001,53.000=100.000,71.250=300.000,149.667=400.000;
#STOPS:5.000=0.180
;
#BGCHANGES:0.000=Mario HardCore BG.png=1.000=0=0=1,
99999=-nosongbg-=1.000=0=0=0 // don't automatically add -songbackground-
;
// cache tags:
#FIRSTBEAT:0.667;
#LASTBEAT:205.000;
#SONGFILENAME:Songs/new cedric/Mario Hard-Core/MARIO.sm;
#HASMUSIC:1;
#HASBANNER:1;
#MUSICLENGTH:49.771;
// end cache tags

//---------------dance-single - ----------------
#NOTES:
     dance-single:
     :
     Hard:
     13:
     1.000,1.000,0.944,0.964,1.000,277.000,47.000,48.000,176.000,0.000:
0000
0000
1000
1000
1000
1000
0001
0001
0001
0001
0010
0100
,
0010
0000
0100
0000
0010
0000
1001
0000
0110
0000
0000
0000
0000
0000
0000
1100
0000
0000
0000
0000
0000
0000
0110
0000
,
0000
0000
0000
0000
0000
0000
0011
0000
0000
0000
0000
0000
0000
0000
1100
0000
0000
0000
0000
0000
0000
0011
0000
0000
,
0000
0000
0110
0000
0000
0000
1001
0000
0000
0000
0110
0000
,
0000
0000
0000
0011
0000
0000
0000
0000
0000
0000
1100
0000
0000
0000
0000
0000
0000
0000
0101
0000
0000
0000
0000
0000
,
0000
0000
0000
0011
0000
0000
0000
0000
0000
0000
1010
0000
0000
0000
0000
1001
0000
0000
0000
0000
2002
0000
3003
0000
,
0220
0000
0330
0000
0000
0000
0000
0000
0000
1000
0000
0000
1000
0000
0000
1000
0000
0000
1000
0000
0000
0100
0000
0000
,
0100
0100
0100
0010
0001
0010
0001
0100
,
2000
0000
3000
0010
0001
0100
1000
0001
,
1000
0020
0000
0030
1000
0100
1000
0010
,
0001
0100
2000
0000
3000
0100
0001
0100
,
1000
0010
0001
0001
0002
0000
0003
1000
,
0100
1000
2002
0000
0000
3003
0100
0000
,
0010
0000
0000
0000
0000
0000
0000
0000
0000
0000
0000
0000
0000
0000
0000
0000
0000
0000
0000
0000
0000
0000
0000
0000
0001
0000
0000
0000
0000
0000
0000
0000
0000
0000
0000
0000
0000
0000
0000
0000
0000
0000
0000
0000
0000
0000
0000
0000
0000
0000
0000
0000
0000
0000
0000
0000
0000
0000
0000
0000
1000
0000
0000
0000
0000
0000
0000
0000
0000
0000
0000
0000
0100
0000
0000
0000
0000
0000
0000
0000
0000
0000
0000
0000
0010
0000
0000
0000
0000
0000
0000
0000
0000
0000
0000
0000
0001
0000
0000
0000
0000
0000
0000
0000
0000
0000
0000
0000
0010
0000
0000
0000
0000
0000
0000
0000
0000
0000
0000
0000
0001
0000
0000
0000
0000
0000
0000
0000
0000
0000
0000
0000
0220
0000
0000
0000
0000
0000
0330
0000
0000
0000
0000
0000
0000
0000
0000
0000
0000
0000
0000
0000
0010
0000
0000
0000
0000
0000
0000
0000
0001
0000
0000
0000
0000
0000
0000
0000
0000
0000
0000
0000
0000
0000
0000
0000
0000
0000
0000
0000
1000
0000
0000
0000
0000
0000
0000
0000
0000
0000
0000
0000
,
0100
0000
0000
0010
0000
0000
0002
0000
0000
0003
0000
0000
1000
0000
0100
0000
0000
0000
0000
0000
0000
0001
0000
0000
0010
0000
0000
0100
0000
0000
0020
0000
0000
0030
0000
0000
1000
0000
0001
0000
0000
0000
0010
0000
0000
0100
0000
0000
,
1000
0000
0000
0001
0000
0000
0220
0000
0000
0330
0000
0000
2002
0000
0000
3003
0000
0000
0100
0000
0000
0010
0000
0000
0100
0000
0000
0002
0000
0000
0003
0000
0100
0000
0010
0000
0000
0000
0000
1000
0000
0000
0010
0000
0000
0100
0000
0000
,
0002
0000
0000
0003
0000
0000
0110
0000
2200
0000
3300
0000
0000
0000
0000
0001
0000
0000
0001
0000
0000
0010
0000
0000
2000
0000
0000
3000
0000
0000
0001
0000
0000
0010
0000
0000
1000
0000
0000
0110
0000
0000
0001
0000
0000
0001
0000
0000
,
0001
0010
0001
0001
0001
1000
0100
1000
0100
0001
0010
1000
0100
0010
0000
0000
,
0110
0000
0000
1100
0000
0000
0011
0000
,
0000
0110
0000
0000
1100
0000
0000
0011
,
0000
0000
0110
0000
0000
1100
0000
0000
,
0011
0000
0000
0110
0000
0000
1001
0000
,
0000
0110
0000
0000
0011
0000
0000
0220
,
0330
0000
2002
0000
3003
0000
0000
0000
0000
0000
0000
0000
1000
0000
0000
0100
0000
0000
0010
0000
0000
0001
0000
0000
,
1000
0100
0010
0001
1000
0100
0010
0001
,
1000
0000
0000
0100
0000
0000
0010
0000
0000
0002
0000
0000
0000
0000
0000
0003
0000
0000
1000
0000
0000
0000
0100
0000
,
0000
1000
0000
0001
0000
0010
0000
0100
0000
2000
0000
3000
,
0000
0000
0100
0000
0010
0000
0001
0000
0010
0000
0100
0000
,
1000
0000
0220
0000
0330
0000
0010
0000
0100
0000
0001
0000
,
1000
0000
0100
0000
0001
0000
0010
0000
0200
0000
0300
0000
,
1000
0000
0100
0000
0001
0000
0100
0000
2002
0000
3003
0000
,
0000
0000
2000
0000
3000
0000
0200
0300
0002
0000
0003
0000
,
1000
0000
1000
0000
1000
0000
1000
0000
0001
0000
0001
0000
,
0010
0000
0010
0000
0100
0000
1000
0000
0100
0000
0001
0000
,
0010
0000
0100
0000
1000
0000
0010
0000
0100
0000
1000
0000
,
0001
0000
0110
0000
1000
0000
0100
0000
0010
0000
0001
0000
,
0010
0000
0100
0000
1000
0000
0100
0000
0001
0000
0100
0000
,
1000
0000
0000
0011
1100
0000
1000
0000
0010
0000
1000
0000
,
0100
0000
1000
0000
0010
0000
1000
0000
0100
0000
1000
0000
,
0010
0000
1000
0000
0100
0000
1000
0000
0010
0000
1000
0000
,
0100
0000
1000
0000
0010
0000
0002
0000
0000
0000
0000
0003
,
0000
0000
MM1M
0000
0000
M1MM
0000
0000
1MMM
0000
0000
M1MM
,
0000
0000
MMM1
0000
0000
MM2M
0000
0000
MM3M
0000
0000
M1MM
,
0000
0000
1MMM
0000
0000
M1MM
0000
0000
MM1M
0000
0000
MMM1
,
0000
0000
MM2M
0000
0000
MM0M
0030
0000
1MMM
0000
0000
M1MM
,
0000
0000
MMM1
0000
0000
MM1M
0000
0000
MM1M
0000
0000
MM1M
,
0000
0000
2MMM
0000
0000
0MMM
3000
0000
1MMM
0000
0000
MMM1
,
0000
0000
1MMM
0000
0000
0000
2MM2
0MM0
0MM0
0MM0
0MM0
3MM3
,
0000
MM2M
MM0M
MM0M
MM3M
0000
0000
MMM2
MMM0
MMM3
0000
MM2M
,
MM0M
MM0M
MM3M
0000
0000
2MM2
0MM0
0MM0
0MM0
0MM0
0MM0
0MM0
,
0MM0
0MM0
0MM0
0MM0
0MM0
0MM0
0MM0
0MM0
0MM0
0MM0
3MM3
MMMM
,
MMMM
MMMM
MMMM
MMMM
0000
0000
0000
0000
0000
0000
0000
0000
;
