#TITLE:OblivioN SC;
#SUBTITLE:(Another Step);
#ARTIST:ESTi;
#TITLETRANSLIT:;
#SUBTITLETRANSLIT:;
#ARTISTTRANSLIT:;
#CREDIT:;
#BANNER:OblivioN SC (Another Step).png;
#BACKGROUND:OblivioN SC (Another Step)-bg.png;
#LYRICSPATH:;
#CDTITLE:NVLM-cdtitle.png;
#MUSIC:OblivioN SC (Another Step).mp3;
#OFFSET:-0.665;
#SAMPLESTART:70.357;
#SAMPLELENGTH:12.000;
#SELECTABLE:YES;
#BPMS:0.000=141.000;
#STOPS:;
#BGCHANGES:;
// cache tags:
#FIRSTBEAT:0.000;
#LASTBEAT:274.000;
#SONGFILENAME:Songs/mongol/OblivioN SC (Another Step)/OblivioN SC (Another Step).sm;
#HASMUSIC:1;
#HASBANNER:1;
#MUSICLENGTH:120.189;
// end cache tags

//---------------dance-single - ----------------
#NOTES:
     dance-single:
     :
     Challenge:
     16:
     1.000,1.000,1.000,0.516,1.000,820.000,425.000,62.000,0.000,27.000:  // measure 1
0120
1000
0001
0100
1000
0001
1230
0010
,  // measure 2
1302
0100
0010
1000
0100
1000
0100
0013
,  // measure 3
0012
0100
2013
0100
3021
0100
1230
0010
,  // measure 4
0321
1000
0100
0001
0100
0001
1000
0130
,  // measure 5
0021
1000
0132
1000
0123
1000
0231
0010
,  // measure 6
2301
0100
0010
0001
3210
0001
0312
1000
,  // measure 7
0213
0001
1000
0010
0001
1000
0311
0110
,  // measure 8
2001
0000
0010
0000
0100
0000
3010
0000
1100
0010
1001
0100
1010
0100
0011
0000
,  // measure 9
2001
0010
0001
0010
0001
0100
0010
0101
0001
0010
0001
0100
3001
0000
0000
0001
,  // measure 10
2001
0010
0001
3100
0021
0100
1000
0131
0201
0010
0001
0310
2001
0100
0001
3100
,  // measure 11
1020
0001
1000
0100
1000
0100
0001
1100
1000
0100
1000
0001
1030
0000
0000
1000
,  // measure 12
1020
0001
1000
0130
1002
0010
0100
1013
1020
0100
1000
0031
1200
0010
1000
0301
,  // measure 13
0021
1000
0001
0100
0001
1000
0100
1001
0001
0100
0001
1030
0101
0000
0010
0000
,  // measure 14
1200
0010
1000
0010
1000
0300
0000
1000
1002
0100
1000
0103
1020
0001
1000
0130
,  // measure 15
0201
0010
0001
1000
0001
0010
0000
0311
1001
0100
1001
0010
1100
1001
0110
1100
,  // measure 16
0011
0000
1000
0000
1100
0000
0010
0000
1100
0010
1100
0001
0110
0001
1100
0010
,  // measure 17
1001
0100
1010
0001
0110
0001
1010
0100
1100
0010
1100
0001
0110
1000
0110
1000
,  // measure 18
0011
0100
1010
0001
1100
0001
1100
0010
0101
0010
0101
1000
0101
1000
0011
0100
,  // measure 19
1001
0010
0101
1000
0101
0010
1100
0001
1010
0100
1010
0100
0011
1000
0011
0100
,  // measure 20
1010
0001
1100
0010
0101
1000
0011
0100
1010
0001
1100
0010
0101
0010
0101
1000
,  // measure 21
0101
0010
1001
0100
0011
1000
0011
0100
0011
1000
0011
0100
0011
1000
0110
1000
,  // measure 22
0011
0100
1010
0100
1001
0100
0011
1000
0101
0010
1100
0010
1001
0100
0011
1000
,  // measure 23
0011
0100
1010
0100
1001
0010
0101
1000
0110
0000
1010
0000
0011
0000
0110
0000
,  // measure 24
1010
0000
0101
0000
1010
0000
0101
0000
1001
0000
0110
0000
1001
0000
0110
0000
1000
0100
0010
0001
0010
0000
0001
0000
0011
0000
0110
0000
1100
0000
1001
0000
,  // measure 25
2200
0000
0000
0000
0000
3310
0110
0011
,  // measure 26
1001
0000
0100
0000
1010
1100
0000
0110
0000
1100
0110
0000
1010
0000
0101
0000
,  // measure 27
0011
0000
1010
0110
0000
0101
1001
0010
0110
1001
0110
1001
0110
0000
0010
0000
,  // measure 28
0101
0000
1100
0011
0000
0011
1100
0000
1100
0000
0011
1100
0000
1100
0011
0000
,  // measure 29
0110
0000
1010
0101
0000
0101
1010
0000
0101
0000
1010
0000
0101
0000
1010
0000
,  // measure 30
0110
0000
1010
0000
1001
0110
0000
0110
0000
0101
1010
0000
1010
0000
0101
0000
,  // measure 31
0011
0000
1001
0110
0000
0110
1001
0110
0011
1100
0011
1100
0011
0000
1001
0000
,  // measure 32
1100
0000
1010
0110
0000
0110
1010
0000
0011
0000
1100
0000
1010
0000
0101
0000
,  // measure 33
1010
0000
0011
1100
0000
1100
0011
0000
0101
1010
0101
1010
0101
0000
0110
0000
,  // measure 34
1001
0000
0110
0000
0011
1001
1100
0110
0000
0110
1010
0000
0110
0000
1010
0000
,  // measure 35
0011
0000
0101
1010
0000
1100
0010
0000
0110
1100
0000
0011
0000
0000
0101
0000
,  // measure 36
1100
0000
0011
1100
0110
1001
0110
0101
1010
1100
0011
0110
1001
0000
1100
0000
,  // measure 37
0110
0000
0001
0000
1001
0110
0000
0101
0000
0101
0110
0000
1010
0000
1100
0000
,  // measure 38
1001
0000
0001
0000
0101
1010
0000
1100
0000
1100
0011
0000
0101
0000
0011
0000
,  // measure 39
0110
0000
0101
0000
1010
0110
0000
1010
0101
1010
0101
0000
1100
0000
0101
0000
,  // measure 40
1001
0000
0000
0000
0110
0000
0000
0000
1010
0000
0101
0000
0000
0000
0110
0000
0001
0010
0100
1000
0010
0000
0100
0000
0001
0000
0010
0000
0100
0000
1000
0000
,  // measure 41
0101
0000
1100
0011
0000
0011
1100
0000
0011
0101
0000
0110
0000
0000
0110
0000
,  // measure 42
1002
0010
0100
0010
1000
0103
0100
0010
,  // measure 43
2001
0000
0100
0000
0010
0000
0010
0001
0100
0001
3100
0000
0010
0000
0010
0000
,  // measure 44
1200
0000
1300
0000
0012
0000
1000
0003
0120
0000
0100
0030
2001
0000
0100
3000
,  // measure 45
1002
1000
0100
0100
0010
0100
0100
1000
0010
0010
0100
0010
0003
0000
1000
0000
,  // measure 46
2100
0100
0010
3010
0012
0010
0010
0103
0120
0100
0100
1030
1200
0010
1000
0301
,  // measure 47
1002
1000
0010
1000
0010
0100
1000
0103
0021
0001
1030
0100
0102
0010
1000
0103
,  // measure 48
2010
0010
0001
0010
0100
0001
0010
0001
3100
0100
0000
0100
0001
0000
0110
0000
,  // measure 49
2010
0000
0010
0000
0100
0000
0010
0000
0001
0000
0100
0000
3010
0000
0000
0000
0001
0000
0010
0000
1000
0100
0010
0001
0100
0000
0000
0000
0110
0000
0000
0000
,  // measure 50
1001
0000
0110
0000
0011
0000
1100
0000
1100
0000
0001
0110
1001
0000
0100
0000
,  // measure 51
0011
0000
0100
0000
1010
0000
0010
0000
0101
0000
1010
0100
0011
0000
0100
0000
,  // measure 52
1001
0000
0010
0000
0110
0000
1000
0000
1100
0000
1001
0010
0101
0000
0010
0000
,  // measure 53
1001
1100
0000
0011
0000
0110
1010
0000
0001
0010
0100
1000
0100
0000
1000
0000
,  // measure 54
1002
1000
0100
1000
0010
0100
1000
0100
1000
1000
0103
1000
0001
0000
1010
0000
,  // measure 55
2100
0100
0010
0100
0001
0010
3100
0000
0012
0010
0100
1003
2001
0010
0100
3001
,  // measure 56
0210
0010
1000
0010
0001
1000
0010
1000
0301
0001
0000
1001
0110
1001
0110
1100
,  // measure 57
0011
0000
1100
0000
0011
0000
1100
0000
0011
0000
1100
0000
0011
0000
1100
0000
0001
0010
0100
1000
0001
0000
1000
0000
0100
0000
0010
0000
0100
0000
0000
0000
,  // measure 58
1100
0000
0000
1100
0000
0000
1100
0000
1010
0000
1001
0010
0101
0000
0101
0010
,  // measure 59
1001
0000
0000
0000
0000
0000
0001
0000
1100
0011
1100
0011
1100
0011
1100
0011
1200
0000
0000
0000
0000
0000
0301
0000
1100
0011
1100
0011
1100
0011
1100
0011
,  // measure 60
1100
0000
0001
1010
0000
0001
1010
0000
1100
0011
0000
0000
0011
0000
0011
0000
,  // measure 61
1001
0000
0110
0000
0000
0000
0100
0000
0011
1100
0011
1100
0011
1100
0011
1100
0002
0000
0000
0000
0013
0000
1000
0000
0011
1100
0011
1100
0011
1100
0011
1100
,  // measure 62
0011
0000
0000
0011
0000
0000
0011
0110
0000
0010
1010
0000
0101
0100
0000
0010
,  // measure 63
0100
0000
0010
0000
0100
0000
0010
0000
1100
0011
1100
0011
1100
0011
1100
0011
0200
0000
0000
0000
0301
0000
0000
0000
0011
1100
0011
1100
0011
1100
0011
1100
,  // measure 64
0011
1000
0000
1100
0110
0000
0001
0100
0011
0000
0001
0100
0001
0000
0010
1000
,  // measure 65
0200
0000
0000
0000
0000
0000
0301
0010
0002
0000
0000
0000
0000
0000
1003
1000
,  // measure 66
0020
0000
0000
0000
,  // measure 67
1031
0000
0000
0000
0100
0010
1001
0100
0010
1001
0100
0010
1001
0100
0010
1001
,  // measure 68
0010
0100
1001
0010
0100
1001
0010
0100
1002
0010
0100
1000
0010
0100
1000
0010
,  // measure 69
0103
0000
0000
0000
1111
1111
1111
1111
1111
0000
0000
0000
0000
0000
0000
0000
;

//---------------dance-single - ----------------
#NOTES:
     dance-single:
     :
     Hard:
     14:
     1.000,1.000,1.000,0.516,1.000,820.000,206.000,62.000,0.000,17.000:  // measure 1
0120
1000
0001
0100
1000
0001
1230
0010
,  // measure 2
1302
0100
0010
1000
0100
1000
0100
0013
,  // measure 3
0012
0100
2013
0100
3021
0100
1230
0010
,  // measure 4
0321
1000
0100
0001
0100
0001
1000
0130
,  // measure 5
0021
1000
0132
1000
0123
1000
0231
0010
,  // measure 6
2301
0100
0010
0001
3210
0001
0312
1000
,  // measure 7
0213
0001
1000
0010
0001
1000
0311
0110
,  // measure 8
2001
0000
0010
0000
0100
0000
3010
0000
1100
0010
1000
0100
0010
0100
0010
0000
,  // measure 9
2001
0010
0001
0010
0001
0100
0010
0100
0001
0010
0001
0100
3001
0000
0000
0001
,  // measure 10
2000
0010
0001
3100
0020
0100
1000
0031
0200
0010
0001
0310
2000
0100
0001
3100
,  // measure 11
0020
0001
1000
0100
1000
0100
0001
0100
1000
0100
1000
0001
1030
0000
0000
1000
,  // measure 12
0020
0001
1000
0130
0002
0010
0100
1003
0020
0100
1000
0031
0200
0010
1000
0301
,  // measure 13
0020
1000
0001
0100
0001
1000
0100
1000
0001
0100
0001
1030
0101
0000
0010
0000
,  // measure 14
1200
0010
1000
0010
1000
0300
0000
1000
0012
0100
1000
0103
1020
0001
1000
0130
,  // measure 15
0201
0010
0001
1000
0001
0010
0000
0311
1000
0100
0001
0010
0100
0001
0010
1000
,  // measure 16
0001
0000
1000
0000
1100
0000
0010
0000
1100
0010
0100
0001
0110
0001
0100
0010
,  // measure 17
1001
0100
1000
0001
0110
0001
0010
0100
1100
0010
1000
0001
0110
1000
0010
1000
,  // measure 18
0011
0100
1000
0001
1100
0001
1000
0010
0101
0010
0001
1000
0101
1000
0001
0100
,  // measure 19
1001
0010
0001
1000
0101
0010
0100
0001
1010
0100
0010
0100
0011
1000
0010
0100
,  // measure 20
1010
0001
1000
0010
0101
1000
0001
0100
1010
0001
0100
0010
0101
0010
0100
1000
,  // measure 21
0101
0010
0001
0100
0011
1000
0001
0100
0011
1000
0010
0100
0011
1000
0010
1000
,  // measure 22
0011
0100
1000
0100
1001
0100
0001
1000
0101
0010
1000
0010
1001
0100
0001
1000
,  // measure 23
0011
0100
1000
0100
1001
0010
0001
1000
0110
0000
1010
0000
0011
0000
0110
0000
,  // measure 24
1100
0000
0011
0000
1100
0000
0011
0000
1001
0000
0110
0000
1001
0000
0110
0000
1000
0100
0010
0001
0010
0000
0100
0000
0001
0000
0010
0000
0100
0000
1000
0000
,  // measure 25
2200
0000
0000
0000
0000
3310
0110
0011
,  // measure 26
1001
0000
0100
0000
1010
1000
0000
0110
0000
0100
0110
0000
1010
0000
0101
0000
,  // measure 27
0011
0000
1010
0010
0000
0001
1001
0010
0100
1000
0100
0001
0100
0000
0010
0000
,  // measure 28
0101
0000
0100
0010
0000
0010
0100
0000
1100
0000
0010
0100
0000
0100
0010
0000
,  // measure 29
0110
0000
1000
0100
0000
0001
0010
0000
0101
0000
1010
0000
0101
0000
1010
0000
,  // measure 30
0110
0000
1010
0000
0001
0010
0000
0110
0000
0001
1000
0000
1010
0000
0101
0000
,  // measure 31
0011
0000
0001
0010
0000
0100
1000
0010
0010
0100
0010
0100
0010
0000
1001
0000
,  // measure 32
1100
0000
1010
0010
0000
0010
1010
0000
0011
0000
1100
0000
1010
0000
0101
0000
,  // measure 33
1010
0000
0010
0100
0000
1000
0001
0000
0100
0010
0001
1000
0001
0000
0110
0000
,  // measure 34
1001
0000
0110
0000
0010
0001
1000
0100
0000
0010
1010
0000
0110
0000
1010
0000
,  // measure 35
0011
0000
0101
1000
0000
1100
0010
0000
0100
1100
0000
0011
0000
0000
0101
0000
,  // measure 36
1100
0000
0011
1000
0010
0001
0100
0001
0010
1000
0001
0100
1001
0000
1100
0000
,  // measure 37
0110
0000
0001
0000
1001
0010
0000
0101
0000
0100
0110
0000
1010
0000
1100
0000
,  // measure 38
1001
0000
0001
0000
0101
1000
0000
1100
0000
1100
0010
0000
0101
0000
0011
0000
,  // measure 39
0110
0000
0101
0000
0010
0110
0000
1000
0001
0100
0010
0000
1100
0000
0101
0000
,  // measure 40
1001
0000
0000
0000
0110
0000
0000
0000
0010
0000
0001
0000
0000
0000
0010
0000
0001
0010
0100
1000
0010
0000
0100
0000
0001
0000
0010
0000
0100
0000
1000
0000
,  // measure 41
0101
0000
0100
0010
0000
0001
1000
0000
0001
0101
0000
0110
0000
0000
0110
0000
,  // measure 42
1002
0010
0100
0010
1000
0103
0100
0010
,  // measure 43
2001
0000
0100
0000
0010
0000
0010
0001
0100
0001
3100
0000
0010
0000
0010
0000
,  // measure 44
1200
0000
1300
0000
0012
0000
1000
0003
0120
0000
0100
0030
2001
0000
0100
3000
,  // measure 45
1002
0010
0100
0010
0010
1000
0100
1000
0010
0010
0100
0010
0003
0000
1000
0000
,  // measure 46
2100
0010
0100
3010
0012
0100
0010
1003
0120
1000
0100
1030
1200
0010
1000
0301
,  // measure 47
1002
1000
0010
1000
0010
0100
1000
0103
0021
0100
1030
0100
1002
0010
1000
0103
,  // measure 48
2010
0100
0001
0010
0100
0001
0010
0001
3100
0100
0000
0100
0001
0000
0110
0000
,  // measure 49
2010
0000
0001
0000
0100
0000
0010
0000
0001
0000
0100
0000
3010
0000
0000
0000
0001
0000
0010
0000
1000
0100
0010
0001
0100
0000
0000
0000
0110
0000
0000
0000
,  // measure 50
1001
0000
0110
0000
0011
0000
1100
0000
1100
0000
0001
0100
1001
0000
0100
0000
,  // measure 51
0011
0000
0100
0000
1010
0000
0010
0000
0101
0000
1000
0100
0011
0000
0100
0000
,  // measure 52
1001
0000
0010
0000
0110
0000
1000
0000
1100
0000
1000
0010
0101
0000
0010
0000
,  // measure 53
1000
1100
0000
0011
0000
0010
1010
0000
0001
0010
0100
1000
0100
0000
1000
0000
,  // measure 54
1002
0010
0100
1000
0010
0100
1000
0100
1000
0010
0103
1000
0001
0000
1010
0000
,  // measure 55
2100
0100
0010
0100
0001
0010
3100
0000
0012
1000
0100
1003
2001
0010
0100
3001
,  // measure 56
0210
0001
1000
0010
0001
1000
0010
1000
0301
0010
0000
1000
0100
0010
0001
1000
,  // measure 57
0100
0000
0010
0000
0001
0000
1000
0000
0100
0000
0010
0000
0001
0000
0010
0000
0001
0010
0100
1000
0001
0000
1000
0000
0100
0000
0010
0000
0100
0000
0000
0000
,  // measure 58
1001
0000
0000
1001
0000
0000
1100
0000
1010
0000
1001
0010
0100
0000
0101
0010
,  // measure 59
1001
0000
0000
0000
0000
0000
0001
0000
0100
0010
1000
0001
0100
0010
1000
0001
1200
0000
0000
0000
0000
0000
0301
0000
1000
0100
0010
0001
1000
0100
0010
0001
,  // measure 60
1010
0000
0001
0010
0000
0001
1000
0000
0100
0010
0000
0000
0101
0000
1001
0000
,  // measure 61
1001
0000
0110
0000
0000
0000
0100
0000
0010
0100
0010
0100
0010
0100
0010
0100
0002
0000
0000
0000
0013
0000
1000
0000
0001
1000
0001
1000
0001
1000
0001
1000
,  // measure 62
0011
0000
0000
0011
0000
0000
0010
0110
0000
0010
1010
0000
0101
0100
0000
0010
,  // measure 63
0100
0000
0010
0000
0100
0000
0010
0000
1000
0100
0010
0001
1000
0100
0010
0001
0200
0000
0000
0000
0301
0000
0000
0000
1000
0010
1000
0010
1000
0010
1000
0010
,  // measure 64
1010
1000
0000
0100
0110
0000
0001
0100
0011
0000
0001
0100
0001
0000
0010
1000
,  // measure 65
0200
0000
0000
0000
0000
0000
0301
0010
0002
0000
0000
0000
0000
0000
1003
1000
,  // measure 66
0020
0000
0000
0000
,  // measure 67
1031
0000
0000
0000
0100
0010
0001
0100
0010
0001
0100
0010
0001
0100
0010
0001
,  // measure 68
0010
0100
1000
0010
0100
1000
0010
0100
1002
0010
0100
1000
0010
0100
1000
0010
,  // measure 69
0103
0000
0000
0000
1000
0100
0010
0001
1001
0000
0000
0000
0000
0000
0000
0000
;

//---------------dance-single - ----------------
#NOTES:
     dance-single:
     :
     Medium:
     10:
     0.958,1.000,0.865,1.000,0.636,503.000,104.000,155.000,0.000,56.000:  // measure 1
2020
0000
0000
0230
,  // measure 2
3002
0000
0000
0000
0000
0000
0000
0303
,  // measure 3
0202
2003
0302
3200
,  // measure 4
0023
0000
0000
0000
0000
0000
0000
0330
,  // measure 5
2200
3002
0320
0203
,  // measure 6
2030
0000
0320
3002
,  // measure 7
0230
0000
0000
0000
0000
0000
2003
0320
,  // measure 8
3002
0000
0000
0000
0000
0000
0033
0000
1100
0000
1010
0000
0010
0100
0010
0001
,  // measure 9
2202
0000
0000
3303
,  // measure 10
2202
0000
0000
3303
2220
0000
0000
3330
0222
0000
0000
0333
2220
0000
0000
3330
,  // measure 11
2222
0000
0000
3333
,  // measure 12
2220
0000
0000
3330
0222
0000
0000
0333
2022
0000
0000
3033
0222
0000
0000
0333
,  // measure 13
2222
0000
0000
0000
0000
0000
0000
0000
0000
0000
0000
3333
0101
0000
0010
0000
,  // measure 14
2202
0000
0000
0000
0000
3303
0000
0000
0222
0000
0000
0333
2220
0000
0000
3330
,  // measure 15
2202
0000
0000
0000
0000
0000
0000
3303
0010
0100
0001
0010
0100
0001
0010
1000
,  // measure 16
0001
1000
1100
0100
0110
0010
0110
0011
,  // measure 17
0001
0000
1000
0000
0100
0001
0010
0100
1000
0000
1000
0000
0010
1000
0010
1000
,  // measure 18
0010
0000
1000
0000
1000
0001
1000
0010
0001
0000
0001
0000
0001
1000
0001
0100
,  // measure 19
1000
0000
0001
0000
0001
0010
0100
0001
1000
0000
0010
0000
0001
1000
0010
0100
,  // measure 20
1000
0000
1000
0000
0001
1000
0001
0100
1000
0000
0100
0000
0001
0010
0100
1000
,  // measure 21
0100
0000
0001
0000
0010
1000
0001
0100
0001
0000
0010
0000
0001
1000
0010
1000
,  // measure 22
0010
0000
1000
0000
0001
0100
0001
1000
0001
0000
1000
0000
1000
0100
0001
1000
,  // measure 23
0001
0000
1000
0000
0001
0010
0001
1000
0010
0000
1010
0000
0011
0000
0110
0000
,  // measure 24
1000
0001
1000
0001
0010
0100
1000
0100
2000
0000
3000
0100
0001
0010
0100
1000
,  // measure 25
2200
0000
0000
0000
0000
3310
0110
0011
,  // measure 26
1001
0000
0100
0000
0010
1000
0000
0010
0000
0100
0010
0000
1000
0000
0001
0000
,  // measure 27
0001
0000
1000
0010
0000
0010
0001
0010
0100
1000
0100
0001
0100
0000
0010
0000
,  // measure 28
0001
0000
0100
0010
0000
0010
0100
0000
1000
0000
0010
0100
0000
0100
0010
0000
,  // measure 29
0010
0000
1000
0100
0000
0001
0010
0000
0100
0000
1000
0000
0001
0000
0010
0000
,  // measure 30
0110
0000
1000
0000
0001
0010
0000
0100
0000
0001
1000
0000
0010
0000
0001
0000
,  // measure 31
0010
0000
0001
0010
0000
0100
1000
0000
0010
0100
0010
0100
0010
0000
0001
0000
,  // measure 32
1000
0000
1000
0010
0000
0010
1000
0000
0001
0000
1000
0000
0100
0000
0001
0000
,  // measure 33
1010
0000
0010
0100
0000
1000
0001
0000
0100
0010
0001
1000
0001
0000
0110
0000
,  // measure 34
1001
0000
0110
0000
0010
0001
1000
0100
0000
0010
1000
0000
0010
0000
1000
0000
,  // measure 35
0001
0000
0100
1000
0000
0100
0010
0000
0100
1000
0000
0001
0000
0000
0101
0000
,  // measure 36
0101
0000
0001
1000
0010
0001
0100
0001
0010
1000
0001
0100
1001
0000
1100
0000
,  // measure 37
0110
0000
0001
0000
1000
0010
0000
0100
0000
0100
0010
0000
1010
0000
1100
0000
,  // measure 38
1001
0000
0001
0000
0100
1000
0000
0100
0000
0001
0010
0000
0101
0000
0011
0000
,  // measure 39
0110
0000
0101
0000
0010
0100
0000
1000
0001
0100
0010
0000
1100
0000
0101
0000
,  // measure 40
1001
0000
0110
0000
0010
0001
0000
0010
0002
0000
0003
0100
0001
0010
0100
1000
,  // measure 41
0101
0000
0100
0010
0000
0001
1000
0000
0001
0100
0000
0010
0000
0000
0110
0000
,  // measure 42
2202
0000
0000
0000
0000
3303
2022
3033
,  // measure 43
0222
0000
0000
0000
0000
0333
0000
0000
,  // measure 44
2220
0000
3330
0000
2202
0000
0000
3303
0222
0000
0000
0333
2202
0000
0000
3303
,  // measure 45
2222
0000
0000
3333
,  // measure 46
2202
0000
0000
3303
0222
0000
0000
0333
2220
0000
0000
3330
2220
0000
0000
3330
,  // measure 47
2202
0000
0000
0000
0000
0000
0000
3303
2220
0000
3330
0000
2202
0000
0000
3303
,  // measure 48
2222
0000
0000
0000
3333
0000
0001
0110
,  // measure 49
2222
0000
0000
3333
0101
2010
3001
0110
,  // measure 50
1001
0000
0110
0000
0011
0000
1100
0000
1100
0000
0001
0100
1000
0000
0100
0000
,  // measure 51
0011
0000
0100
0000
1010
0000
0010
0000
0101
0000
1000
0100
0010
0000
0100
0000
,  // measure 52
1001
0000
0010
0000
0110
0000
1000
0000
1100
0000
1000
0010
0001
0000
0010
0000
,  // measure 53
1000
0100
0000
0001
0000
0010
1000
0000
0001
0010
0100
1000
0100
0000
1000
0000
,  // measure 54
2202
0000
0010
0000
0000
3303
0001
1010
,  // measure 55
2222
0000
0000
0000
0000
0000
3333
0000
2022
0000
0000
3033
2220
0000
0000
3330
,  // measure 56
2222
0000
0000
0000
0000
0000
0000
0000
3333
0010
0000
1000
0100
0010
0001
1000
,  // measure 57
0100
0010
0001
1000
0100
0010
0001
0010
0002
0000
0003
1000
0100
0010
0100
0000
,  // measure 58
1001
0000
0000
1001
0000
0000
1100
0000
1010
0000
1001
0010
0100
0000
0100
0010
,  // measure 59
1001
0000
0000
0000
0000
0000
0001
0000
1000
0000
0100
0000
0010
0000
0001
0000
0020
0000
0000
0000
0000
0000
0000
0000
2000
0000
0000
0000
0000
0000
0000
3000
,  // measure 60
1030
0000
0001
0010
0000
0001
1000
0000
0100
0010
0000
0000
0101
0000
1001
0000
,  // measure 61
0001
0000
0010
0000
0000
0000
0100
0000
0001
0000
0100
0000
1000
0000
0100
0000
0002
0000
0000
0000
0000
0000
0000
0000
0020
0000
0000
0000
0000
0000
0000
0030
,  // measure 62
0013
0000
0000
0011
0000
0000
0010
0100
0000
0010
1000
0000
0001
0100
0000
0010
,  // measure 63
0100
0000
0010
0000
0100
0000
0000
0000
1000
0000
0010
0000
0001
0000
0010
0000
0200
0000
0000
0000
0000
0000
0000
0000
0020
0000
0000
0000
0000
0000
0000
0030
,  // measure 64
0310
0100
0000
0100
0010
0000
0001
0100
0001
0000
0001
0100
0001
0000
0010
1000
,  // measure 65
0200
0000
0000
0000
0000
0000
0301
0010
0002
0000
0000
0000
0000
0000
0103
0100
,  // measure 66
0020
0000
0000
0000
,  // measure 67
1031
0000
0000
0000
0100
0000
0001
0100
0000
0001
0100
0000
0001
0100
0000
0001
,  // measure 68
0010
0000
1000
0010
0000
1000
0010
0000
1000
0010
0000
1000
0010
0000
1000
0010
,  // measure 69
0000
0000
0000
0000
1000
0100
0010
0001
1001
0000
0000
0000
0000
0000
0000
0000
;

//---------------dance-single - ----------------
#NOTES:
     dance-single:
     :
     Easy:
     8:
     0.650,0.684,0.391,1.000,0.320,366.000,47.000,134.000,0.000,0.000:  // measure 1
0020
0000
0000
0230
,  // measure 2
0302
0000
0000
0000
0000
0000
0000
0003
,  // measure 3
0002
2003
3002
0203
,  // measure 4
0320
0000
0000
0000
0000
0000
0000
0030
,  // measure 5
2000
3002
0023
0230
,  // measure 6
2300
0000
3020
0032
,  // measure 7
0203
0000
0000
0000
0000
0000
1300
0010
,  // measure 8
0002
0000
0000
0003
1000
0100
0010
0001
,  // measure 9
0202
0000
0000
0303
,  // measure 10
0202
0000
0000
0303
2020
0000
0000
3030
0202
0000
0000
0303
2200
0000
0000
3300
,  // measure 11
2002
0000
0000
3003
,  // measure 12
2020
0000
0000
3030
0220
0000
0000
0330
2002
0000
0000
3003
0220
0000
0000
0330
,  // measure 13
2002
0000
0000
0000
0000
0000
0000
0000
0000
0000
0000
3003
0001
0000
0010
0000
,  // measure 14
2200
0000
0000
0000
0000
3300
0000
0000
0002
0000
0000
0003
0020
0000
0000
0030
,  // measure 15
0200
0000
0000
0000
0000
0000
0000
0300
0010
0000
0001
0000
0100
0000
0010
0000
,  // measure 16
0001
1000
0100
0100
0010
0010
0100
0001
,  // measure 17
0001
0000
1000
0000
0100
0001
0000
0100
1000
0000
1000
0000
0010
1000
0000
1000
,  // measure 18
0010
0000
1000
0000
1000
0001
0000
0010
0001
0000
0001
0000
0001
1000
0000
0100
,  // measure 19
1000
0000
0001
0000
0001
0010
0000
0001
1000
0000
0010
0000
0001
1000
0000
0100
,  // measure 20
1000
0000
1000
0000
0001
1000
0000
0100
1000
0000
0100
0000
0001
0010
0000
1000
,  // measure 21
0100
0000
0001
0000
0010
1000
0000
0100
0001
0000
0010
0000
0001
1000
0000
1000
,  // measure 22
0010
0000
1000
0000
0001
0100
0000
1000
0001
0000
1000
0000
1000
0100
0000
1000
,  // measure 23
0001
0000
1000
0000
0001
0010
0000
1000
0000
0000
1000
0000
0001
0000
0100
0000
,  // measure 24
1000
0000
0001
0000
0010
0000
1000
0000
2000
0000
3000
0100
0001
0010
0100
1000
,  // measure 25
2000
0000
0000
0000
0000
3100
0010
0001
,  // measure 26
1001
0000
0100
0000
0010
1000
0000
0010
0000
0100
0010
0000
1000
0000
0001
0000
,  // measure 27
0001
0000
1000
0010
0000
0010
0001
0000
0100
0001
0000
0001
0100
0000
0010
0000
,  // measure 28
0001
0000
0100
0010
0000
0010
0100
0000
1000
0000
0010
0100
0000
0100
0010
0000
,  // measure 29
0010
0000
1000
0100
0000
0001
0010
0000
0100
0000
1000
0000
0001
0000
0010
0000
,  // measure 30
0100
0000
1000
0000
0001
0010
0000
0100
0000
0001
1000
0000
0010
0000
0001
0000
,  // measure 31
0010
0000
0001
0010
0000
0100
1000
0000
0010
0100
0000
0100
0010
0000
0001
0000
,  // measure 32
1000
0000
1000
0010
0000
0010
1000
0000
0001
0000
1000
0000
0100
0000
0001
0000
,  // measure 33
1000
0000
0010
0100
0000
1000
0001
0000
0100
0010
0000
0010
0001
0000
0011
0000
,  // measure 34
1001
0000
0011
0000
0010
0001
0000
0100
0000
0010
1000
0000
0010
0000
1000
0000
,  // measure 35
0001
0000
0100
0000
0000
1000
0000
0000
0100
0000
0000
0001
0000
0000
0010
0000
,  // measure 36
0002
0000
0000
0000
0003
0001
0010
0100
,  // measure 37
1000
0000
0001
0000
1000
0010
0000
0100
0000
0100
0001
0000
0010
0000
0100
0000
,  // measure 38
1000
0000
0001
0000
0100
1000
0000
0100
0000
0001
0010
0000
0100
0000
0001
0000
,  // measure 39
0010
0000
0100
0000
0010
0100
0000
1000
0000
0100
0010
0000
1000
0000
0001
0000
,  // measure 40
1000
0000
0010
0000
0010
0001
0000
0010
0002
0000
0003
0100
0002
0000
0000
0000
,  // measure 41
0103
0000
0100
0010
0000
0001
1000
0000
0001
0100
0000
0010
0000
0000
0110
0000
,  // measure 42
0202
0000
0000
0000
0000
0303
2020
3030
,  // measure 43
0202
0000
0000
0000
0000
0303
0000
0000
,  // measure 44
2020
0000
3030
0000
0202
0000
0000
0303
0220
0000
0000
0330
2200
0000
0000
3300
,  // measure 45
0022
0000
0000
0033
,  // measure 46
0202
0000
0000
0303
0202
0000
0000
0303
2200
0000
0000
3300
0220
0000
0000
0330
,  // measure 47
2002
0000
0000
0000
0000
0000
0000
3003
2200
0000
3300
0000
0022
0000
0000
0033
,  // measure 48
0220
0000
0000
0000
0330
0000
0001
0100
,  // measure 49
2000
0000
0000
3000
1000
2010
3001
0100
,  // measure 50
0202
0000
0000
0303
,  // measure 51
0202
0000
0000
0303
2020
0000
0000
3030
0202
0000
0000
0303
2200
0000
0000
3300
,  // measure 52
2002
0000
0000
3003
,  // measure 53
2020
0000
0000
3030
0220
0000
0000
0330
2002
0000
0000
3003
0220
0000
0000
0330
,  // measure 54
2002
0000
0000
0000
0000
0000
0000
0000
0000
0000
0000
3003
0001
0000
0010
0000
,  // measure 55
2200
0000
0000
0000
0000
3300
0000
0000
0002
0000
0000
0003
0020
0000
0000
0030
,  // measure 56
0200
0000
0000
0000
0000
0000
0000
0300
0000
0000
0000
0000
2001
0000
0000
0000
,  // measure 57
3001
0000
0001
0000
0100
0000
0001
0000
0002
0000
0003
1000
0100
0000
0100
0000
,  // measure 58
0002
0000
0000
0103
1000
0100
1000
0010
,  // measure 59
0001
0000
0000
0000
0000
0000
0000
0000
2000
0000
0000
0000
0000
0000
0000
0000
3020
0000
0000
0000
0000
0000
0000
0000
2000
0000
0000
0000
0000
0000
0000
3000
,  // measure 60
2030
0000
0000
3100
0010
0100
1000
0100
,  // measure 61
0010
0000
0000
0000
0000
0000
0000
0000
0020
0000
0000
0000
0000
0000
0000
0000
0032
0000
0000
0000
0000
0000
0000
0000
0020
0000
0000
0000
0000
0000
0000
0030
,  // measure 62
0023
0000
0000
0130
1000
0100
1000
0100
,  // measure 63
0010
0000
0000
0000
2000
0000
0000
0000
3200
0000
0000
0000
2000
0000
0000
3000
,  // measure 64
2300
3200
0320
2030
,  // measure 65
3200
0000
0000
0000
0000
0300
0010
0000
0002
0000
0000
0000
0000
0000
0013
0000
,  // measure 66
0020
0000
0000
0000
,  // measure 67
0230
0000
0000
0000
,  // measure 68
2300
0000
0000
0000
,  // measure 69
3001
0002
1003
0000
;
