#TITLE:Hunter's Anthem;
#SUBTITLE:;
#ARTIST:DJ Sharpnel;
#TITLETRANSLIT:;
#SUBTITLETRANSLIT:;
#ARTISTTRANSLIT:;
#CREDIT:;
#BANNER:hunter's bn.png;
#BACKGROUND:hunter's bg.png;
#LYRICSPATH:;
#CDTITLE:;
#MUSIC:Hunter's Anthem.ogg;
#OFFSET:0.009;
#SAMPLESTART:97.129;
#SAMPLELENGTH:18.070;
#SELECTABLE:YES;
#DISPLAYBPM:213.000;
#BPMS:0.000=212.500;
#STOPS:;
#BGCHANGES:;
// cache tags:
#FIRSTBEAT:8.000;
#LASTBEAT:834.750;
#SONGFILENAME:Songs/SHARPNELSTREAMZ v2/Hunter's Anthem/Hunter's Anthem.sm;
#HASMUSIC:1;
#HASBANNER:1;
#MUSICLENGTH:236.033;
// end cache tags

//---------------dance-single - 17- (Aoreo)----------------
#NOTES:
     dance-single:
     17- (Aoreo):
     Challenge:
     17:
     1.000,1.000,0.064,0.258,1.000,2273.000,15.000,61.000,260.000,0.000:
0000
0000
0000
0000
,
0000
0000
0000
0000
,
2001
3000
0001
0000
0100
0000
0010
0000
0100
0001
1000
0000
0001
0000
0010
0000
,
0200
0300
1000
0000
0001
0000
0100
0000
0010
0100
0001
0000
1000
0000
0100
0000
,
0020
0030
0100
0000
1000
0000
0001
0000
0100
0001
0010
0000
0100
0000
1000
0000
,
0020
0000
0000
0030
0000
0000
0100
0000
0000
0000
0000
0000
0001
0000
0000
0000
0000
0000
1000
0000
0100
0000
1000
0000
0100
0000
0000
0000
0000
0000
0010
0000
0000
0000
0000
0000
0001
0000
0000
0000
0000
0000
1000
0000
0000
0000
0000
0000
,
0002
0003
0100
0010
0100
0000
0001
0010
0100
0000
1000
0000
0001
0000
0100
0000
,
0020
0030
1000
0100
0010
0000
0001
0100
0010
0000
0100
0000
0001
0000
1000
0000
,
0200
0300
1000
0001
0100
0000
0010
0100
0001
0000
0010
0000
0100
0000
1000
0000
,
0002
0000
0000
0003
0000
0000
0100
0000
0000
0000
0000
0000
0001
0000
0000
0000
0000
0000
1000
0000
0001
0000
1000
0000
0001
0000
0000
0000
0000
0000
0100
0000
0000
0000
0000
0000
0001
0000
0000
0000
0000
0000
0010
0000
0000
0000
0000
0000
,
0100
1000
0001
0100
0010
0100
0001
1000
0001
0100
0001
1000
0010
0100
0001
1000
,
0001
0010
0100
0010
0001
1000
0100
1000
0001
0010
0100
1000
0001
0010
0001
1000
,
0100
1000
0001
0100
0010
0100
0001
1000
0001
0100
0010
0100
0001
1000
0010
1000
,
0001
0010
0100
1000
0001
0010
0001
1000
0100
0010
0100
1000
0001
0010
0001
1000
,
0001
0100
0010
0100
0001
1000
0010
1000
0001
0100
0010
1000
0010
0100
0001
1000
,
0001
0010
0100
1000
0001
1000
0100
0010
0100
1000
0001
1000
0100
1000
0001
0010
,
0001
1000
0010
0100
0010
1000
0001
0100
0001
0100
0010
1000
0001
0100
0001
1000
,
0001
0000
0000
0000
0000
0000
1000
0000
0000
0001
0100
0001
0100
0000
0000
0000
0000
0000
0020
0000
0000
0000
0000
0000
,
1030
0100
1000
0001
0100
0010
0100
0001
1000
0100
0010
0001
1000
0010
0100
0010
,
1000
0001
0010
0100
1000
0001
1000
0010
0100
0010
1000
0001
1000
0100
0010
0001
,
1000
0100
1000
0001
1000
0010
0100
0010
1000
0001
0100
0010
1000
0001
1000
0100
,
0010
0001
1000
0001
0010
0100
1000
0010
0100
0001
1000
0100
0010
0001
1000
0001
,
0100
0010
1000
0001
0010
0100
1000
0001
0100
0010
0100
0001
1000
0100
0010
0001
,
1000
0001
0100
0010
0100
0001
1000
0100
0010
0100
1000
0001
1000
0010
0100
0010
,
1000
0001
1000
0010
0100
0001
0100
0001
1000
0100
0010
0001
1000
0100
1000
0001
,
0100
0001
1000
0100
0010
0001
0100
0010
1000
0100
1000
0001
0100
0010
0100
0001
,
1000
0001
0010
0100
1000
0001
1000
0010
0100
0010
1000
0001
0100
0001
0100
0010
,
1000
0001
0010
0100
1000
0001
0010
0001
1000
0100
1000
0001
0100
0010
0100
0001
,
1000
0100
0010
0100
1000
0001
0100
0010
0100
0001
1000
0100
0010
0001
1000
0001
,
0100
0001
1000
0001
0010
0100
1000
0010
0100
0001
0010
0100
1000
0001
0100
0001
,
1000
0010
0100
0010
1000
0001
1000
0100
0010
0001
1000
0100
1000
0001
0100
0010
,
0100
0001
1000
0001
0010
0100
1000
0001
1000
0010
0100
0010
1000
0001
1000
0100
,
0010
0100
1000
0001
0100
0010
0100
0001
1000
0001
0010
0100
1000
0001
0100
0001
,
1000
0000
0000
0001
0000
0000
0100
0000
0000
0001
1000
0001
1000
0000
0000
0000
0000
0000
0020
0000
0000
0000
0000
0000
,
1030
0001
1001
1000
0100
0010
0100
1000
,
0010
0100
0101
0001
0010
0100
1000
0001
,
0100
0010
1010
1000
0100
0010
0001
1000
,
0001
0000
0000
0100
0000
0000
0001
0000
0000
1000
0100
1000
0100
0000
0000
0010
0000
0000
0100
0000
0000
1000
0000
0000
,
0001
0100
0110
0010
1000
0001
1000
0100
,
0010
0001
1001
1000
0100
0010
0100
1000
,
0001
0100
0101
0001
1000
0010
0100
0001
,
1000
0000
0000
0100
0000
0000
0010
0000
0000
0001
1000
0001
1000
0000
0000
0010
0000
0000
0100
0000
0000
0010
0000
0000
,
1000
0100
0110
0010
0001
0100
0010
0100
,
0001
1000
1100
0100
1000
0001
0010
0100
,
0010
0001
0101
0100
0010
0100
0001
1000
,
0100
0000
0000
0010
0000
0000
0100
0000
0000
1000
0001
1000
0001
0000
0000
0100
0000
0000
0001
0000
0000
1000
0000
0000
,
0001
0100
0010
1000
0001
1000
0100
0010
0100
1000
0001
1000
0010
0100
0001
1000
,
0100
0010
0100
1000
0001
0100
0010
0100
0001
1000
0100
0010
0100
1000
0001
0100
,
0010
1000
0001
0010
0100
1000
0001
1000
0010
0100
0001
1000
0100
0010
0100
1000
,
0001
0000
0000
1000
0000
0000
0010
0000
0000
1000
0001
1000
0001
0000
0000
0000
0000
0000
2000
0000
0000
0000
0000
0000
,
3002
0000
0000
0000
0000
0003
0000
0000
,
0000
0000
0000
0000
,
20M2
00M0
00M0
00M0
00M0
00M0
00M0
00M0
30M3
00M0
00M0
00M0
00M0
00M0
00M0
00M0
,
00M0
00M0
00M0
00M0
00M0
00M0
00M0
00M0
00M0
00M0
00M0
00M0
00M0
00M0
00M0
00M0
,
00M0
00M0
M000
M000
M000
M000
M000
M000
M000
M000
M000
M000
M000
M000
M000
M000
,
M000
M000
M000
M000
M000
M000
M000
M000
M000
M000
M000
M000
M000
M000
M000
M000
,
M000
0M00
0M00
0M00
0M00
0M00
0M00
0M00
0M00
0M00
0M00
0M00
0M00
0M00
0M00
0M00
,
0M00
0M00
0M00
0M00
0M00
0M00
0M00
0M00
0M00
0M00
0M00
0M00
0M00
0M00
0M00
0M00
,
0M00
00M0
00M0
00M0
00M0
00M0
00M0
00M0
00M0
00M0
00M0
00M0
00M0
00M0
00M0
00M0
,
00M0
00M0
00M0
00M0
00M0
00M0
00M0
00M0
00M0
00M0
00M0
00M0
00M0
00M0
00M0
00M0
,
00M0
00M0
000M
000M
000M
000M
000M
000M
000M
000M
000M
000M
000M
000M
000M
000M
,
000M
000M
000M
000M
000M
000M
000M
000M
000M
000M
000M
000M
000M
000M
000M
000M
,
000M
0M00
0M00
0M00
0M00
0M00
0M00
0M00
0M00
0M00
0M00
0M00
0M00
0M00
0M00
0M00
,
0M00
0M00
0M00
0M00
0M00
0M00
0M00
0M00
0M00
0M00
0M00
0M00
0M00
0M00
0M00
0M00
,
0M00
00M0
00M0
00M0
00M0
00M0
00M0
00M0
00M0
00M0
00M0
00M0
00M0
00M0
00M0
00M0
,
M000
M000
M000
M000
M000
M000
M000
M000
0M00
0M00
0M00
0M00
0M00
0M00
0M00
0M00
,
00M0
00M0
00M0
00M0
00M0
00M0
00M0
00M0
00M0
00M0
00M0
00M0
00M0
00M0
00M0
00M0
,
00M0
00M0
00M0
00M0
00M0
00M0
00M0
00M0
00M0
00M0
00M0
00M0
00M0
00M0
00M0
00M0
,
1000
0000
0000
0000
0100
0000
2000
0000
0000
0000
0000
0000
,
3000
0000
0000
0000
0000
0000
0001
0000
0010
0000
0100
0000
,
2000
0000
0000
0000
0000
0000
0000
0000
0000
0000
0000
0000
3000
0000
0000
0001
0000
0000
0000
0010
0000
0000
0000
0100
,
0000
0000
0000
0000
0000
0000
0000
0000
0000
0000
0000
1000
0000
0000
0000
0000
0000
0000
0000
0000
0000
0000
0000
0100
,
0000
0000
0000
0010
0000
0000
0000
0001
0000
0000
0000
0000
0000
0000
0000
0000
1000
0000
0000
0000
0010
0000
0000
0000
,
0200
0000
0302
0000
,
0023
0000
0000
0000
,
0000
0000
0000
0030
,
0100
0000
1000
0000
0010
0000
0200
0000
0000
0000
0000
0000
,
0302
0000
0000
0000
0000
0000
1003
0000
0100
0000
0010
0000
,
0002
0000
0000
0000
0000
0000
1003
0000
0010
0000
0100
0000
,
0002
0000
2003
3000
,
0001
1000
0001
0010
0100
0010
0001
1000
0010
0100
0010
1000
0001
0010
0100
1000
,
0010
0100
0001
1000
0001
0100
0010
1000
0001
0010
0100
1000
0001
0010
0001
1000
,
0010
0100
0001
1000
0100
0010
0001
1000
0010
1000
0100
0010
0001
1000
0001
0100
,
0010
0000
0000
0000
1000
0000
0001
0000
1000
0100
0010
0001
1000
0010
1000
0001
,
2000
3000
0000
0000
0000
0000
0000
0000
0000
0000
0000
0000
0000
0000
0000
0000
,
1001
0000
0000
0000
0001
0100
0010
1000
0001
0010
0100
1000
0001
0000
0000
0000
,
1000
0100
0010
0100
1000
0001
0100
0010
0100
0001
1000
0100
0010
0001
1000
0100
,
1000
0010
0100
0001
0010
0100
1000
0001
1000
0010
0100
0001
1000
0001
0010
0100
,
1000
0001
1000
0010
0100
0010
1000
0001
1000
0100
0010
0100
1000
0001
0100
0001
,
1000
0100
0010
0100
1000
0010
0100
0001
0010
0100
1000
0001
0100
0010
1000
0001
,
0010
0100
1000
0010
0100
0001
1000
0001
0100
0010
0100
0001
1000
0100
0010
0001
,
1000
0100
1000
0001
0100
0010
0100
0001
1000
0001
0010
0100
1000
0001
0100
0001
,
1000
0100
0010
0100
1000
0001
0100
0010
0100
0001
1000
0100
0010
0001
1000
0010
,
0100
0000
0001
0000
0010
0000
0100
0000
1000
0000
0010
0000
0100
0000
0001
0000
4000
3000
0400
0300
0040
0030
0004
0003
2000
0000
0000
0000
3000
0000
0000
0000
,
0001
0100
0010
0100
0001
1000
0100
0010
0001
1000
0100
1000
0001
0100
0010
0100
,
0001
1000
0001
0010
0100
1000
0001
1000
0010
0100
0010
1000
0100
1000
0001
0100
,
0001
1000
0001
0010
0100
1000
0001
1000
0010
0100
0001
1000
0001
0100
0010
0100
,
0001
1000
0100
0010
0001
1000
0010
0100
0001
0010
0100
1000
0010
0100
0001
1000
,
0001
1000
0100
0010
0100
1000
0001
0100
0010
0100
0001
1000
0100
0010
0001
1000
,
0001
0100
0010
0100
0001
1000
0100
1000
0010
0100
0001
0010
0001
1000
0100
0010
,
0001
1000
0001
0100
0010
0100
0001
1000
0100
0010
0100
1000
0001
0100
0001
1000
,
0001
0000
0010
0000
0100
0000
1000
0000
0010
0000
0100
0000
0001
0000
1000
0000
0004
0003
0040
0030
0400
0300
4000
3000
0002
0000
0000
0000
0003
0000
0000
0000
,
1000
0001
0100
0010
0100
0001
1000
0100
0010
0001
1000
0001
0010
0100
1000
0001
,
1000
0010
0100
0010
1000
0001
1000
0010
0100
0001
1000
0001
0010
0100
1000
0001
,
1000
0010
0100
0001
1000
0100
0010
0100
1000
0001
0100
0010
0100
0001
1000
0001
,
0010
0100
1000
0001
0100
0010
1000
0100
0010
0100
1000
0010
1000
0001
0100
0001
,
0010
0100
1000
0001
1000
0010
0100
0001
1000
0001
0010
0100
1000
0001
0100
0001
,
1000
0100
0010
0001
1000
0100
1000
0001
0100
0010
0100
0001
1000
0001
0010
0100
,
1000
0001
0100
0001
1000
0010
0100
0001
1000
0100
0010
0100
1000
0001
0100
0001
,
1000
0000
0010
0000
0100
0000
0010
0000
1000
0000
0001
0000
0100
0000
0010
0000
4000
3000
0400
0300
0040
0030
0004
0003
2000
0000
0000
0000
3000
0000
0000
0000
,
0001
0100
0001
1000
0100
0010
0100
1000
0001
0100
0010
0100
0001
1000
0100
0010
,
0001
1000
0010
0100
0001
1000
0100
1000
0001
0010
0100
1000
0001
0100
0001
1000
,
0100
0010
0001
1000
0001
0100
0010
0100
0001
1000
0001
0010
0100
1000
0001
0100
,
0001
0010
0100
1000
0001
0100
0010
1000
0100
0010
0001
0100
0010
1000
0001
0100
,
0010
1000
0100
1000
0010
1000
0100
1000
,
0001
0010
0001
0100
0001
0010
0001
0100
,
0010
1000
0010
0100
0010
1000
0010
0100
,
0001
0100
0010
0100
0001
0100
0010
0100
,
0002
0003
1000
0000
0001
0010
0100
0000
1000
0000
0010
0000
1000
0000
0010
0000
,
0200
0300
0001
0000
1000
0001
0010
0000
0100
0000
1000
0000
0100
0000
0010
0000
,
0002
0003
1000
0000
0010
0100
0001
0000
0100
0000
0001
0000
1000
0000
0010
0000
,
0200
0000
0000
0300
0000
0000
0001
0000
0000
0000
0000
0000
1000
0000
0000
0000
0000
0000
0001
0000
1000
0000
0001
0000
1000
0000
0000
0000
0000
0000
0001
0000
0000
0000
0000
0000
0010
0000
0000
0000
0000
0000
0100
0000
0000
0000
0000
0000
,
2000
3000
0001
0000
0100
0010
1000
0000
0100
0000
0010
0000
0100
0000
1000
0000
,
0002
0003
0010
0000
0100
1000
0001
0000
1000
0000
0010
0000
1000
0000
0001
0000
,
2000
3000
0010
0000
0100
0001
0010
0000
0100
0000
1000
0000
0001
0000
1000
0000
,
0200
0000
0000
0300
0000
0000
0010
0000
0000
0000
0000
0000
0001
0000
0000
0000
0000
0000
1000
0000
0001
0000
1000
0000
0001
0000
0000
0000
0000
0000
0000
0000
0000
0000
0000
0000
1001
0000
0000
0000
0000
0000
0000
0000
0000
0000
0000
0000
,
1000
0000
0001
0000
0010
0100
1000
0000
0001
0000
0010
0000
0100
0000
0010
0000
,
0002
0003
1000
0000
0010
0100
0001
0000
1000
0000
0100
0000
1000
0000
0010
0000
,
0200
0300
0001
0000
1000
0010
0100
0000
0010
0000
0100
0000
0010
0000
1000
0000
,
0020
0000
0000
0030
0000
0000
0100
0000
0000
0000
0000
0000
0001
0000
0000
0000
0000
0000
1000
0000
0001
0000
1000
0000
0001
0000
0000
0000
0000
0000
1000
0000
0000
0000
0000
0000
0001
0000
0000
0000
0000
0000
0000
0000
0000
0000
0000
0000
,
2000
3000
0001
0000
0010
0100
1000
0000
0010
0000
0100
0000
0001
0000
1000
0000
,
0020
0030
0100
0000
0001
1000
0100
0000
1000
0000
0010
0000
0100
0000
0010
0000
,
2000
3000
0000
0000
0010
0100
0001
0000
0100
0000
0000
0000
0000
0000
0000
0000
,
0002
0000
0000
0003
0000
0000
0000
0000
0000
0000
0000
0000
1000
0000
0000
0000
0000
0000
0001
0000
1000
0000
0001
0000
1000
0000
0000
0000
0000
0000
0000
0000
0000
0000
0000
0000
1001
0000
0000
0000
0000
0000
0000
0000
0000
0000
0000
0000
,
0001
0100
0001
1000
0100
0010
0100
1000
0001
0100
0010
1000
0001
0010
0100
0010
,
0001
1000
0010
0100
0001
1000
0001
0010
0100
0010
0001
1000
0001
0100
0010
1000
,
0001
0100
0001
1000
0001
0010
0100
0010
0001
1000
0100
0010
0001
1000
0001
0100
,
0010
1000
0001
1000
0010
0100
0001
0010
0100
1000
0001
0100
0010
1000
0001
1000
,
0100
0010
0001
1000
0010
0100
0001
1000
0100
0010
0100
1000
0001
0100
0010
1000
,
0001
1000
0100
0010
0100
1000
0001
0100
0010
0100
0001
1000
0001
0010
0100
0010
,
0001
1000
0001
0010
0100
1000
0100
1000
0001
0100
0010
1000
0001
0100
0001
1000
,
0100
1000
0001
0100
0010
1000
0100
0010
0001
0100
0001
1000
0100
0010
0100
1000
,
0001
1000
0010
0100
0001
1000
0001
0010
0100
0010
0001
1000
0100
1000
0100
0010
,
0001
1000
0010
0100
0001
1000
0010
1000
0001
0100
0001
1000
0100
0010
0100
1000
,
0001
0100
0010
0100
0001
1000
0100
0010
0100
1000
0001
0100
0010
1000
0001
1000
,
0100
1000
0001
1000
0010
0100
0001
0010
0100
1000
0010
0100
0001
1000
0100
1000
,
0001
0010
0100
1000
0001
0100
0001
1000
0010
1000
0001
0100
0001
1000
0100
0010
,
0100
1000
0001
1000
0010
0100
0001
1000
0001
0010
0100
0010
0001
1000
0001
0100
,
0010
0100
0001
1000
0100
0010
0100
1000
0001
1000
0010
0100
0001
1000
0100
1000
,
0001
0100
0010
1000
0001
0010
0100
1000
0001
0100
0001
1000
0100
0010
0001
1000
,
0020
0000
0000
0000
,
1030
0000
0000
0000
,
0001
0100
0010
0100
0001
1000
0100
0010
0100
1000
0001
0100
0010
1000
0001
0100
,
0001
0010
0100
1000
0010
0100
0001
1000
0001
0010
0100
1000
0001
1000
0010
0100
,
0001
1000
0001
0010
0100
0010
0001
1000
0001
0100
0010
0100
0001
1000
0100
1000
,
0001
0100
0010
0100
0001
0010
0100
1000
0010
0100
0001
1000
0100
0010
0001
1000
,
0010
0100
0001
0010
0100
1000
0001
1000
0100
0010
0100
1000
0001
0100
0010
1000
,
0001
0100
0001
1000
0100
0010
0100
1000
0001
1000
0010
0100
0001
1000
0100
1000
,
0001
0100
0010
0100
0001
1000
0100
0010
0100
1000
0001
0100
0010
1000
0001
0010
,
0100
0000
1000
0000
0010
0000
0100
0000
0001
0000
0010
0000
0100
0000
1000
0000
0004
0003
0400
0300
0040
0030
4000
3000
0002
0000
0000
0000
0003
0000
0000
0000
,
1000
0100
0010
0100
1000
0001
0100
0010
1000
0001
0100
0001
1000
0100
0010
0100
,
1000
0001
1000
0010
0100
0001
1000
0001
0010
0100
0010
0001
0100
0001
1000
0100
,
1000
0001
1000
0010
0100
0001
1000
0001
0010
0100
1000
0001
1000
0100
0010
0100
,
1000
0001
0100
0010
1000
0001
0010
0100
1000
0010
0100
0001
0010
0100
1000
0001
,
1000
0001
0100
0010
0100
0001
1000
0100
0010
0100
1000
0001
0100
0010
1000
0001
,
1000
0100
0010
0100
1000
0001
0100
0001
0010
0100
1000
0010
1000
0001
0100
0010
,
1000
0001
1000
0100
0010
0100
1000
0001
0100
0010
0100
0001
1000
0100
1000
0001
,
1000
0000
0010
0000
0100
0000
0001
0000
0010
0000
0100
0000
1000
0000
0001
0000
4000
3000
0040
0030
0400
0300
0004
0003
2000
0000
0000
0000
3000
0000
0000
0000
,
0001
1000
0100
0010
0100
1000
0001
0100
0010
1000
0001
1000
0010
0100
0001
1000
,
0001
0010
0100
0010
0001
1000
0001
0010
0100
1000
0001
1000
0010
0100
0001
1000
,
0001
0010
0100
1000
0001
0100
0010
0100
0001
1000
0100
0010
0100
1000
0001
1000
,
0010
0100
0001
1000
0100
0010
0001
0100
0010
0100
0001
0010
0001
1000
0100
1000
,
0010
0100
0001
1000
0001
0010
0100
1000
0001
1000
0010
0100
0001
1000
0100
1000
,
0001
0100
0010
1000
0001
0100
0001
1000
0100
0010
0100
1000
0001
1000
0010
0100
,
0001
1000
0100
1000
0001
0010
0100
1000
0001
0100
0010
0100
0001
1000
0100
1000
,
0001
0000
0010
0000
0100
0000
0010
0000
0001
0000
1000
0000
0100
0000
0010
0000
0004
0003
0400
0300
0040
0030
4000
3000
0002
0000
0000
0000
0003
0000
0000
0000
,
1000
0100
1000
0001
0100
0010
0100
0001
1000
0100
0010
0100
1000
0001
0100
0010
,
1000
0001
0010
0100
1000
0001
0100
0001
1000
0010
0100
0001
1000
0100
1000
0001
,
0100
0010
1000
0001
1000
0100
0010
0100
1000
0001
1000
0010
0100
0001
1000
0100
,
1000
0010
0100
0001
1000
0100
0010
0001
0100
0010
1000
0100
0010
0001
1000
0001
,
0100
0001
0010
0001
0100
0001
0010
0001
,
1000
0100
1000
0010
1000
0100
1000
0010
,
0100
0001
0100
0010
0100
0001
0100
0010
,
1000
0010
0100
0010
1000
0010
0100
0010
,
1000
0100
0010
0001
1000
0010
0100
0001
0010
0100
1000
0001
1000
0010
0100
0010
,
1000
0001
0010
0100
1000
0001
1000
0010
1000
0100
0010
0001
1000
0010
1000
0001
,
0100
0010
0100
0001
1000
0100
0010
0001
0100
0010
0100
0001
1000
0001
0010
0100
,
1000
0001
0100
0010
1000
0001
0010
0100
1000
0001
1000
0010
0100
0001
1000
0100
,
0010
0001
1000
0010
1000
0100
0010
0001
0100
0010
1000
0001
1000
0100
0010
0001
,
1000
0010
0100
0001
0010
0100
1000
0010
1000
0001
0010
0001
1000
0010
0100
0010
,
1000
0001
0010
0001
0100
0010
1000
0100
0010
0001
1000
0001
0100
0010
1000
0001
,
1000
0000
0000
0000
0000
0000
0001
0000
0000
0100
0001
0100
0001
0000
0000
0000
0000
0000
2000
0000
0000
3000
0000
0000
,
0002
0003
0010
0000
0100
0010
0001
0000
1000
0000
0010
0000
0100
0000
0010
0000
,
2000
3000
0100
0000
0010
0001
1000
0000
0010
0000
0100
0000
0010
0000
1000
0000
,
0002
0003
0010
0000
0100
0010
0001
0000
1000
0000
0010
0000
0100
0000
0010
0000
,
1000
0000
0000
0001
0000
0000
0010
0000
0000
0001
1000
0001
1000
0000
0000
0010
0000
0000
1000
0000
0000
0100
0000
0000
,
0020
0030
0001
0000
0100
0010
0100
0000
0001
0000
1000
0000
0100
0000
0010
0000
,
0002
0003
1000
0000
0010
1000
0100
0000
0010
0000
0001
0000
1000
0000
0010
0000
,
0200
0300
0010
0000
1000
0100
0010
0000
0001
0000
1000
0000
0010
0000
0100
0000
,
0020
0000
0000
0030
0000
0000
1000
0000
0000
0000
0000
0000
0100
0000
0000
0000
0000
0000
1000
0000
0001
0000
1000
0000
0001
0000
0000
0000
0000
0000
0000
0000
0000
0000
0000
0000
1000
0000
0000
0000
0000
0000
0000
0000
0000
0000
0000
0000
,
0002
0003
0010
0000
0100
0010
0001
0000
1000
0000
0010
0000
0100
0000
0010
0000
,
2000
3000
0100
0000
0010
0001
1000
0000
0010
0000
0100
0000
0010
0000
1000
0000
,
0002
0003
1000
0000
0010
1000
0100
0000
0010
0000
0001
0000
1000
0000
0010
0000
,
2000
0000
0000
3000
0000
0000
0001
0000
0000
0000
0000
0000
0100
0000
0000
0000
0000
0000
0001
0000
0100
0000
0001
0000
0100
0000
0000
0000
0000
0000
0010
0000
0000
0000
0000
0000
1000
0000
0000
0000
0000
0000
0001
0000
0000
0000
0000
0000
,
0020
0030
0100
0000
1000
0001
0100
0000
0010
0000
1000
0000
0001
0000
0010
0000
,
0200
0300
1000
0000
0001
0100
0010
0000
1000
0000
0001
0000
0100
0000
0001
0000
,
0000
0000
0000
0000
,
0101
0000
0000
0000
0000
0000
0100
0000
0000
0001
1000
0001
1000
0000
0000
0000
0000
0000
0000
0000
0000
0000
0000
0000
,
0000
0000
0000
0000
0000
0000
0000
0000
0MM0
0000
0000
0MM0
0000
0000
0000
0000
;

//---------------dance-single - 16+ (Napporeo)----------------
#NOTES:
     dance-single:
     16+ (Napporeo):
     Hard:
     16:
     1.000,1.000,0.064,0.284,1.000,2199.000,15.000,67.000,260.000,0.000:
0000
0000
0000
0000
,
0000
0000
0000
0000
,
2001
3000
0001
0000
0100
0000
0010
0000
0100
0001
1000
0000
0001
0000
0010
0000
,
0200
0300
1000
0000
0001
0000
0100
0000
0010
0100
0001
0000
1000
0000
0100
0000
,
0020
0030
0100
0000
1000
0000
0001
0000
0100
0001
0010
0000
0100
0000
1000
0000
,
0020
0000
0000
0030
0000
0000
0100
0000
0000
0000
0000
0000
0001
0000
0000
0000
0000
0000
1000
0000
0100
0000
1000
0000
0100
0000
0000
0000
0000
0000
0010
0000
0000
0000
0000
0000
0001
0000
0000
0000
0000
0000
1000
0000
0000
0000
0000
0000
,
0002
0003
0100
0010
0100
0000
0001
0010
0100
0000
1000
0000
0001
0000
0100
0000
,
0020
0030
1000
0100
0010
0000
0001
0100
0010
0000
0100
0000
0001
0000
1000
0000
,
0200
0300
1000
0001
0100
0000
0010
0100
0001
0000
0010
0000
0100
0000
1000
0000
,
0002
0000
0000
0003
0000
0000
0100
0000
0000
0000
0000
0000
0001
0000
0000
0000
0000
0000
1000
0000
0001
0000
1000
0000
0001
0000
0000
0000
0000
0000
0100
0000
0000
0000
0000
0000
0001
0000
0000
0000
0000
0000
0010
0000
0000
0000
0000
0000
,
0100
1000
0001
0100
0010
0100
0001
1000
0001
0100
0001
1000
0010
0100
0001
1000
,
0001
0010
0100
0010
0001
1000
0100
1000
0001
0010
0100
1000
0001
0010
0001
1000
,
0100
1000
0001
0100
0010
0100
0001
1000
0001
0100
0010
0100
0001
1000
0010
1000
,
0001
0010
0100
1000
0001
0010
0001
1000
0100
0010
0100
1000
0001
0010
0001
1000
,
0001
0100
0010
0100
0001
1000
0010
1000
0001
0100
0010
1000
0010
0100
0001
1000
,
0001
0010
0100
1000
0001
1000
0100
0010
0100
1000
0001
1000
0100
1000
0001
0010
,
0001
1000
0010
0100
0010
1000
0001
0100
0001
0100
0010
1000
0001
0100
0001
1000
,
0001
0000
0000
0000
0000
0000
1000
0000
0000
0001
0100
0001
0100
0000
0000
0000
0000
0000
0020
0000
0000
0000
0000
0000
,
1030
0100
1000
0001
0100
0010
0100
0001
1000
0100
0010
0001
1000
0010
0100
0010
,
1000
0001
0010
0100
1000
0001
1000
0010
0100
0010
1000
0001
1000
0100
0010
0001
,
1000
0100
1000
0001
1000
0010
0100
0010
1000
0001
0100
0010
1000
0001
1000
0100
,
0010
0001
1000
0001
0010
0100
1000
0010
0100
0001
1000
0100
0010
0001
1000
0001
,
0100
0010
1000
0001
0010
0100
1000
0001
0100
0010
0100
0001
1000
0100
0010
0001
,
1000
0001
0100
0010
0100
0001
1000
0100
0010
0100
1000
0001
1000
0010
0100
0010
,
1000
0001
1000
0010
0100
0001
0100
0001
1000
0100
0010
0001
1000
0100
1000
0001
,
0100
0001
1000
0100
0010
0001
0100
0010
1000
0100
1000
0001
0100
0010
0100
0001
,
1000
0001
0010
0100
1000
0001
1000
0010
0100
0010
1000
0001
0100
0001
0100
0010
,
1000
0001
0010
0100
1000
0001
0010
0001
1000
0100
1000
0001
0100
0010
0100
0001
,
1000
0100
0010
0100
1000
0001
0100
0010
0100
0001
1000
0100
0010
0001
1000
0001
,
0100
0001
1000
0001
0010
0100
1000
0010
0100
0001
0010
0100
1000
0001
0100
0001
,
1000
0010
0100
0010
1000
0001
1000
0100
0010
0001
1000
0100
1000
0001
0100
0010
,
0100
0001
1000
0001
0010
0100
1000
0001
1000
0010
0100
0010
1000
0001
1000
0100
,
0010
0100
1000
0001
0100
0010
0100
0001
1000
0001
0010
0100
1000
0001
0100
0001
,
1000
0000
0000
0001
0000
0000
0100
0000
0000
0001
1000
0001
1000
0000
0000
0000
0000
0000
0020
0000
0000
0000
0000
0000
,
1030
0001
1001
1000
0100
0010
0100
1000
,
0010
0100
0101
0001
0010
0100
1000
0001
,
0100
0010
1010
1000
0100
0010
0001
1000
,
0001
0000
0000
0100
0000
0000
0001
0000
0000
1000
0100
1000
0100
0000
0000
0010
0000
0000
0100
0000
0000
1000
0000
0000
,
0001
0100
0110
0010
1000
0001
1000
0100
,
0010
0001
1001
1000
0100
0010
0100
1000
,
0001
0100
0101
0001
1000
0010
0100
0001
,
1000
0000
0000
0100
0000
0000
0010
0000
0000
0001
1000
0001
1000
0000
0000
0010
0000
0000
0100
0000
0000
0010
0000
0000
,
1000
0100
0110
0010
0001
0100
0010
0100
,
0001
1000
1100
0100
1000
0001
0010
0100
,
0010
0001
0101
0100
0010
0100
0001
1000
,
0100
0000
0000
0010
0000
0000
0100
0000
0000
1000
0001
1000
0001
0000
0000
0100
0000
0000
0001
0000
0000
1000
0000
0000
,
0001
0100
0010
1000
0001
1000
0100
0010
0100
1000
0001
1000
0010
0100
0001
1000
,
0100
0010
0100
1000
0001
0100
0010
0100
0001
1000
0100
0010
0100
1000
0001
0100
,
0010
1000
0001
0010
0100
1000
0001
1000
0010
0100
0001
1000
0100
0010
0100
1000
,
0001
0000
0000
1000
0000
0000
0010
0000
0000
1000
0001
1000
0001
0000
0000
0000
0000
0000
2000
0000
0000
0000
0000
0000
,
3002
0000
0000
0000
0000
0003
0000
0000
,
0000
0000
0000
0000
,
20M2
00M0
00M0
00M0
00M0
00M0
00M0
00M0
30M3
00M0
00M0
00M0
00M0
00M0
00M0
00M0
,
00M0
00M0
00M0
00M0
00M0
00M0
00M0
00M0
00M0
00M0
00M0
00M0
00M0
00M0
00M0
00M0
,
00M0
00M0
M000
M000
M000
M000
M000
M000
M000
M000
M000
M000
M000
M000
M000
M000
,
M000
M000
M000
M000
M000
M000
M000
M000
M000
M000
M000
M000
M000
M000
M000
M000
,
M000
0M00
0M00
0M00
0M00
0M00
0M00
0M00
0M00
0M00
0M00
0M00
0M00
0M00
0M00
0M00
,
0M00
0M00
0M00
0M00
0M00
0M00
0M00
0M00
0M00
0M00
0M00
0M00
0M00
0M00
0M00
0M00
,
0M00
00M0
00M0
00M0
00M0
00M0
00M0
00M0
00M0
00M0
00M0
00M0
00M0
00M0
00M0
00M0
,
00M0
00M0
00M0
00M0
00M0
00M0
00M0
00M0
00M0
00M0
00M0
00M0
00M0
00M0
00M0
00M0
,
00M0
00M0
000M
000M
000M
000M
000M
000M
000M
000M
000M
000M
000M
000M
000M
000M
,
000M
000M
000M
000M
000M
000M
000M
000M
000M
000M
000M
000M
000M
000M
000M
000M
,
000M
0M00
0M00
0M00
0M00
0M00
0M00
0M00
0M00
0M00
0M00
0M00
0M00
0M00
0M00
0M00
,
0M00
0M00
0M00
0M00
0M00
0M00
0M00
0M00
0M00
0M00
0M00
0M00
0M00
0M00
0M00
0M00
,
0M00
00M0
00M0
00M0
00M0
00M0
00M0
00M0
00M0
00M0
00M0
00M0
00M0
00M0
00M0
00M0
,
M000
M000
M000
M000
M000
M000
M000
M000
0M00
0M00
0M00
0M00
0M00
0M00
0M00
0M00
,
00M0
00M0
00M0
00M0
00M0
00M0
00M0
00M0
00M0
00M0
00M0
00M0
00M0
00M0
00M0
00M0
,
00M0
00M0
00M0
00M0
00M0
00M0
00M0
00M0
00M0
00M0
00M0
00M0
00M0
00M0
00M0
00M0
,
1000
0000
0000
0000
0100
0000
2000
0000
0000
0000
0000
0000
,
3000
0000
0000
0000
0000
0000
0001
0000
0010
0000
0100
0000
,
2000
0000
0000
0000
0000
0000
0000
0000
0000
0000
0000
0000
3000
0000
0000
0001
0000
0000
0000
0010
0000
0000
0000
0100
,
0000
0000
0000
0000
0000
0000
0000
0000
0000
0000
0000
1000
0000
0000
0000
0000
0000
0000
0000
0000
0000
0000
0000
0100
,
0000
0000
0000
0010
0000
0000
0000
0001
0000
0000
0000
0000
0000
0000
0000
0000
1000
0000
0000
0000
0010
0000
0000
0000
,
0200
0000
0302
0000
,
0023
0000
0000
0000
,
0000
0000
0000
0030
,
0100
0000
1000
0000
0010
0000
0200
0000
0000
0000
0000
0000
,
0302
0000
0000
0000
0000
0000
1003
0000
0100
0000
0010
0000
,
0002
0000
0000
0000
0000
0000
1003
0000
0010
0000
0100
0000
,
0002
0000
2003
3000
,
0001
1000
0001
0010
0100
0010
0001
1000
0010
0100
0010
1000
0001
0010
0100
0010
,
0100
1000
0001
0010
0001
1000
0010
1000
0001
0010
0100
1000
0001
0010
0001
1000
,
0010
0100
0001
1000
0100
0010
0001
1000
0010
1000
0010
0100
0001
1000
0001
0100
,
0010
0000
0000
0000
1000
0000
0001
0000
1000
0100
0010
0001
1000
0010
1000
0001
,
2000
3000
0000
0000
0000
0000
0000
0000
0000
0000
0000
0000
0000
0000
0000
0000
,
1001
0000
0000
0000
0001
0100
0010
1000
0001
0010
0001
1000
0001
0000
0000
0000
,
1000
0010
0100
0010
1000
0001
0100
0001
1000
0001
0010
0100
0010
0001
1000
0100
,
1000
0001
0010
0100
1000
0001
0010
0100
0010
0001
1000
0001
1000
0010
1000
0001
,
0100
0001
1000
0100
0010
0001
0010
0100
1000
0001
1000
0010
1000
0001
0010
0001
,
1000
0010
0100
0001
1000
0001
0100
0010
1000
0001
0010
0001
1000
0100
1000
0001
,
0010
0001
1000
0001
0100
0001
1000
0100
0010
0001
1000
0100
0010
0100
1000
0001
,
1000
0010
1000
0001
0100
0001
1000
0001
0010
0100
0010
0001
1000
0100
0010
0001
,
1000
0010
0100
0010
1000
0001
0100
0010
1000
0001
1000
0010
0100
0001
1000
0010
,
0100
0000
0001
0000
1000
0000
0010
0000
1000
0000
0010
0000
0100
0000
0001
0000
4000
3000
0400
0300
0040
0030
0004
0003
1000
0000
0000
0000
0000
0000
0000
0000
,
0001
0010
0100
0010
0001
1000
0100
1000
0001
1000
0010
0100
0010
1000
0001
0100
,
0001
1000
0010
0100
0001
1000
0010
0100
0010
1000
0001
1000
0001
0010
0001
1000
,
0100
1000
0001
0100
0010
1000
0010
0100
0001
1000
0001
0010
0001
1000
0010
1000
,
0001
0010
0100
1000
0001
1000
0100
0010
0001
1000
0010
1000
0001
0100
0001
1000
,
0010
1000
0001
1000
0100
1000
0001
0100
0010
1000
0001
0100
0010
0100
0001
1000
,
0001
0010
0001
1000
0100
1000
0001
1000
0010
0100
0010
1000
0001
0100
0010
1000
,
0001
0010
0100
0010
0001
1000
0100
0010
0001
1000
0001
0010
0100
1000
0001
0010
,
0100
0000
0010
0000
0001
0000
1000
0000
0010
0000
0100
0000
0010
0000
1000
0000
0004
0003
4000
3000
0400
0300
0040
0030
0001
0000
0000
0000
0000
0000
0000
0000
,
1000
0010
0100
0010
1000
0001
0100
0001
1000
0001
0010
0100
0010
0001
1000
0100
,
1000
0001
0010
0100
1000
0001
0010
0100
0010
0001
1000
0001
1000
0010
1000
0001
,
0100
0001
1000
0100
0010
0001
0010
0100
1000
0001
1000
0010
1000
0001
0010
0001
,
1000
0010
0100
0001
1000
0001
0100
0010
1000
0001
0010
0001
1000
0100
1000
0001
,
0010
0001
1000
0001
0100
0001
1000
0100
0010
0001
1000
0100
0010
0100
1000
0001
,
1000
0010
1000
0001
0100
0001
1000
0001
0010
0100
0010
0001
1000
0100
0010
0001
,
1000
0010
0100
0010
1000
0001
0100
0010
1000
0001
1000
0010
0100
0001
1000
0010
,
0100
0000
0010
0000
1000
0000
0001
0000
1000
0000
0100
0000
0010
0000
0001
0000
4000
3000
0040
0030
0400
0300
0004
0003
1000
0000
0000
0000
0000
0000
0000
0000
,
0001
0010
0100
0010
0001
1000
0100
1000
0001
1000
0010
0100
0010
1000
0001
0100
,
0001
1000
0010
0100
0001
1000
0010
0100
0010
1000
0001
1000
0001
0100
0001
1000
,
0100
1000
0001
0100
0010
1000
0010
0100
0001
1000
0001
0010
0001
1000
0010
1000
,
0001
0010
0100
1000
0001
1000
0100
0010
0001
1000
0010
1000
0001
0100
0001
1000
,
0010
1000
0100
1000
0010
1000
0100
1000
,
0001
0010
0001
0100
0001
0010
0001
0100
,
0010
1000
0010
0100
0010
1000
0010
0100
,
0001
0100
0010
0100
0001
0100
0010
0100
,
0002
0003
1000
0000
0001
0010
0100
0000
1000
0000
0010
0000
1000
0000
0010
0000
,
0200
0300
0001
0000
1000
0001
0010
0000
0100
0000
1000
0000
0100
0000
0010
0000
,
0002
0003
1000
0000
0010
0100
0001
0000
0100
0000
0001
0000
1000
0000
0010
0000
,
0200
0000
0000
0300
0000
0000
0001
0000
0000
0000
0000
0000
1000
0000
0000
0000
0000
0000
0001
0000
1000
0000
0001
0000
1000
0000
0000
0000
0000
0000
0001
0000
0000
0000
0000
0000
0010
0000
0000
0000
0000
0000
0100
0000
0000
0000
0000
0000
,
2000
3000
0001
0000
0100
0010
1000
0000
0100
0000
0010
0000
0100
0000
1000
0000
,
0002
0003
0010
0000
0100
1000
0001
0000
1000
0000
0010
0000
1000
0000
0001
0000
,
2000
3000
0010
0000
0100
0001
0010
0000
0100
0000
1000
0000
0001
0000
1000
0000
,
0200
0000
0000
0300
0000
0000
0010
0000
0000
0000
0000
0000
0001
0000
0000
0000
0000
0000
1000
0000
0001
0000
1000
0000
0001
0000
0000
0000
0000
0000
0000
0000
0000
0000
0000
0000
1001
0000
0000
0000
0000
0000
0000
0000
0000
0000
0000
0000
,
1000
0000
0001
0000
0010
0100
1000
0000
0001
0000
0010
0000
0100
0000
0010
0000
,
0002
0003
1000
0000
0010
0100
0001
0000
1000
0000
0100
0000
1000
0000
0010
0000
,
0200
0300
0001
0000
1000
0010
0100
0000
0010
0000
0100
0000
0010
0000
1000
0000
,
0020
0000
0000
0030
0000
0000
0100
0000
0000
0000
0000
0000
0001
0000
0000
0000
0000
0000
1000
0000
0001
0000
1000
0000
0001
0000
0000
0000
0000
0000
1000
0000
0000
0000
0000
0000
0001
0000
0000
0000
0000
0000
0000
0000
0000
0000
0000
0000
,
2000
3000
0001
0000
0010
0100
1000
0000
0010
0000
0100
0000
0001
0000
1000
0000
,
0020
0030
0100
0000
0001
1000
0100
0000
1000
0000
0010
0000
0100
0000
0010
0000
,
2000
3000
0000
0000
0010
0100
0001
0000
0100
0000
0000
0000
0000
0000
0000
0000
,
0002
0000
0000
0003
0000
0000
0000
0000
0000
0000
0000
0000
1000
0000
0000
0000
0000
0000
0001
0000
1000
0000
0001
0000
1000
0000
0000
0000
0000
0000
0000
0000
0000
0000
0000
0000
1001
0000
0000
0000
0000
0000
0000
0000
0000
0000
0000
0000
,
0002
0000
0000
0003
0000
0000
1000
0000
0000
0000
0000
0000
0010
0000
0000
0000
0000
0000
0100
0000
0000
0000
0000
0000
0001
0000
0000
0000
0000
0000
1000
0000
0000
0000
0000
0000
0001
0000
1000
0000
0001
0000
1000
0000
0000
0000
0000
0000
,
0200
0000
0000
0300
0000
0000
0010
0000
0000
0000
0000
0000
0001
0000
0000
0000
0000
0000
1000
0000
0000
0000
0000
0000
0010
0000
0000
0000
0000
0000
0100
0000
0000
0000
0000
0000
0001
0000
1000
0000
0001
0000
1000
0000
0000
0000
0000
0000
,
0020
0000
0000
0030
0000
0000
1000
0000
0000
0000
0000
0000
0001
0000
0000
0000
0000
0000
0010
0000
0000
0000
0000
0000
0100
0000
0000
0000
0000
0000
1000
0000
0000
0000
0000
0000
0001
0000
1000
0000
0001
0000
1000
0000
0000
0000
0000
0000
,
0020
0000
0000
0030
0000
0000
0100
0000
0000
0000
0000
0000
0001
0000
0000
0000
0000
0000
1000
0000
0100
0000
1000
0000
0100
0000
0000
0000
0000
0000
1000
0000
0000
0000
0000
0000
0001
0000
0000
0000
0000
0000
1000
0000
0000
0000
0000
0000
,
0200
0000
0000
0300
0000
0000
0010
0000
0000
0000
0000
0000
0100
0000
0000
0000
0000
0000
1000
0000
0000
0000
0000
0000
0001
0000
0000
0000
0000
0000
0010
0000
0000
0000
0000
0000
0001
0000
1000
0000
0001
0000
1000
0000
0000
0000
0000
0000
,
0002
0000
0000
0003
0000
0000
0100
0000
0000
0000
0000
0000
0010
0000
0000
0000
0000
0000
1000
0000
0000
0000
0000
0000
0100
0000
0000
0000
0000
0000
0010
0000
0000
0000
0000
0000
0001
0000
1000
0000
0001
0000
1000
0000
0000
0000
0000
0000
,
0020
0000
0000
0030
0000
0000
0100
0000
0000
0000
0000
0000
0001
0000
0000
0000
0000
0000
0010
0000
0000
0000
0000
0000
0100
0000
0000
0000
0000
0000
1000
0000
0000
0000
0000
0000
0001
0000
1000
0000
0001
0000
1000
0000
0000
0000
0000
0000
,
0020
0000
0000
0030
0000
0000
0100
0000
0000
0000
0000
0000
0001
0000
0000
0000
0000
0000
1000
0000
0100
0000
1000
0000
0100
0000
0000
0000
0000
0000
0000
0000
0000
0000
0000
0000
1000
0000
0000
0000
0000
0000
0000
0000
0000
0000
0000
0000
,
0002
0000
0000
0003
0000
0000
1000
0000
0000
0000
0000
0000
0100
0000
0000
0000
0000
0000
0010
0000
0000
0000
0000
0000
0001
0000
0000
0000
0000
0000
1000
0000
0000
0000
0000
0000
0001
0000
1000
0000
0001
0000
1000
0000
0000
0000
0000
0000
,
0020
0000
0000
0030
0000
0000
1000
0000
0000
0000
0000
0000
0001
0000
0000
0000
0000
0000
0010
0000
0000
0000
0000
0000
0100
0000
0000
0000
0000
0000
1000
0000
0000
0000
0000
0000
0001
0000
1000
0000
0001
0000
1000
0000
0000
0000
0000
0000
,
0020
0000
0000
0030
0000
0000
0100
0000
0000
0000
0000
0000
0001
0000
0000
0000
0000
0000
1000
0000
0000
0000
0000
0000
0100
0000
0000
0000
0000
0000
0010
0000
0000
0000
0000
0000
0001
0000
1000
0000
0001
0000
1000
0000
0000
0000
0000
0000
,
0200
0000
0000
0300
0000
0000
1000
0000
0000
0000
0000
0000
0001
0000
0000
0000
0000
0000
1000
0000
0100
0000
1000
0000
0100
0000
0000
0000
0000
0000
1000
0000
0000
0000
0000
0000
0001
0000
0000
0000
0000
0000
0100
0000
0000
0000
0000
0000
,
0001
1000
0010
0100
0010
1000
0001
0100
0001
1000
0100
0010
0100
1000
0001
0100
,
0010
0100
0001
1000
0001
0010
0100
1000
0001
0010
0100
1000
0001
0100
0001
1000
,
0010
0100
0001
1000
0010
1000
0001
0010
0100
1000
0001
0010
0001
1000
0100
0010
,
0001
1000
0010
1000
0001
0100
0001
1000
0010
0100
0001
1000
0010
1000
0001
0100
,
0020
0000
0000
0000
,
1030
0000
0000
0000
,
0001
0100
0010
0100
0001
1000
0010
1000
0001
1000
0100
0010
0100
1000
0001
0010
,
0001
1000
0100
0010
0001
1000
0100
0010
0100
1000
0001
1000
0001
0100
0001
1000
,
0010
1000
0001
0010
0100
1000
0100
0010
0001
1000
0001
0100
0001
1000
0100
1000
,
0001
0100
0010
1000
0001
1000
0010
0100
0001
1000
0100
1000
0001
0010
0001
1000
,
0100
1000
0001
1000
0010
1000
0001
0010
0100
1000
0001
0010
0100
0010
0001
1000
,
0001
0100
0001
1000
0010
1000
0001
1000
0100
0010
0100
1000
0001
0010
0100
1000
,
0001
0100
0010
0100
0001
1000
0010
0100
0001
1000
0001
0100
0010
1000
0001
0100
,
0010
0000
1000
0000
0001
0000
0100
0000
0001
0000
1000
0000
0100
0000
0010
0000
0004
0003
0400
0300
0040
0030
4000
3000
0001
0000
0000
0000
0000
0000
0000
0000
,
1000
0100
0010
0100
1000
0001
0010
0001
1000
0001
0100
0010
0100
0001
1000
0010
,
1000
0001
0100
0010
1000
0001
0100
0010
0100
0001
1000
0001
1000
0100
1000
0001
,
0010
0001
1000
0010
0100
0001
0100
0010
1000
0001
1000
0100
1000
0001
0100
0001
,
1000
0100
0010
0001
1000
0001
0010
0100
1000
0001
0100
0001
1000
0010
1000
0001
,
0100
0001
1000
0001
0010
0001
1000
0010
0100
0001
1000
0010
0100
0010
1000
0001
,
1000
0100
1000
0001
0010
0001
1000
0001
0100
0010
0100
0001
1000
0010
0100
0001
,
1000
0100
0010
0100
1000
0001
0010
0100
1000
0001
1000
0100
0010
0001
1000
0100
,
0010
0000
0100
0000
1000
0000
0001
0000
0010
0000
0100
0000
1000
0000
0001
0000
0400
0300
0040
0030
4000
3000
0004
0003
0100
0000
0000
0000
0000
0000
0000
0000
,
0001
0100
0010
0100
0001
1000
0010
1000
0001
1000
0100
0010
0100
1000
0001
0010
,
0001
1000
0100
0010
0001
1000
0100
0010
0100
1000
0001
1000
0001
0100
0001
1000
,
0010
1000
0001
0010
0100
1000
0100
0010
0001
1000
0001
0100
0001
1000
0100
1000
,
0001
0100
0010
1000
0001
1000
0010
0100
0001
1000
0100
1000
0001
0010
0001
1000
,
0100
1000
0001
1000
0010
1000
0001
0010
0100
1000
0001
0010
0100
0010
0001
1000
,
0001
0100
0001
1000
0010
1000
0001
1000
0100
0010
0100
1000
0001
0010
0100
1000
,
0001
0100
0010
0100
0001
1000
0010
0100
0001
1000
0001
0100
0010
1000
0001
0100
,
0010
0000
0100
0000
0001
0000
1000
0000
0100
0000
0010
0000
0001
0000
1000
0000
0004
0003
0400
0300
0040
0030
4000
3000
0001
0000
0000
0000
0000
0000
0000
0000
,
1000
0100
0010
0100
1000
0001
0010
0001
1000
0001
0100
0010
0100
0001
1000
0010
,
1000
0001
0100
0010
1000
0001
0100
0010
0100
0001
1000
0001
1000
0010
1000
0001
,
0010
0001
1000
0010
0100
0001
0100
0010
1000
0001
1000
0100
1000
0001
0100
0001
,
1000
0100
0010
0001
1000
0001
0010
0100
1000
0001
0100
0001
1000
0010
1000
0001
,
0100
0001
0010
0001
0100
0001
0010
0001
,
1000
0100
1000
0010
1000
0100
1000
0010
,
0100
0001
0100
0010
0100
0001
0100
0010
,
1000
0010
0100
0010
1000
0010
0100
0010
,
1000
0100
0010
0001
1000
0010
0100
0001
0010
0100
1000
0001
1000
0010
0100
0010
,
1000
0001
0010
0100
1000
0001
1000
0010
1000
0100
0010
0001
1000
0010
1000
0001
,
0100
0010
0100
0001
1000
0100
0010
0001
0100
0010
0100
0001
1000
0001
0010
0100
,
1000
0001
0100
0010
1000
0001
0010
0100
1000
0001
1000
0010
0100
0001
1000
0100
,
0010
0001
1000
0010
1000
0100
0010
0001
0100
0010
1000
0001
1000
0100
0010
0001
,
1000
0010
0100
0001
0010
0100
1000
0010
1000
0001
0010
0001
1000
0010
0100
0010
,
1000
0001
0010
0001
0100
0010
1000
0100
0010
0001
1000
0001
0100
0010
1000
0001
,
1000
0000
0000
0000
0000
0000
0001
0000
0000
0100
0001
0100
0001
0000
0000
0000
0000
0000
2000
0000
0000
3000
0000
0000
,
0002
0003
0010
0000
0100
0010
0001
0000
1000
0000
0010
0000
0100
0000
0010
0000
,
2000
3000
0100
0000
0010
0001
1000
0000
0010
0000
0100
0000
0010
0000
1000
0000
,
0002
0003
0010
0000
0100
0010
0001
0000
1000
0000
0010
0000
0100
0000
0010
0000
,
1000
0000
0000
0001
0000
0000
0010
0000
0000
0001
1000
0001
1000
0000
0000
0010
0000
0000
1000
0000
0000
0100
0000
0000
,
0020
0030
0001
0000
0100
0010
0100
0000
0001
0000
1000
0000
0100
0000
0010
0000
,
0002
0003
1000
0000
0010
1000
0100
0000
0010
0000
0001
0000
1000
0000
0010
0000
,
0200
0300
0010
0000
1000
0100
0010
0000
0001
0000
1000
0000
0010
0000
0100
0000
,
0020
0000
0000
0030
0000
0000
1000
0000
0000
0000
0000
0000
0100
0000
0000
0000
0000
0000
1000
0000
0001
0000
1000
0000
0001
0000
0000
0000
0000
0000
0000
0000
0000
0000
0000
0000
1000
0000
0000
0000
0000
0000
0000
0000
0000
0000
0000
0000
,
0002
0003
0010
0000
0100
0010
0001
0000
1000
0000
0010
0000
0100
0000
0010
0000
,
2000
3000
0100
0000
0010
0001
1000
0000
0010
0000
0100
0000
0010
0000
1000
0000
,
0002
0003
1000
0000
0010
1000
0100
0000
0010
0000
0001
0000
1000
0000
0010
0000
,
2000
0000
0000
3000
0000
0000
0001
0000
0000
0000
0000
0000
0100
0000
0000
0000
0000
0000
0001
0000
0100
0000
0001
0000
0100
0000
0000
0000
0000
0000
0010
0000
0000
0000
0000
0000
1000
0000
0000
0000
0000
0000
0001
0000
0000
0000
0000
0000
,
0020
0030
0100
0000
1000
0001
0100
0000
0010
0000
1000
0000
0001
0000
0010
0000
,
0200
0300
1000
0000
0001
0100
0010
0000
1000
0000
0001
0000
0100
0000
0001
0000
,
0000
0000
0000
0000
,
0101
0000
0000
0000
0000
0000
0100
0000
0000
0001
1000
0001
1000
0000
0000
0000
0000
0000
0000
0000
0000
0000
0000
0000
,
0000
0000
0000
0000
0000
0000
0000
0000
0MM0
0000
0000
0MM0
0000
0000
0000
0000
;
