#TITLE:Turn Me On;
#SUBTITLE:;
#ARTIST:CJ Crew feat. Wayte D'Arby & Sami;
#TITLETRANSLIT:;
#SUBTITLETRANSLIT:;
#ARTISTTRANSLIT:;
#CREDIT:;
#BANNER:../Beast - bn.png;
#BACKGROUND:../Beast - bg.png;
#LYRICSPATH:;
#CDTITLE:;
#MUSIC:Turn Me On.ogg;
#OFFSET:-0.013;
#SAMPLESTART:19.340;
#SAMPLELENGTH:13.000;
#SELECTABLE:YES;
#DISPLAYBPM:147.000;
#BPMS:0.000=146.300,16.000=146.320,24.000=147.500,32.000=147.000,104.000=146.300,112.000=146.800,136.000=146.250,144.000=147.000,200.000=146.750,208.000=147.000;
#STOPS:;
#BGCHANGES:;
// cache tags:
#FIRSTBEAT:16.000;
#LASTBEAT:268.000;
#SONGFILENAME:Songs/Beast Aoreo BEAST! 2/Turn Me On - [Aoreo]/Turn Me On.sm;
#HASMUSIC:1;
#HASBANNER:1;
#MUSICLENGTH:111.236;
// end cache tags

//---------------dance-single - J. Nero----------------
#NOTES:
     dance-single:
     J. Nero:
     Challenge:
     12:
     0.905,1.000,0.108,0.476,1.000,636.000,12.000,53.000,8.000,0.000:
0000
0000
0000
0000
,
0000
0000
0000
0000
,
0000
0000
0000
0000
,
0000
0000
0000
0000
,
0001
0000
0000
0100
0000
0000
0001
0000
0100
0000
0000
0010
0000
0000
1000
0000
,
0100
0000
0000
1000
0000
0000
0001
0000
0100
0000
0000
0010
0000
0000
1000
0000
,
1001
0000
0001
0100
0010
0000
1000
0001
0100
0100
1000
0001
0100
0000
0010
0000
,
0000
0000
1000
0100
0100
0001
1000
0000
0020
0000
0000
0030
0100
0000
0100
0000
,
0004
0000
0000
0000
0000
0000
0000
0000
0003
0000
0000
0000
2000
0000
3000
0200
,
0000
2300
0000
3002
0000
0203
0000
0320
0000
0030
2000
0000
0002
0000
3003
0000
,
0000
1000
0100
0100
0001
0010
0010
1000
0100
0100
0001
1000
0002
0000
2003
3000
,
0000
0001
0100
0100
1000
0000
0001
0000
0100
0000
0000
0001
0100
0001
1000
0010
,
0400
0000
0000
0000
0000
0000
0000
0000
0300
0000
0001
0000
1000
0020
0030
0200
,
0300
0002
0003
2000
3000
0002
0003
0200
0300
0000
0002
0000
0023
0000
0230
0000
,
2300
0000
3000
0000
1001
0000
0000
0000
0001
0000
1000
0010
0100
0000
0001
0000
,
2000
0000
0000
0000
3001
0000
0000
0000
1000
0100
M000
0100
0001
0000
0100
0000
,
0020
0000
1030
0002
0000
0103
0100
0020
,
0000
1030
1000
0400
0000
0000
1300
0001
,
0101
0000
0000
0000
1001
0000
0000
0000
1000
0000
0001
0100
0010
0000
0200
0000
,
0302
0000
0000
0000
1003
0000
0000
0000
0001
0100
000M
0100
1000
0000
0001
0000
,
1000
0100
1000
0001
0100
0010
1000
0001
1000
0100
0010
0001
1000
0001
0100
0010
,
0100
0000
0000
0001
0000
0000
1000
0000
0000
0001
0000
0000
0100
0000
0000
0001
0000
0000
1000
0000
0000
0001
0000
0000
1000
0000
0100
0000
1000
0000
0010
0000
0100
0000
0001
0000
0010
0000
0001
0000
0010
0000
0100
0000
1000
0000
0010
0000
,
0100
0001
1000
0100
1000
0010
0100
0001
0010
0100
1000
0001
0100
0001
0010
0100
,
1000
0001
1000
0010
0100
0001
0100
0010
1000
0001
0100
0010
1000
0001
0100
0001
,
0100
0010
1000
0010
0100
0001
1000
0100
0010
0001
0010
0100
1000
0010
0100
0001
,
0010
0000
0000
0001
0000
0000
1000
0000
0000
0100
0000
0000
1000
0000
0000
0010
0000
0000
0100
0000
0000
0001
0000
0000
1000
0000
0010
0000
0100
0000
0001
0000
0010
0000
0001
0000
0100
0000
0010
0000
1000
0000
0100
0000
1000
0000
0010
0000
,
1000
0000
0001
0100
0010
0000
1000
0000
0001
0100
0010
0000
1000
0000
1001
0000
,
0000
0000
0001
0100
0010
0000
0100
0000
0001
0000
0000
0000
1000
0000
0001
0000
,
2000
0000
0000
0000
3200
0000
0000
0000
0300
0000
0000
0000
0020
0000
0000
0031
,
0000
0000
1000
0000
0000
0000
0000
0010
0000
0000
0000
0000
0100
0000
0000
0000
0001
0000
0000
0000
1000
0000
0000
0000
1000
0000
0000
0000
0000
0000
0000
0000
,
0001
0000
1000
0100
0100
0001
0010
0010
1000
0100
0100
0001
1000
0000
0001
0000
,
0000
1000
0100
1000
0001
0000
0100
0000
0100
0000
0000
0000
0001
0000
0100
0000
,
0010
0000
0100
0000
0001
0000
0000
0000
0000
0000
0000
0000
1000
0010
0100
0001
,
1000
0001
0010
0100
1000
0010
0100
0001
0010
0001
1000
0100
1000
0010
0100
0001
0010
0100
0010
0001
1000
0010
0100
0001
,
2000
0000
0000
0000
3001
0000
0000
0000
0100
0000
0001
1000
0100
0000
1000
0000
,
0020
0000
0000
0000
0130
0000
0000
0000
0001
0100
000M
0100
1000
0000
0001
0000
,
2000
0000
3001
0200
0000
0310
0010
2000
,
3000
0001
0001
0400
0000
0000
0301
1000
,
1001
0000
0000
0000
0101
0000
0000
0000
0100
0000
0010
1000
0100
0000
1000
0000
,
0002
0000
0000
0000
0103
0000
0000
0000
0001
0100
000M
0100
1000
0000
0100
0000
,
1000
0010
0100
0001
0010
0001
0100
0010
1000
0100
0010
0001
1000
0100
1000
0010
,
0100
0000
0000
0001
0000
0000
0010
0000
0000
0001
0000
0000
0100
0000
0000
0010
0000
0000
1000
0000
0000
0001
0000
0000
1000
0000
0100
0000
0010
0000
0100
0000
1000
0000
0001
0000
1000
0000
0010
0000
0100
0000
0010
0000
1000
0000
0001
0000
,
1000
0000
0000
1000
0100
0000
0100
0000
0000
1000
0000
0001
0100
0000
0100
0000
,
0000
0001
0000
0100
0010
0000
0010
0000
1000
0100
M000
0100
0001
0000
1000
0000
,
0000
0001
0000
1000
0010
0000
0010
0000
0000
0100
0000
0001
1000
0000
1000
0000
,
0001
0100
0000
0010
0100
0000
0100
0000
0001
0100
000M
0100
1000
0000
0001
0000
,
1000
0001
0100
0010
0100
0001
1000
0100
1000
0010
0100
0001
0010
0001
1000
0100
,
1000
0010
0100
0001
0010
0100
0010
0001
1000
0100
1000
0001
0100
0010
1000
0100
,
1000
0010
0100
0001
1000
0001
1000
0100
1000
0001
0100
0010
1000
0001
0010
0100
,
0010
0000
0000
0001
0000
0000
1000
0000
0000
0100
0000
0000
1000
0000
0000
0001
0000
0000
0100
0000
0000
0010
0000
0000
1000
0000
0010
0000
0100
0000
0001
0000
0100
0000
0010
0000
1000
0000
0001
0000
0010
0000
0100
0000
1000
0000
0001
0000
,
1000
0000
0001
1000
0100
0000
1000
0100
0100
0001
0010
0010
2000
0000
3001
0000
,
0000
0000
1000
0010
0100
0100
2000
0000
3001
0000
0000
0000
1000
0000
0001
0000
,
0400
0000
0000
0000
0000
0000
0000
0000
0300
0000
0000
0000
0002
0000
0003
2000
,
3000
0200
0300
2000
3000
0002
0003
0200
0300
0000
0002
0003
0002
0003
0000
0000
,
0100
0010
1000
0100
0100
0001
1000
0010
0010
0100
1000
0001
0100
0010
0100
0001
,
1000
0001
0100
0010
1000
0100
1000
0001
0100
0010
1000
0010
0100
0001
1000
0100
,
0010
0001
1000
0100
1000
0001
0010
0001
0100
0010
0100
0001
1000
0100
0010
0001
,
0100
0010
1000
0100
1000
0001
0100
0010
1000
0001
1000
0000
0100
0000
1000
0000
,
0002
0000
0000
0000
0103
0000
0000
0000
0010
0000
1000
0001
0010
0000
0100
0000
,
2000
0000
0000
0000
3010
0000
0000
0000
1000
0100
M000
0100
0001
0000
1000
0000
,
0002
0000
0000
0000
1003
0000
0020
0000
0000
0000
0130
0000
0100
0000
0002
0003
,
0000
1000
1000
0040
0000
0000
0130
0001
,
1001
0000
0000
0000
1100
0000
0000
0000
0100
0000
1000
0001
0100
0000
0010
0000
,
0200
0000
0000
0000
0301
0000
0000
0000
1000
0100
M000
0100
0002
0000
1000
0003
,
0001
0100
0010
1000
0100
1000
0010
0100
0001
0010
0100
1000
0001
0010
0001
0100
,
0010
0000
0000
1000
0000
0000
0100
0000
0000
1000
0000
0000
0010
0000
0000
0100
0000
0000
0001
0000
0000
1000
0000
0000
0010
0000
0100
0000
0001
0000
1000
0000
0100
0000
1000
0000
0001
0000
0010
0000
0001
0000
0100
0000
0010
0000
1000
0000
,
0004
0000
0000
0000
,
0003
0000
0000
0000
;
