#TITLE:Ultrasonic Anthem;
#SUBTITLE:;
#ARTIST:t+pazolite;
#TITLETRANSLIT:;
#SUBTITLETRANSLIT:;
#ARTISTTRANSLIT:;
#CREDIT:;
#BANNER:../Banner.png;
#BACKGROUND:../BG.png;
#LYRICSPATH:;
#CDTITLE:../CDTitleBRAEDEN.png;
#MUSIC:Ultrasonic Anthem.ogg;
#OFFSET:-0.662;
#SAMPLESTART:34.035;
#SAMPLELENGTH:13.715;
#SELECTABLE:YES;
#DISPLAYBPM:300.000;
#BPMS:0.000=120.000,73.000=60.000,74.000=79.959,75.000=96.030,76.000=120.701,77.000=135.762,78.000=159.918,79.000=198.262,80.000=233.994,81.000=320.922,82.000=120.000,89.000=240.000,217.000=120.000,253.000=240.000,509.000=120.000,541.000=240.000,861.000=120.000,901.000=60.000,902.000=79.959,903.000=96.030,904.000=120.701,905.000=135.762,906.000=159.918,907.000=198.262,908.000=233.994,909.000=320.922,910.000=480.000;
#STOPS:;
#BGCHANGES:;
// cache tags:
#FIRSTBEAT:9.000;
#LASTBEAT:914.000;
#SONGFILENAME:Songs/Index Fusion - Part 2/Ultrasonic Anthem - [Braeden]/Ultrasonic Anthem.sm;
#HASMUSIC:1;
#HASBANNER:1;
#MUSICLENGTH:289.274;
// end cache tags

//---------------dance-single - ----------------
#NOTES:
     dance-single:
     :
     Challenge:
     21:
     1.000,1.000,0.259,0.225,1.000,2190.000,75.000,65.000,2.000,0.000:

0000
0000
0000
0000
,
0000
0000
0000
0000
,
0000
0001
0100
0000
,
0000
0020
0000
0000
,
0030
0000
0000
0000
1000
0000
0000
0000
0001
0000
0100
0010
1000
0000
0010
0000
,
0100
0000
0001
0100
0010
0000
1000
0000
0010
0000
0100
0001
0100
0000
0010
0000
,
1000
0000
0001
0100
0020
0030
0100
0000
0020
0030
0100
0001
1000
0000
0010
0000
,
0100
0000
0010
1000
0100
0000
0010
0000
0001
0000
0100
0010
1000
0000
0001
0000
,
0010
0000
0100
1000
0200
0300
0010
0000
0002
0003
0010
0000
0011
0000
0001
1000
,
0000
1000
0010
0000
0200
0000
0000
0000
0301
0000
1000
0000
1001
0000
0000
0000
,
0001
0000
0100
0010
0200
0000
0000
0000
0301
0000
1000
0000
1001
0000
0001
0100
,
0000
0100
0001
0000
2000
0000
0000
0000
3010
0000
0100
0000
0101
0000
0000
0000
,
0001
0000
1000
0010
0200
0000
0000
0000
0301
0000
1000
0000
1010
0000
1000
0010
,
0000
0100
0001
0100
0020
0000
0000
0000
1030
0000
0001
0000
0101
0000
0010
0000
,
1000
0000
0001
0100
0020
0030
1000
0000
0002
0003
0100
0000
0110
0000
0010
1000
,
0000
0001
1000
0010
0200
0000
0000
0000
0301
0000
0010
0000
0001
0000
0010
0000
,
0100
0000
1000
0001
0200
0000
0300
0000
0200
0000
0300
0000
0000
0000
0010
0000
,
1000
0010
1000
0000
0000
0000
0000
0000
,
0001
1001
1001
1001
,
1001
1001
1001
1001
,
1001
1001
0000
0000
,
0000
0000
0000
0000
,
0000
0000
0000
0000
1000
0100
0010
0001
0100
0010
1000
0001
0010
0100
1000
0001
,
0100
0010
1000
0100
0010
0100
1000
0001
0100
0010
1000
0001
0100
0000
0000
0000
,
0100
0000
0000
0000
0010
1000
0001
0010
0100
1000
0100
0010
0001
0100
0010
1000
,
0001
0100
0010
1000
0002
0000
0000
0000
0000
0000
0203
0000
0000
0000
0000
0000
,
0310
0000
1000
0000
0010
0100
0001
1000
0100
0010
0001
0010
0100
1000
0001
0100
,
0010
1000
0100
0010
0100
1000
0001
0010
0100
1000
0001
0100
0001
0000
0000
0000
,
0001
0100
0010
1000
0001
0010
0100
1000
0100
0010
0001
0100
0010
1000
0001
0010
,
0100
1000
0100
0010
0100
0000
0000
0000
0000
0000
0010
0000
0001
0100
0001
0000
,
1000
0000
0010
0000
1000
0100
0010
0001
1000
0010
0100
0001
0100
0010
1000
0001
,
0010
0100
1000
0001
0010
0001
1000
0100
0010
0001
0100
0010
1000
0001
0010
0100
,
1000
0001
0100
0010
1000
0100
0010
0001
0010
0100
1000
0001
0100
0010
1000
0001
,
0010
0100
1000
0010
0100
0001
0100
0010
1000
0100
0010
0001
0100
0000
0010
1000
,
0010
0000
0100
0000
0001
1000
0100
1000
0001
0100
0010
0100
0001
0010
0100
1000
,
0001
0100
0010
1000
0100
0010
0001
0010
0100
1000
0001
0100
0010
0000
0000
0000
,
1010
0000
1000
0010
0100
0101
0010
1000
,
1010
0000
2000
0000
0000
3020
0000
0000
,
0130
0000
0000
0000
1000
0100
0010
0001
0010
0100
1000
0001
0100
0010
1000
0100
,
0010
0001
1000
0010
0100
0001
0010
0100
1000
0001
0100
0010
1000
0100
0010
0001
,
1000
0010
0100
0001
0010
0100
1000
0001
0010
0001
0100
0010
1000
0001
0010
0100
,
1000
0001
0100
0010
1000
0100
0010
0001
0010
0100
1000
0001
0100
0010
1000
0100
,
0010
0001
0100
0010
1000
0001
0010
0100
1000
0010
1000
0001
0100
0010
1000
0001
,
0010
0100
1000
0001
0010
0001
1000
0010
0100
0001
0010
0001
1000
0100
0010
0001
,
0010
0100
1000
0001
0100
0000
0010
0000
0100
0000
0010
0000
1000
0000
0010
0000
,
1000
0001
0010
0001
1000
0000
0040
0000
,
1030
2010
3020
0230
,
0302
0023
0230
2300
,
3200
0000
0310
0001
0010
0001
0100
0010
,
1000
0000
0010
0000
0100
0000
0000
0000
0001
0000
0000
0000
0001
0000
0010
0100
,
1000
0000
0001
0000
1000
0100
0010
0001
0010
0100
1000
0001
0100
0010
1000
0001
,
0100
0010
1000
0001
0010
0100
1000
0001
0100
0010
1000
0100
0010
0001
0010
0100
,
1000
0001
0010
0001
1000
0010
0100
0001
1000
0100
0010
0001
0010
0100
1000
0001
,
0100
0010
1000
0100
0010
0100
1000
0001
0100
0010
1000
0001
0100
0010
1000
0001
,
0010
0100
1000
0100
1000
0000
0000
0000
0001
0000
0000
0000
0100
0000
0010
0000
,
1000
0010
0100
0000
0000
0001
0010
0000
,
0000
0000
0001
0000
0100
0000
0000
0010
,
1000
0010
0100
0000
0000
0000
0000
0000
,
0000
0000
0000
0000
0002
0000
0000
0000
1003
0000
0010
0100
0010
0000
1000
0000
,
0001
0100
0010
0000
1000
0001
0100
0000
,
0010
0000
0000
0000
1000
0000
0001
0000
1000
0010
0100
0001
1000
0100
0010
0001
0010
0100
1000
0001
0100
0010
1000
0100
0010
0001
0010
0100
1000
0001
0100
0010
,
1000
0001
0010
0100
1000
0001
0100
0010
1000
0100
0010
0001
1000
0010
0100
0001
1000
0100
0010
0001
0010
0100
1000
0001
0010
0001
1000
0010
0100
0001
1000
0100
,
0010
0001
0010
0100
1000
0001
0100
0010
1000
0001
0010
0001
1000
0100
0010
0001
0010
0100
1000
0001
0100
0010
1000
0001
0010
0100
1000
0001
0100
0010
1000
0001
,
0100
0000
0001
0100
0001
0000
0100
0000
0010
0000
1000
0000
0100
0000
0010
0000
,
0000
0000
0001
0000
0000
0000
0100
0000
0010
0000
1000
0000
0100
0000
0010
0001
,
1000
0010
0100
0001
1000
0100
0010
0001
,
0000
0000
0100
0000
0000
0000
0010
0000
1000
0000
0001
0000
0100
0000
0010
1000
,
0010
0100
0001
1000
0010
0100
0001
1000
,
0000
0000
0100
0000
0000
0000
0010
0000
0001
0000
0100
0000
0010
0000
1000
0100
,
1000
0001
0400
0000
0000
0340
0000
0000
,
4030
0000
0000
3004
0000
0000
0403
0000
,
0310
1000
0001
0100
0010
1000
0100
0010
,
0100
1000
0001
0100
0010
1000
0001
0100
,
0010
1000
0100
0010
0001
0100
0010
1000
,
0001
0000
0100
0000
0010
0000
1000
0000
0010
0000
0100
0000
0001
0000
1000
0001
,
0100
0000
0010
0000
1000
0000
0001
0100
0001
0000
0100
0000
0010
0000
1000
0001
,
0100
0000
0010
0000
1000
0000
0100
1000
0001
0000
0100
0000
0010
0000
1000
0001
,
0100
0000
0010
0000
1000
0100
0010
0001
0010
0100
1000
0001
0100
0010
1000
0001
,
0100
0010
1000
0100
0010
0001
0010
0100
1000
0001
0100
0010
1000
0001
0100
0010
,
1000
0001
0010
0100
1000
0000
0001
0000
0100
0000
0010
0000
1000
0000
0001
0000
,
0M00
0000
1000
0001
0100
0010
1000
0100
,
M000
0000
0010
0001
0100
0010
1000
0001
,
0000
0000
1000
0100
0010
0001
0011
0000
,
1001
0000
1000
0010
0100
0001
0100
0010
,
1000
0100
0010
0001
0010
0100
1000
0000
,
0010
0000
0100
0001
0100
0010
1000
0100
,
0010
0001
0100
0010
1000
0001
0100
0000
,
0010
1000
0020
0130
0001
0100
0010
1000
,
0000
1001
0000
0001
0100
0010
1000
0000
,
0001
0100
0101
0010
1000
0010
0100
0001
,
0000
0022
0033
0001
1001
0000
1010
0000
,
1000
0000
0010
0000
0100
0000
0001
0100
0010
0000
1000
0000
0010
0000
0100
0000
,
0001
1000
0100
0010
0001
0010
0100
1000
0001
0100
0010
1000
0100
0010
0001
1000
,
0100
0010
0001
1000
0400
0000
0000
0000
0000
0000
0000
0000
0000
0000
0000
0000
,
0300
0000
0000
0000
,
0000
0000
0000
0000
1000
0100
0010
0001
0100
0010
1000
0001
0010
0001
1000
0100
,
0010
0001
0100
0010
1000
0001
0010
0100
1000
0001
0100
0010
1000
0010
0100
0001
,
1000
0100
0010
0001
1000
0010
0100
0001
0100
0010
1000
0001
0010
0100
1000
0001
,
0100
0010
1000
0100
0010
0001
0010
0100
1000
0001
0100
0010
1000
0100
0010
0001
,
0010
0100
1000
0001
0100
0010
1000
0001
0010
0100
1000
0001
0100
0001
0010
0001
,
1000
0100
0010
0001
1000
0010
0100
0001
0010
0100
1000
0001
0100
0010
1000
0100
,
0010
0001
1000
0001
1000
0000
0000
0000
1000
0000
1100
0000
0000
0000
0010
0000
,
0011
0000
1001
0000
0001
0100
0010
1000
,
0010
0000
0100
0000
0001
0100
0010
1000
0001
0010
0001
1000
0100
0010
0001
0100
,
0010
1000
0001
0010
0100
1000
0001
0100
0010
1000
0001
0010
0001
1000
0100
0010
,
0001
0100
0010
1000
0001
0010
0100
1000
0001
0100
0010
1000
0100
0010
0001
0010
,
0100
1000
0001
0100
0010
1000
0001
0010
0100
1000
0001
0100
0010
1000
0100
0010
,
0001
0100
0010
1000
0001
0100
0010
1000
0001
0010
0001
1000
0100
0010
0001
1000
,
0010
1000
0001
0010
0100
1000
0100
0010
0001
0100
0010
1000
0100
0010
0001
0100
,
0010
1000
0001
0100
0001
0000
0000
0000
0001
0000
1001
0000
0000
0000
1000
0000
,
1001
0000
0000
0101
0000
0000
1001
1000
,
0001
0000
0100
0000
0010
1000
0100
0010
0001
0010
0100
1000
0001
0100
0010
1000
,
0001
0010
0001
1000
0100
0010
0001
0100
0010
1000
0001
0010
0100
1000
0001
0100
,
0010
1000
0100
0010
0001
0010
0100
1000
0001
0100
0010
1000
0100
0010
0001
0100
,
0010
1000
0001
0010
0100
1000
0001
0010
0001
1000
0010
0100
0001
0010
0001
1000
,
0100
0010
0001
0010
0100
1000
0001
0100
0010
1000
0100
0010
0001
0010
0100
1000
,
0001
0100
0010
1000
0100
0010
0001
0010
0100
1000
0001
0100
0010
0100
0001
0010
,
0100
1000
0001
0100
0001
0000
0000
0000
0000
0000
1001
0000
0000
0000
0000
0000
,
0101
0000
1010
0000
0000
0000
1000
0010
,
1000
0000
0001
0000
0100
0010
1000
0001
0010
0100
1000
0001
0100
0010
1000
0100
,
0010
0001
1000
0010
0100
0001
0010
0001
1000
0100
0010
0001
0010
0100
1000
0001
,
0100
0010
1000
0001
0010
0100
1000
0001
0100
0010
1000
0001
0100
0010
1000
0100
,
0010
0001
0010
0100
1000
0001
0100
0010
1000
0001
0100
0010
1000
0100
0010
0001
,
0010
0100
1000
0001
0100
0010
1000
0100
0010
0001
0010
0100
1000
0001
0100
0010
,
1000
0001
1000
0010
0100
0001
0010
0001
0100
0010
1000
0001
0010
0000
0100
1000
,
0100
0000
0010
0001
2000
0000
0000
0000
0000
0000
3020
0000
0000
0000
0000
0000
,
0230
0000
0301
0100
0010
1000
0010
1000
,
0100
0000
0010
0000
0200
0000
0300
1000
,
0001
0100
0020
0000
1030
0010
0100
0000
,
0000
0000
0001
0000
0100
0000
1010
0010
,
1000
0010
0100
0000
0000
0001
0011
0000
,
0010
0100
0002
0000
0203
0000
0300
0010
,
1000
0100
0020
0000
0030
0001
0200
0000
,
0300
0000
0020
0000
2030
0000
0000
3001
,
0100
0010
2000
0000
3000
0000
0010
0000
,
0000
0000
0000
0000
1000
0100
0010
0100
1000
0001
0100
0010
1000
0001
0010
0100
,
1000
0001
0010
0001
1000
0010
0100
0001
0010
0001
1000
0100
0010
0001
0010
0100
,
1000
0001
0100
0010
1000
0001
0010
0100
1000
0001
0100
0010
1000
0100
0010
0001
,
0010
0100
1000
0001
0100
0010
1000
0001
0010
0100
1000
0001
0100
0010
1000
0100
,
0010
0100
1000
0001
0010
0100
1000
0001
0100
0010
1000
0100
0010
0001
0100
0010
,
1000
0001
0010
0100
1000
0001
0100
0010
1000
0100
0010
0001
0010
0100
1000
0001
,
1000
0100
0010
0001
0010
0000
0100
0000
1000
0000
0010
0000
0100
0000
0001
0000
,
0010
0000
0200
0000
0300
0200
0000
0000
,
0310
0000
0001
0000
1000
0100
0010
0001
0010
0100
1000
0001
0100
0010
1000
0001
,
0010
0100
1000
0001
0100
0010
1000
0100
0010
0100
1000
0001
0010
0000
0100
0000
,
1000
0000
0100
0000
0010
0001
0100
0010
1000
0001
0010
0100
1000
0100
0010
0001
,
0100
0010
1000
0001
2000
0000
0000
0000
0000
0000
3020
0000
0000
0000
0130
0001
,
0100
0000
0010
0000
1000
0000
0010
0000
0100
0000
0001
0000
1000
0010
1000
0010
,
1000
0000
0001
0000
0100
0000
0010
1000
0010
0000
0100
0000
0001
0000
0100
0000
,
0010
0000
1000
0001
1000
0000
0010
0000
0100
0000
0001
0000
0100
0010
1000
0100
,
0010
0100
1000
0001
0010
0100
1000
0100
1000
0010
0100
0001
1000
0000
0000
0000
,
0001
0100
0101
0010
1000
0100
0010
0001
,
0000
0010
0000
0100
1000
0010
1000
0001
,
0010
0100
1000
0100
0010
0001
0100
0010
,
0000
1000
0000
0010
0100
0001
0100
0010
,
1000
0100
1000
0010
0100
0001
0100
0010
,
0000
0000
1000
0000
0000
0000
0010
0000
0100
0000
0001
0000
1000
0000
0010
0100
,
0010
1000
0004
0000
0000
0403
0000
0000
,
0340
0000
0000
4030
0000
0000
3004
0000
,
0103
0000
0010
0000
1000
0000
0001
0100
0010
0000
1000
0000
0100
0000
0010
0000
,
0001
0010
0100
1000
0001
0010
0001
0100
,
0010
1000
0100
0010
0100
1000
0001
0100
,
0010
0100
0001
1000
0100
0010
0001
1000
,
0001
0000
0010
0000
0100
0000
1000
0001
1000
0000
0010
0000
0100
0000
0001
0010
,
0001
0000
1000
0000
0010
0000
0100
0001
0100
0000
0010
0000
1000
0000
0001
1000
,
0001
0000
0010
0000
0100
0000
1000
0001
1000
0010
0100
0001
1000
0100
0010
0001
,
0100
0010
1000
0001
0010
0100
1000
0001
0100
0010
1000
0100
0010
0000
0000
0000
,
0001
0000
0100
0000
0010
1000
0001
0010
0100
1000
0001
0010
0001
1000
0100
0010
,
0001
1000
0010
0100
0001
0010
0001
0100
0010
1000
0001
0100
0010
1000
0001
0010
,
0001
1000
0010
0100
0001
0010
0001
1000
0100
0010
0001
0010
0100
1000
0001
0100
,
0010
1000
0010
1000
0001
0100
0010
1000
0100
0010
0001
0010
0100
1000
0001
0010
,
0001
0100
0010
1000
0010
0100
0001
0100
0010
1000
0100
1000
0001
0010
0100
1000
,
0001
1000
0010
0100
0001
1000
0100
0010
0001
0010
0100
1000
0001
0100
0010
1000
,
0100
0010
0001
0100
0001
0000
0000
0000
0000
0000
1010
0000
0000
0000
1000
0000
,
1001
0000
1001
0000
0000
0000
0001
1000
,
0100
0000
0010
0000
0001
1000
0010
0100
0001
1000
0010
0100
0001
1000
0100
0010
,
0100
1000
0001
0100
0010
1000
0001
0010
0100
1000
0001
0100
0010
1000
0100
0010
,
0100
1000
0001
0010
0100
1000
0001
0010
0001
1000
0010
0100
0001
0010
0100
1000
,
0001
0100
0010
1000
0001
0010
0100
1000
0001
0100
0010
1000
0001
0100
0010
0100
,
0001
0100
0010
1000
0100
0010
0100
1000
0001
0010
0100
0010
0001
1000
0100
0010
,
0100
1000
0001
0010
0001
1000
0100
0010
0001
0010
0100
1000
0001
0100
0001
1000
,
0100
0010
0001
0100
0001
0000
0000
0000
0001
0000
0101
0000
0000
0000
0010
0000
,
1010
0000
1001
0000
0001
0100
0000
0000
,
0010
1000
1010
0000
1000
0001
0100
0010
,
1000
1000
0000
0010
0100
0001
0100
0000
,
0010
1000
0001
0000
0100
0010
1000
0100
,
0000
0010
0000
0011
0001
0000
1001
0000
,
0001
0100
0010
0000
1000
0010
2000
3010
,
0000
0100
0000
0001
0010
0000
1001
0000
,
1010
0000
1001
0000
0000
0110
0000
0000
,
1010
0000
0000
1001
0000
0000
0101
0000
,
0010
0000
1000
0000
0001
0010
0100
1000
0001
0100
0010
1000
0100
0010
0001
0010
,
0100
1000
0001
0100
0010
0100
0001
0010
0100
1000
0001
0100
0010
1000
0100
0010
,
0001
1000
0010
1000
0001
0010
0100
1000
0001
0010
0001
1000
0010
0100
0001
1000
,
0100
0010
0001
0010
0100
1000
0001
0100
0010
1000
0100
0010
0001
0010
0100
1000
,
0001
0100
0010
1000
0100
0010
0100
1000
0001
0100
0010
1000
0001
0010
0100
1000
,
0100
0010
0001
0100
0010
1000
0100
0010
0001
0010
0100
1000
0001
0010
0100
1000
,
0100
0010
0001
0100
0010
0000
0000
0000
0000
0000
1010
0000
0000
0000
0000
0000
,
0101
0000
0000
1001
0000
0000
0001
0000
,
0010
0000
0011
0001
0100
0010
1000
0100
,
0010
0001
0100
0010
1000
0001
0010
0100
,
1000
0001
0100
0010
1000
0100
0010
0001
,
0100
0000
0010
0000
1000
0000
0001
0000
0100
0000
0001
0000
0100
0000
0001
0100
,
0001
1000
0100
0010
0001
0010
0100
1000
,
0001
0100
0010
1000
0100
0010
0001
1000
,
0001
0000
1001
0000
0000
0110
0000
0000
,
0011
0000
0000
1001
0000
0000
0010
0000
,
0100
0000
1001
0001
0100
0010
1000
0100
,
0010
0100
1000
0001
0010
0100
1000
0001
,
0100
0010
1000
0100
0010
0100
1000
0001
,
0010
0100
1000
0001
0100
0010
1000
0100
,
0010
0000
0001
0000
1000
0000
0010
1000
0010
0000
0100
0000
0001
0000
0100
0001
,
0100
0000
0010
0000
1000
0000
0010
0100
0001
0000
0100
0010
1000
0100
0010
0100
,
1000
0001
0100
0010
1000
0001
0010
0100
1000
0001
0100
0010
1000
0100
0010
0001
,
0010
0100
1000
0001
0100
0010
1000
0100
0010
0100
1000
0001
0010
0100
1000
0001
,
0100
0010
1000
0100
2000
0000
0000
0000
3020
0000
0000
0000
0000
0000
0000
0000
,
0030
0000
0000
0000
0200
0000
0000
0000
0000
0000
0000
0000
0001
0000
0000
0001
,
0300
0001
0200
0000
0320
0000
0000
0000
,
0030
0000
0000
0000
2000
0000
0000
0000
0000
0000
0000
0000
3010
0000
0000
0100
,
0000
0001
0020
0000
0230
0000
0000
0000
,
0000
0000
0000
0000
2300
0000
0000
0000
0000
0000
0000
0000
3001
0000
0000
0001
,
0000
0001
0200
0000
0320
0000
0000
0000
,
0000
0000
0000
0000
2030
0000
0000
0000
0000
0000
0000
0000
3001
0000
0000
0001
,
0000
0001
2000
0000
3020
0000
0000
0130
,
0001
0010
0002
0000
0000
0000
0003
0000
,
0100
1001
1001
1001
,
0110
0011
1100
0010
,
0100
0010
2002
0000
,
0000
0000
3003
0000
;
