#TITLE:Twinkle Of The Stars, Little Stars, Shining Stars;
#SUBTITLE:;
#ARTIST:Strawberry Machine feat. YMCK;
#TITLETRANSLIT:;
#SUBTITLETRANSLIT:;
#ARTISTTRANSLIT:;
#CREDIT:owenviau1;
#BANNER:../BN.PNG;
#BACKGROUND:;
#LYRICSPATH:;
#CDTITLE:../CDTitleOV1.png;
#MUSIC:Strawberry Machine feat. YMCK - Twinkle Of The Stars, Little Stars, Shining Stars.ogg;
#OFFSET:-0.507;
#SAMPLESTART:89.208;
#SAMPLELENGTH:29.999;
#SELECTABLE:YES;
#DISPLAYBPM:186.000;
#BPMS:0.000=186.000,420.000=991.999,435.000=744.000,436.000=186.000;
#STOPS:;
#BGCHANGES:;
// cache tags:
#FIRSTBEAT:0.000;
#LASTBEAT:616.000;
#SONGFILENAME:Songs/owenviau1 Simfiles 07_final/Twinkle Of The Stars, Little Stars, Shining Stars - [owenviau1] v1.0.5/Twinkle Of The Stars, Little Stars, Shining Stars.sm;
#HASMUSIC:1;
#HASBANNER:1;
#MUSICLENGTH:196.153;
// end cache tags

//---------------dance-single - owenviau1----------------
#NOTES:
     dance-single:
     owenviau1:
     Challenge:
     17:
     1.000,1.000,0.010,0.122,1.000,2068.000,2.000,24.000,23.000,0.000:
2000
0000
0000
3000
0000
0000
0200
0000
0000
0300
0000
0000
0020
0000
0000
0000
0000
0000
0000
0000
0000
0030
0000
0000
0000
0000
0000
0000
0000
0000
0000
0000
0000
0000
0000
0000
0000
0000
0000
0000
0000
0000
0000
0000
0000
0000
0000
0000
0000
0000
0000
0000
0000
0000
0000
0000
0000
0000
0000
0000
0001
0000
0000
0000
0010
0000
0000
0000
0100
0000
0000
0000
1000
0000
0000
0000
0001
0000
0000
0000
1000
0000
0000
0000
0010
0000
0000
0000
0100
0000
0000
0000
0001
0000
0000
0000
,
0100
0010
1000
0001
1000
0100
0010
0001
1000
0001
0100
0010
1000
0000
0000
0000
0000
0000
0000
0000
0000
0000
0000
0000
,
0002
0003
0020
0030
0200
2300
3000
0002
0003
0200
0300
0020
0030
2000
3002
0003
,
0010
0000
0000
0000
0200
0000
0000
0300
0000
0000
0000
0000
2000
0000
0000
3000
0000
0000
0000
0000
0002
0000
0003
0000
0200
0000
0300
0000
0020
0000
0000
0000
,
0000
0000
0000
0000
1030
0000
0001
0000
0000
0000
0200
0000
0301
1000
0001
0100
,
0010
1000
0010
0100
0001
1000
0001
0010
0100
1000
0001
0010
0001
0100
0010
0100
,
0001
1000
0100
0010
0001
1000
0100
1000
0010
0100
0001
0100
0010
1000
0001
1000
,
0100
0010
0001
1000
0010
1000
0001
0100
0010
1000
0010
0100
0001
1000
0001
0010
,
0100
1000
0001
0010
0001
0100
0010
1000
0010
0100
0001
1000
0001
0100
0010
1000
,
0001
0100
0001
0010
0100
1000
0001
0010
0001
0100
0010
1000
0010
0100
0001
1000
,
0001
0010
0100
1000
0001
0010
0001
0100
0010
0100
0001
1000
0010
1000
0100
0010
,
0001
1000
0001
0100
0010
1000
0010
0100
0001
1000
0001
0010
0100
1000
0100
0010
,
0001
1000
0100
1000
0001
0010
0001
1000
0100
0010
0001
0100
0010
1000
0010
0100
,
0001
1000
0001
0010
0100
1000
0001
0100
0001
1000
0010
0100
0001
0100
0010
1000
,
0010
0100
0001
1000
0001
0010
0100
1000
0001
0010
0001
0100
0010
0100
0001
1000
,
0010
1000
0100
0010
0001
1000
0100
1000
0010
0100
0010
1000
0001
1000
0100
0010
,
0001
0100
0010
1000
0010
0100
0001
1000
0010
0100
0010
1000
0001
0000
0100
0010
,
1000
0000
0001
0000
0010
0000
0100
0000
1000
0001
1000
0010
0100
0000
0001
1000
,
0001
0000
0010
0000
0100
1000
0001
0100
0001
0010
0100
1000
0001
0000
0100
0010
,
1000
0000
0001
0000
1000
0000
0100
0000
0010
0001
1000
0010
0100
0000
0001
0000
,
1000
0000
0001
0010
0100
1000
0001
0000
0100
0010
0000
0100
0001
0000
1000
0000
,
0100
0000
0010
0001
1000
0000
0001
0000
0100
0000
0010
0000
0100
0000
0001
1000
,
0001
0000
0010
0000
0100
0000
1000
0000
0001
0100
0001
1000
0010
0000
0100
0000
,
0001
0000
1000
0010
1000
0000
0100
0010
0001
1000
0010
0100
0010
0000
1000
0001
,
1000
0000
0100
0000
0010
0000
0001
0000
1000
0000
0000
0000
0010
0000
0000
0100
0001
0000
1000
0000
0010
0000
1000
0000
0001
0000
0000
0000
0010
0000
0000
0100
,
1000
0000
0001
0100
0010
0000
1000
0001
1000
0100
0010
0001
0100
0000
0010
1000
,
0010
0000
0100
0001
1000
0001
0010
0100
1000
0001
0100
0001
0010
0000
0100
1000
,
0001
0000
1000
0010
0100
0000
0001
1000
0001
0100
0010
1000
0001
0000
0010
0100
,
1000
0100
0010
0001
1000
0001
0010
0100
1000
0100
0010
0001
1000
0000
0010
0100
,
0001
0000
1000
0100
1000
0010
0100
0001
1000
0010
0100
0010
1000
0000
0001
0100
,
0010
0000
1000
0001
1000
0010
0100
0001
0100
0000
0010
1000
0010
0000
0100
0001
,
1000
0001
0010
0100
1000
0010
0100
0001
0100
0000
0010
1000
0001
0010
0001
0100
,
0010
0000
0000
1000
0000
0000
0001
0000
0100
0000
0001
0000
1000
0000
0000
0000
0000
0000
0010
0000
0000
0000
0000
0000
0000
0000
0000
0000
0000
0000
2000
0000
0000
0000
0000
0000
3010
0000
0000
0100
0000
0000
0010
0000
0000
1000
0000
0000
,
0001
1000
0010
0100
0001
1000
0001
0010
0100
1000
0001
0010
0001
0100
0010
0100
,
0001
1000
0100
0010
0001
1000
0100
1000
0010
0100
0001
0100
0010
1000
0001
1000
,
0100
0010
0001
1000
0010
1000
0001
0100
0010
1000
0010
0100
0001
1000
0001
0010
,
0100
1000
0001
0010
0001
0100
0010
1000
0010
0100
0001
1000
0001
0100
0010
1000
,
0001
0100
0001
0010
0100
1000
0001
0010
0001
0100
0010
1000
0010
0100
0001
1000
,
0001
0010
0100
1000
0001
0010
0001
0100
0010
0100
0001
1000
0010
1000
0100
0010
,
0001
1000
0001
0100
0010
1000
0010
0100
0001
1000
0001
0010
0100
1000
0100
0010
,
0001
1000
0100
1000
0001
0010
0001
1000
0100
0010
0001
0100
0010
1000
0010
0100
,
0001
1000
0001
0010
0100
1000
0001
0100
0001
1000
0010
0100
0001
0100
0010
1000
,
0010
0100
0001
1000
0001
0010
0100
1000
0001
0010
0001
0100
0010
0100
0001
1000
,
0010
1000
0100
0010
0001
1000
0100
1000
0010
0100
0010
1000
0001
1000
0100
0010
,
0001
0100
0010
1000
0010
0100
0001
1000
0010
0100
0010
1000
0001
0000
0100
0010
,
1000
0000
0001
0000
0010
0000
0100
0000
1000
0001
1000
0010
0100
0000
0001
1000
,
0001
0000
0010
0000
0100
1000
0001
0100
0001
0010
0100
1000
0001
0000
0100
0010
,
1000
0000
0001
0000
1000
0000
0100
0000
0010
0001
1000
0010
0100
0000
0001
0000
,
1000
0000
0001
0010
0100
1000
0001
0000
0100
0010
0000
0100
0001
0000
1000
0000
,
0100
0000
0010
0001
1000
0000
0001
0000
0100
0000
0010
0000
0100
0000
0001
1000
,
0001
0000
0010
0000
0100
0000
1000
0000
0001
0100
0001
1000
0010
0000
0100
0000
,
0001
0000
1000
0010
1000
0000
0100
0010
0001
1000
0010
0100
0010
0000
1000
0001
,
1000
0000
0100
0000
0010
0000
0001
0000
1000
0000
0000
0000
0010
0000
0000
0100
0001
0000
1000
0000
0010
0000
1000
0000
0001
0000
0000
0000
0010
0000
0000
0100
,
1000
0000
0001
0100
0010
0000
1000
0001
1000
0100
0010
0001
0100
0000
0010
1000
,
0010
0000
0100
0001
1000
0001
0010
0100
1000
0001
0100
0001
0010
0000
0100
1000
,
0001
0000
1000
0010
0100
0000
0001
1000
0001
0100
0010
1000
0001
0000
0010
0100
,
1000
0100
0010
0001
1000
0001
0010
0100
1000
0100
0010
0001
1000
0000
0010
0100
,
0001
0000
1000
0100
1000
0010
0100
0001
1000
0010
0100
0010
1000
0000
0001
0100
,
0010
0000
1000
0001
1000
0010
0100
0001
0100
0000
0010
1000
0010
0000
0100
0001
,
1000
0001
0010
0100
1000
0010
0100
0001
0100
0000
0010
1000
0001
0010
0001
0100
,
0010
0000
0000
1000
0000
0000
0001
0000
0100
0000
0001
0000
1000
0000
0010
0000
0100
0000
0010
0000
1000
0000
0001
0000
0100
0000
0010
0000
0100
0000
0001
0000
1000
0000
0001
0000
0010
0000
0000
0100
0000
0000
1000
0000
0000
0001
0000
0000
,
0100
0010
0100
0001
1000
0010
1000
0100
0010
0001
0100
0010
1000
0001
0100
0001
,
1000
0100
0010
0001
0100
0010
0100
0001
1000
0001
0100
0010
0100
0001
1000
0010
,
0100
0010
1000
0001
1000
0010
0100
0001
1000
0100
0010
0001
1000
0100
1000
0001
,
0010
0001
0100
0010
0100
0001
1000
0010
1000
0001
0100
0001
1000
0100
0010
0001
,
0100
0010
0100
0001
1000
0001
0010
0100
1000
0100
0010
0001
0100
0010
0100
0001
,
1000
0001
0100
0010
1000
0010
0100
0001
1000
0001
0010
0100
1000
0001
0010
0001
,
0100
0010
0100
0001
1000
0001
0100
0010
0100
0001
1000
0010
1000
0100
0010
0001
,
1000
0100
1000
0001
0100
0010
0100
0001
1000
0001
0010
0100
1000
0010
0100
0001
,
0100
0010
1000
0001
1000
0100
0010
0001
0100
0001
1000
0010
0100
0001
1000
0010
,
0100
0010
1000
0001
0010
0100
1000
0001
0010
0001
0100
0010
0100
0001
1000
0001
,
0100
0010
0100
0001
1000
0010
1000
0001
0100
0010
0100
0001
1000
0100
0010
0001
,
1000
0100
1000
0001
0010
0001
0100
0010
0100
0001
1000
0001
0100
0010
1000
0010
,
0100
0001
1000
0001
0010
0100
1000
0001
0010
0001
0100
0010
1000
0001
0100
0001
,
1000
0100
0010
0001
0100
0010
1000
0001
0100
0001
1000
0010
0100
0001
0100
0010
,
1000
0001
1000
0100
0010
0001
0100
0010
1000
0001
0100
0001
0010
0100
1000
0001
,
0010
0001
1000
0100
1000
0001
0010
0100
1000
0001
0100
0001
1000
0010
0100
0001
,
0100
0010
1000
0001
1000
0100
0010
0001
1000
0010
1000
0100
0010
0001
0100
0001
,
1000
0010
0100
0010
1000
0001
0100
0001
0010
0100
1000
0001
0010
0001
0100
0010
,
0100
0001
1000
0100
1000
0001
0100
0010
0100
0001
1000
0001
0010
0100
1000
0001
,
0010
0001
0100
0010
1000
0001
1000
0100
0010
0001
0100
0010
1000
0001
0100
0001
,
1000
0100
0010
0001
0100
0010
0100
0001
1000
0001
0100
0010
0100
0001
1000
0010
,
0100
0010
1000
0001
1000
0010
0100
0001
1000
0100
0010
0001
1000
0100
1000
0001
,
0010
0001
0100
0010
0100
0001
1000
0010
1000
0001
0100
0001
1000
0100
0010
0001
,
0100
0010
0100
0001
1000
0001
0010
0100
1000
0100
0010
0001
0100
0010
0100
0001
,
1000
0001
0100
0010
1000
0010
0100
0001
1000
0001
0010
0100
1000
0001
0010
0001
,
0100
0010
0100
0001
1000
0001
0100
0010
0100
0001
1000
0010
1000
0100
0010
0001
,
1000
0100
1000
0001
0100
0010
0100
0001
1000
0001
0010
0100
1000
0010
0100
0001
,
0100
0010
1000
0001
1000
0100
0010
0001
0100
0001
1000
0010
0100
0001
1000
0010
,
0100
0010
1000
0001
0010
0100
1000
0001
0010
0001
0100
0010
0100
0001
1000
0001
,
0100
0010
0100
0001
1000
0010
1000
0001
0100
0010
0100
0001
1000
0100
0010
0001
,
1000
0100
1000
0001
0010
0001
0100
0010
0100
0001
1000
0001
0100
0010
1000
0010
,
0100
0001
1000
0001
0010
0100
1000
0001
0010
0001
0100
0010
1000
0001
0100
0001
,
1000
0100
0010
0001
0100
0010
1000
0001
0100
0001
1000
0010
0100
0001
0100
0010
,
1000
0001
1000
0100
0010
0001
0100
0010
1000
0001
0100
0001
0020
0130
1000
0001
,
0010
0001
1000
0100
2000
3001
0010
0100
1000
0001
0100
0001
2000
3010
0100
0001
,
0100
0010
1000
0004
1003
0100
0010
0001
0100
0010
0100
0001
4000
0004
0000
0000
,
0000
0000
0000
0000
,
0000
0000
0000
0000
,
0000
0000
0000
0000
,
0000
0000
0000
0000
,
0000
0000
0000
0000
,
0000
0000
0000
0000
,
0000
0000
0000
0000
,
0000
0000
0000
0000
0000
0000
0000
0000
0000
0000
3003
0000
1000
0100
0010
0001
,
0100
0000
0000
0000
0000
0010
0000
0000
0000
0000
1000
0000
0000
0000
0000
0100
,
0000
0000
0000
0000
1000
0000
0000
0000
0000
0001
0000
0000
0000
0000
0100
0000
,
0000
0000
0000
0010
0000
0000
0000
0000
0100
0000
0000
0000
0000
0001
0000
0000
,
0000
0000
1000
0000
0000
0000
0000
0010
0000
0000
0000
0000
0100
0000
0000
0000
,
0001
1000
0001
0100
0010
1000
0010
0100
0001
1000
0001
0100
0010
1000
0001
0100
,
0001
0010
0100
1000
0001
0010
0001
0100
0010
0100
0001
1000
0100
0010
0001
1000
,
0100
1000
0001
0010
0100
1000
0001
0100
0001
1000
0010
0100
0001
0100
0010
1000
,
0001
0100
0001
1000
0100
0010
0001
1000
0100
1000
0001
0010
0001
0100
0010
1000
,
0010
0100
0001
1000
0001
0100
0010
1000
0001
0100
0001
1000
0100
0010
0001
1000
,
0010
0100
0001
0100
0010
1000
0001
1000
0100
0010
0001
1000
0010
1000
0100
0010
,
0001
1000
0010
0100
0001
1000
0010
0100
0010
1000
0001
1000
0010
0100
0001
1000
,
0100
0010
0001
1000
0100
1000
0001
0010
0001
0100
0010
0100
0001
1000
0010
1000
,
0001
0100
0001
1000
0100
0010
0001
0100
0010
0100
0001
1000
0001
0010
0100
1000
,
0100
0010
0001
0100
0010
0100
0001
1000
0001
0100
0010
1000
0010
0100
0001
1000
,
0001
0010
0100
1000
0001
0010
0001
0100
0010
0100
0001
1000
0001
0100
0010
0100
,
0001
1000
0010
1000
0100
0010
0001
1000
0100
1000
0001
0100
0010
0100
0001
1000
,
0001
0010
0100
1000
0010
0100
0001
0100
0010
1000
0001
1000
0100
0010
0001
0100
,
0001
1000
0010
0100
0001
1000
0010
0100
0010
1000
0001
0010
0100
1000
0001
0010
,
0001
0100
0010
0100
0001
1000
0001
0100
0010
0100
0001
1000
0010
1000
0001
0100
,
0010
0100
0001
1000
0100
0010
0001
1000
0100
1000
0001
0010
0001
0100
0010
0100
,
0001
1000
0001
0100
0010
1000
0010
0100
0001
1000
0001
0010
0100
1000
0001
0010
,
0001
0100
0010
1000
0001
0100
0001
1000
0100
0010
0001
0100
0010
1000
0001
0100
,
0001
1000
0010
0100
0001
0100
0010
1000
0001
1000
0100
0010
0001
0100
0010
1000
,
0001
0100
0001
0010
0100
1000
0001
0010
0001
1000
0100
1000
0001
0010
0100
1000
,
0001
0100
0001
1000
0010
0100
0001
0100
0010
1000
0001
1000
0100
0010
0001
1000
,
0010
1000
0100
0010
0001
0100
0001
1000
0010
0100
0010
1000
0001
0100
0001
0010
,
0100
1000
0001
0010
0001
0100
0010
0100
0001
1000
0100
1000
0001
0100
0010
0100
,
0001
1000
0001
0010
0100
1000
0001
0010
0001
0100
0010
1000
0001
1000
0100
0010
,
0001
0100
0010
1000
0001
0100
0001
1000
0100
0010
0001
0100
0010
0100
0001
1000
,
0001
0100
0010
0100
0001
1000
0010
0100
0010
1000
0001
1000
0010
0100
0001
1000
,
0100
0010
0001
1000
0100
1000
0001
0010
0001
0100
0010
0100
0001
1000
0010
1000
,
0001
0100
0001
1000
0100
0010
0001
0100
0010
0100
0001
1000
0001
0010
0100
1000
,
0100
0010
0001
0100
0010
0100
0001
1000
0001
0100
0010
1000
0010
0100
0001
1000
,
0001
0010
0100
1000
0001
0010
0001
0100
0010
0100
0001
1000
0001
0100
0010
0100
,
0001
1000
0010
1000
0100
0010
0001
1000
0100
1000
0001
0100
0010
0100
0001
1000
,
0001
0010
0100
1000
0010
0100
0001
0100
0010
1000
0001
1000
0100
0010
0001
0100
,
0001
1000
0010
0100
0001
1000
0010
0100
0010
1000
0001
0010
0100
1000
0001
0010
,
0001
0100
0010
0100
0001
1000
0001
0100
0010
0100
0001
1000
0010
1000
0001
0100
,
0010
0100
0001
1000
0100
0010
0001
1000
0100
1000
0001
0010
0001
0100
0010
0100
,
0001
1000
0001
0100
0010
1000
0010
0100
0001
1000
0001
0010
0100
1000
0001
0010
,
0001
0100
0010
1000
0001
0100
0001
1000
0100
0010
0001
0100
0010
1000
0001
0100
,
0001
1000
0010
0100
0001
0100
0010
1000
0001
1000
0100
0010
0001
0100
0010
1000
,
0001
0100
0001
1000
0100
0010
0001
1000
0010
0100
0001
0100
0010
1000
0001
0100
,
0001
1000
0100
1000
0010
0100
0010
1000
0001
0010
0100
1000
0001
0100
0002
0000
,
0000
0000
0000
0000
0000
0000
0000
M000
00M0
0000
0M00
00M0
0000
0000
M000
0M00
,
M003
00M0
0M00
0000
0000
0000
000M
M000
0M00
00M0
000M
0M00
0000
00M0
M000
000M
,
0M00
00M0
0M00
000M
M000
0000
0000
0000
0000
0000
0000
0000
0000
0000
0000
0000
,
0000
0000
0000
0000
0000
0000
0000
0000
0000
2000
0000
0000
0000
0000
0000
0000
,
0000
0000
0000
0000
,
3000
0000
0000
0000
;
