#TITLE:Sayonara Heaven;
#SUBTITLE:;
#ARTIST:Nekomata Master;
#TITLETRANSLIT:;
#SUBTITLETRANSLIT:;
#ARTISTTRANSLIT:;
#CREDIT:;
#BANNER:Sayonara Heaven.PNG;
#BACKGROUND:Sayonara Heaven-bg.PNG;
#LYRICSPATH:;
#CDTITLE:;
#MUSIC:Sayonara Heaven.mp3;
#OFFSET:-0.780;
#SAMPLESTART:69.345;
#SAMPLELENGTH:12.000;
#SELECTABLE:YES;
#BPMS:0.000=111.000;
#STOPS:;
#BGCHANGES:;
// cache tags:
#FIRSTBEAT:15.000;
#LASTBEAT:220.000;
#SONGFILENAME:Songs/toune/Sayonara Heaven/Sayonara Heaven.sm;
#HASMUSIC:1;
#HASBANNER:1;
#MUSICLENGTH:122.621;
// end cache tags

//---------------dance-single - MANIAC----------------
#NOTES:
     dance-single:
     MANIAC:
     Hard:
     8:
     0.493,0.561,0.302,0.603,0.135,312.000,37.000,74.000,0.000,0.000:

0000
0000
0000
0000
,
0000
0000
0000
0000
,
0000
0000
0000
0000
,
0000
0000
0000
0000
0000
0000
0001
0010
,
0100
0000
0000
1100
0000
0000
0101
0000
0000
0000
0011
0000
0000
0000
1010
0000
,
0000
0000
0000
1100
0000
0000
0101
0000
0000
0000
1000
0000
0001
0000
0010
0000
,
0100
0000
0000
1100
0000
0000
1010
0000
0000
0000
0000
0001
1000
0000
0010
0000
,
2000
3020
0230
0302
,
2003
3002
0023
0230
,
0320
0032
0203
0320
,
1030
0010
1000
0100
1000
0010
0001
0010
,
0100
0000
0001
1000
0100
0000
1000
0000
,
0010
1000
0100
0000
2000
0000
3002
0000
,
0203
0000
0320
0230
,
0301
0000
0010
0000
0100
0000
1000
0000
1001
0000
0000
0001
0100
0000
0001
0000
,
0101
0000
0000
1000
0000
0000
0010
0000
0100
0000
0000
0000
0010
0000
0100
0000
,
0010
1000
0001
0010
0200
0000
0310
0100
,
0020
0000
0130
1000
0020
0000
1030
0100
,
2000
0000
3001
0100
0001
0000
0001
1000
,
0100
0000
0000
0010
0000
0000
0001
0000
2000
0000
0000
0000
3001
0000
0100
0000
,
0010
1000
0010
0100
0002
0000
1003
0001
,
2000
0000
3001
0100
0020
0000
1030
0100
,
2000
0000
0000
0000
3010
0000
0100
0000
0001
0000
0000
1000
0001
0000
0000
0000
,
2001
0000
3010
0100
0001
1001
0110
0000
,
0201
0000
0310
1000
0100
1100
1001
0000
,
0120
0000
0000
0000
1030
0000
0010
0000
0100
0000
0000
0001
0100
0000
0001
0000
,
0200
0000
2300
0000
3200
0000
0301
1000
,
1001
0000
0000
0110
0000
0000
1000
0000
0001
0000
0110
0000
1001
0000
0000
0000
,
0011
0000
0000
0110
0000
0000
0100
0000
1000
0000
0101
0000
1100
0000
0000
0000
,
0010
0000
0000
0100
0000
0000
0010
0000
2000
0000
0000
0000
3010
0000
0001
0000
,
0020
2030
3200
0301
,
0100
0000
0000
0000
0010
0000
0000
0000
0100
0000
0000
0000
0000
0000
0000
0000
1000
0000
0000
0000
0001
0000
0000
0000
1000
0000
0000
0000
0000
0000
0000
0000
0000
0100
0000
0000
0001
0000
0000
0000
0000
0000
1000
0000
0000
0000
0000
0000
,
0020
0000
0000
0000
0130
0001
0100
0000
0020
0000
0000
0000
1030
0100
1000
0000
,
0020
0000
0000
0000
0130
0010
0100
0000
0002
0000
0000
0000
1003
0000
0010
0000
,
0200
0000
0000
0000
0301
1000
0001
0000
0100
0000
0010
0000
1000
0000
0001
0000
,
1000
0010
0100
0001
0020
0000
0130
1000
,
0002
0000
0000
0000
0013
0100
0010
0000
0002
0000
0000
0000
0103
0010
0100
0000
,
0002
0000
0000
0000
1003
0001
1000
0000
0200
0000
0000
0000
0310
0000
0001
0000
,
2000
0000
0000
0000
3010
0100
0010
0000
1000
0000
0100
0000
0010
0000
0001
0000
,
1000
0001
0010
0100
2000
0000
3100
1000
,
0020
0000
0000
0000
0130
0001
1000
0000
0200
0000
0000
0000
0310
0001
1000
0000
,
0020
0000
0000
0000
0130
0001
1000
0000
0200
0000
0000
0000
0310
0000
0001
0000
,
2000
0000
0000
0000
3010
0100
0001
0000
1000
0000
0100
0000
0010
0000
0001
0000
,
1000
0001
0010
0100
2000
0000
3010
1000
,
1001
0000
0000
0101
0000
0000
0101
0000
1001
0000
0000
1100
0000
0000
1100
0000
,
1001
0000
0000
1010
0000
0000
0110
0000
2002
0000
3003
0000
0100
0000
0010
0000
,
2000
0000
3100
0100
0010
0001
0100
0001
,
0020
0032
0203
0320
,
2030
3020
0032
0023
,
0230
0301
2000
3100
,
0010
0100
0001
0010
0100
1000
0010
0100
,
0002
1000
0100
2003
,
3200
0310
0002
1003
,
0201
0310
1200
0310
,
0001
0000
0100
0000
1000
0000
0100
0000
0001
0000
0000
1000
0002
0000
0000
0000
,
0003
0000
0000
0000;

//---------------dance-single - CHALLENGE----------------
#NOTES:
     dance-single:
     CHALLENGE:
     Challenge:
     9:
     0.531,0.561,0.473,0.220,0.249,371.000,58.000,27.000,0.000,0.000:

0000
0000
0000
0000
,
0000
0000
0000
0000
,
0000
0000
0000
0000
,
0000
0000
0000
0000
0000
0000
0001
0010
,
0100
0000
0000
0000
0000
0000
0000
0000
0000
1000
0000
0000
0001
0000
0000
0000
0000
1000
0100
0000
0000
0000
0000
0000
0010
0000
0000
0000
0000
0000
0000
0000
0000
0001
0000
0000
1000
0000
0000
0000
0000
0001
0100
0000
0000
0000
0000
0000
,
0010
0000
0000
0000
0000
0000
0000
0000
0000
1000
0000
0000
0001
0000
0000
0000
0000
1000
0100
0000
0000
0000
0000
0000
0010
0000
0000
0000
0000
0000
0000
0000
0000
0000
0000
0000
0010
0000
0000
0000
0000
0000
0001
0000
0000
0000
0000
0000
,
0100
0000
0000
0000
0000
0000
0000
0000
0000
0010
0000
0000
1000
0000
0000
0000
0000
0010
0100
0000
0000
0000
0000
0000
0001
0000
0000
0000
0000
0000
1000
0000
0000
0100
0000
0000
0100
0000
0000
0000
0000
0000
1000
0000
0000
0000
0000
0000
,
2002
0000
0000
0000
3003
0000
0001
1000
,
1001
0100
0001
0101
0010
0110
1000
1010
,
0100
0001
0100
1001
0010
0110
1000
1010
,
0100
0001
0100
0100
0001
0010
1000
0010
,
0010
0001
0100
1001
0100
0001
1000
1010
,
0100
1000
0100
1001
0010
0001
0100
1001
,
0100
0010
0100
0001
0100
1000
0100
0100
,
0001
0000
0010
0000
0100
0000
1000
0000
1001
0000
0000
0010
0100
0000
0010
0000
,
0110
0000
0000
1000
0000
0000
0010
0000
0102
0000
0000
0000
0013
0000
0100
0000
,
0010
0001
0100
1000
0201
0000
0310
0100
,
1020
0000
0130
0001
0021
0000
0130
1000
,
2001
0000
0000
0000
3001
0000
0100
0000
0201
0000
0000
0000
0301
0000
1000
0100
,
1000
0000
0000
0010
0000
0000
0001
0000
0210
0000
0000
0000
0301
0000
0100
0000
,
0010
1000
0010
0100
0102
0000
1003
0001
,
2100
0000
3001
0100
0120
0000
1030
0010
,
2010
0000
0000
0000
3010
0000
0100
0000
1001
0000
0000
1000
0001
0000
1000
0001
,
2000
0000
0000
0000
3010
0000
0100
0000
0001
0000
1001
0000
0110
0000
1000
0001
,
0200
0000
0000
0000
0310
0000
1000
0000
0100
0000
1100
0000
1001
0000
0001
0100
,
0020
0000
0000
0000
1030
0000
0010
0000
0100
0000
0000
0001
0100
0000
0001
0000
,
0120
0000
0000
0000
1000
0000
0000
0000
0130
0000
0000
0000
0101
0000
1000
0001
,
1000
0000
0000
0110
0000
0000
1000
0000
0001
0000
0110
0000
1001
0000
0010
0100
,
0010
0000
0000
1100
0000
0000
0001
0000
1000
0000
0101
0000
1100
0000
1000
0010
,
1000
0000
0000
0100
0000
0000
0010
0000
2000
0000
0000
0000
3010
0000
0001
0000
,
0120
0001
0230
0301
,
0100
0000
0000
0000
0010
0000
0000
0000
0110
0000
0000
0000
0000
0000
0000
0000
1000
0000
0000
0000
0001
0000
0000
0000
1001
0000
0000
0000
0000
0000
0000
0000
0000
0100
0000
0000
0010
0000
0000
0000
0000
0000
1000
0000
0000
0000
0000
0000
,
0010
0000
0000
0000
0000
0000
0000
0000
0000
0100
0000
0000
0001
0000
0000
0000
0000
1000
0100
0000
0000
0000
0000
0000
0010
0000
0000
0000
0000
0000
0000
0000
0000
0100
0000
0000
1000
0000
0000
0000
0000
0001
0100
0000
0000
0000
0000
0000
,
0010
0000
0000
0000
0000
0000
0000
0000
0000
0100
0000
0000
0001
0000
0000
0000
0000
1000
0100
0000
0000
0000
0000
0000
0010
0000
0000
0000
0000
0000
0000
0000
0000
0000
0000
0000
0001
0000
0000
0000
0000
0000
0010
0000
0000
0000
0000
0000
,
0100
0000
0000
0000
0000
0000
0000
0000
0000
0010
0000
0000
0001
0000
0000
0000
0000
1000
0001
0000
0000
0000
0000
0000
0100
0000
0000
0000
0000
0000
0010
0000
0000
0000
0000
0000
1000
0000
0000
0000
0000
0000
0001
0000
0000
0000
0000
0000
,
1000
0010
0100
0001
0010
0000
0100
1000
,
0001
0000
0000
0000
0000
0000
0000
0000
0000
0010
0000
0000
0100
0000
0000
0000
0000
1000
0100
0000
0000
0000
0000
0000
0001
0000
0000
0000
0000
0000
0000
0000
0000
0100
0000
0000
1000
0000
0000
0000
0000
0100
0010
0000
0000
0000
0000
0000
,
0001
0000
0000
0000
0000
0000
0000
0000
0000
0010
0000
0000
0100
0000
0000
0000
0000
1000
0100
0000
0000
0000
0000
0000
0001
0000
0000
0000
0000
0000
0000
0000
0000
0000
0000
0000
0100
0000
0000
0000
0000
0000
1000
0000
0000
0000
0000
0000
,
0010
0000
0000
0000
0000
0000
0000
0000
0000
0100
0000
0000
0001
0000
0000
0000
0000
0100
0010
0000
0000
0000
0000
0000
1000
0000
0000
0000
0000
0000
0100
0000
0000
0000
0000
0000
0010
0000
0000
0000
0000
0000
0001
0000
0000
0000
0000
0000
,
1000
0001
0010
0100
1000
0000
0110
1000
,
0010
0000
0000
0000
0000
0000
0000
0000
0000
0100
0000
0000
0001
0000
0000
0000
0000
1000
0001
0000
0000
0000
0000
0000
0100
0000
0000
0000
0000
0000
0000
0000
0000
0010
0000
0000
1000
0000
0000
0000
0000
0001
1000
0000
0000
0000
0000
0000
,
0100
0000
0000
0000
0000
0000
0000
0000
0000
0010
0000
0000
0001
0000
0000
0000
0000
1000
0001
0000
0000
0000
0000
0000
0100
0000
0000
0000
0000
0000
0000
0000
0000
0000
0000
0000
0010
0000
0000
0000
0000
0000
1000
0000
0000
0000
0000
0000
,
0001
0000
0000
0000
0000
0000
0000
0000
0000
0010
0000
0000
0100
0000
0000
0000
0000
1000
0001
0000
0000
0000
0000
0000
1000
0000
0000
0000
0000
0000
0100
0000
0000
0000
0000
0000
0010
0000
0000
0000
0000
0000
0001
0000
0000
0000
0000
0000
,
1000
0001
0010
0100
1000
0000
0010
1000
,
1001
0000
0000
0110
0000
0000
0101
0000
1001
0000
0000
0110
0000
0000
1100
0000
,
1001
0000
0000
1010
0000
0000
0011
0000
2002
0000
3003
0000
0100
0000
0010
0000
,
2000
0000
3100
1100
0010
1001
0100
0101
,
0220
0000
0000
0000
0330
0000
0001
1000
,
0010
0000
0100
0001
0000
1000
0000
1000
,
0100
0000
0000
0000
0010
0000
0001
0000
0000
0000
0000
1000
0010
0000
0100
0000
,
0000
0000
0000
0001
0010
0000
0001
0000
0000
0000
1000
0000
0000
0000
0101
0000
,
0000
1000
0100
0010
0100
0000
0001
0100
,
0000
1000
0001
0100
0000
0010
1000
0001
,
0000
0000
0100
0010
0100
0000
0001
0000
0000
0000
0010
0100
0010
0000
1000
0000
,
0000
0000
0100
0000
0000
0000
0100
0000
0001
0000
0000
1000
2002
0000
0000
0000
,
3003
0000
0000
0000;
