#TITLE:Black Sheep;
#SUBTITLE:;
#ARTIST:Sonata Arctica;
#TITLETRANSLIT:;
#SUBTITLETRANSLIT:;
#ARTISTTRANSLIT:;
#CREDIT:Steps by Whaz;
#BANNER:black sheep.png;
#BACKGROUND:black sheep-bg.png;
#LYRICSPATH:;
#CDTITLE:whazTitle.png;
#MUSIC:Sonata Arctica - Black Sheep.mp3;
#OFFSET:0.100;
#SAMPLESTART:110.000;
#SAMPLELENGTH:12.000;
#SELECTABLE:YES;
#BPMS:0.000=200.000,130.000=199.800;
#STOPS:;
#BGCHANGES:;
// cache tags:
#FIRSTBEAT:3.833;
#LASTBEAT:728.000;
#SONGFILENAME:Songs/toune 4/sonata arctiuca black sheep/Sonata Arctica - Black Sheep.sm;
#HASMUSIC:1;
#HASBANNER:1;
#MUSICLENGTH:222.456;
// end cache tags

//---------------dance-single - ----------------
#NOTES:
     dance-single:
     :
     Hard:
     12:
     1.000,1.000,1.000,0.593,1.000,1443.000,307.000,132.000,0.000,68.000:
0000
0000
0000
0000
0000
0000
0000
0000
0000
0000
0000
0000
0000
0000
0000
0000
0000
0000
0000
0000
0000
0000
0000
1000
,
0000
0000
0000
0100
0000
0000
0010
0000
0000
0001
0000
0000
1000
0000
0000
0000
0000
0000
0100
0000
0000
0000
0000
0000
0010
0000
0000
0000
0100
0000
0000
0000
0000
0000
1000
0000
0000
0000
0000
0010
0000
0000
0001
0000
0000
0100
0000
0000
,
1000
0000
0000
0000
0000
0000
0100
0000
0000
0000
0000
0000
1000
0000
0000
0000
0010
0000
0000
0000
0000
0000
0100
0000
0000
0000
0000
0000
0010
0000
0000
0000
0000
0100
0000
0000
0000
0000
0000
1000
0000
0000
0000
0000
0000
0100
0000
0000
,
0000
0000
0000
0010
0000
0000
0000
0000
0000
0000
1000
0000
0000
0000
0000
0010
0000
0000
0000
0000
0000
0100
0000
0000
0000
0000
0000
0001
0000
0000
0000
0000
0000
0010
0000
0000
0000
0000
0000
0100
0000
0000
0000
0000
0000
0000
0001
0000
,
0000
0000
0000
0100
0000
0000
0010
0000
0000
0001
0000
0000
0100
0000
0000
0000
0000
0000
1000
0000
0000
0000
0000
0000
0100
0000
0000
0000
0010
0000
0000
0000
0000
0000
0100
0000
0000
0000
0000
0010
0000
0000
0100
0000
0000
1000
0000
0000
,
0010
0000
0000
0000
0000
0000
0100
0000
0000
0000
0000
0000
1000
0000
0000
0000
0010
0000
0000
0000
0000
0000
0001
0000
0000
0000
0000
0000
0010
0000
0000
0000
0000
0100
0000
0000
0000
0000
0000
1000
0000
0000
0000
0000
0000
0010
0000
0000
,
0000
0000
0000
0100
0000
0000
0000
0000
0000
0000
1000
0000
0000
0000
0000
0100
0000
0000
0000
0000
0000
1000
0000
0000
0000
0000
0000
0100
0000
0000
0000
0000
0000
1000
0000
0000
0000
0000
0000
0010
0000
0000
0000
0000
0000
0000
0100
0000
,
0000
0000
0000
0010
0000
0000
0100
0000
0000
0010
0000
0000
0100
0000
0000
0000
0000
0000
0010
0000
0000
0000
0000
0000
0100
0000
0000
0000
0100
0000
0000
0000
0000
0000
0010
0000
0000
0000
0000
0100
0000
0000
0010
0000
0000
0100
0000
0000
,
0010
0000
0000
0000
0000
0000
0100
0000
0000
0000
0000
0000
1000
0000
0000
0000
0001
0000
0000
0000
0000
0000
0010
0000
0000
0000
0000
0000
0100
0000
0000
0000
0000
1000
0000
0000
0000
0000
0000
0100
0000
0000
0000
0000
0000
0001
0000
0000
,
0000
0000
0000
1000
0000
0000
0000
0000
0000
0000
0010
0000
0000
0000
0000
0001
0000
0000
0000
0000
0000
0100
0000
0000
0000
0000
0000
1000
0000
0000
0000
0000
0000
0010
0000
0000
0000
0000
0000
0100
0000
0000
0000
0000
0000
0000
0010
0000
,
0000
0000
0000
0100
0000
0000
1000
0000
0000
0010
0000
0000
0001
0000
0000
0000
0000
0000
0010
0000
0000
0000
0000
0000
0001
0000
0000
0000
1000
0000
0000
0000
0000
0000
1000
0000
0000
0000
0000
0100
0000
0000
1000
0000
0000
0010
0000
0000
,
1000
0000
0000
0000
0000
0000
0001
0000
0000
0000
0000
0000
1000
0000
0000
0000
0100
0000
0000
0000
0000
0000
0010
0000
0000
0000
0000
0000
1000
0000
0000
0000
0000
0001
0000
0000
0000
0000
0000
0010
0000
0000
0000
0000
0000
1000
0000
0000
,
0000
0000
0000
0010
0000
0000
0000
0000
0000
0000
1000
0000
0000
0000
0000
0100
0000
0000
0000
0000
0000
0001
0000
0000
0000
0000
0000
0010
0000
0000
0000
0000
0000
1000
0000
0000
0000
0000
0000
0001
0000
0000
0000
0000
0110
0000
0000
0000
,
1000
0100
0010
0001
0010
0100
0010
0001
0010
0100
1000
0100
0001
0010
1000
0100
,
1000
0010
0001
0010
0100
0010
0100
1000
0110
0000
0000
0000
0110
0000
0000
0000
,
0011
1010
0101
0110
,
1001
1100
0101
2020
,
0000
3131
0200
1000
,
0010
2301
0010
0100
,
3021
1000
0100
1032
,
0100
0010
1103
0110
,
0101
1010
0110
0011
,
1100
0011
0110
1100
,
0101
1001
1020
0100
,
0001
1230
0010
0001
,
0312
0100
0010
2103
,
0010
0000
0001
0000
3100
0011
0011
1001
,
1001
1010
1010
0110
0110
0101
0101
1001
,
1001
1100
1100
0110
0110
0011
0011
0101
,
0101
0110
0110
1010
1010
1001
1001
0110
,
0110
0011
0011
0110
0110
1010
1010
0101
,
0101
0110
0110
1010
1010
1001
1001
1100
,
1100
0101
0101
1001
2001
0010
0100
0010
,
0001
0010
0100
0010
0001
0010
0100
0010
,
0001
0010
0100
0001
3210
1000
0010
0001
,
0010
0001
1000
0010
1000
0001
0010
1000
,
1000
0010
0001
0010
2310
0001
0100
0001
,
3210
1000
0010
1000
0312
0100
0010
1000
,
0123
1000
0100
0001
1230
0010
0001
0010
,
2301
0010
0100
0001
3120
1000
0100
0001
,
0130
1001
1001
1001
2001
0010
0100
0010
,
0100
0001
0010
0100
0010
0100
0001
0010
,
0100
0001
0010
0100
3012
0100
0010
1000
,
0100
0010
1000
0100
0010
0100
1000
0100
,
1000
0010
0100
1000
0013
1000
0100
0010
,
0100
1000
0100
0010
0001
0010
0100
0010
,
0001
0100
0010
0100
1000
0010
0100
0001
,
0010
0100
0001
0010
0100
1000
0100
1000
,
0100
0000
0000
0000
0000
0000
0010
0000
0000
0000
0000
0000
0001
0000
0000
0000
0000
0000
0000
0000
0000
0000
0000
0000
0010
0000
0000
0000
0000
0001
0000
0000
1000
0000
0000
0100
0000
0000
0010
0000
0000
0000
0000
0000
0001
0000
0000
0000
,
0000
0000
1000
0000
0000
0000
0001
0000
0000
0000
0000
0000
0010
0000
0000
0000
0000
1000
0000
0000
0100
0000
0000
0001
0000
0000
0010
0000
0000
0000
0000
0000
0001
0000
0000
0000
0000
0000
0010
0000
0000
0000
1000
0000
0000
0000
0000
0000
,
0001
0000
0000
0000
0000
0000
1000
0000
0000
0000
0000
0001
0000
0000
0000
0000
0000
0010
0000
0000
0000
0000
0000
0001
0000
0000
0000
0000
0000
1000
0000
0000
0000
0000
0000
0000
0010
0000
0000
0000
0000
1000
0000
0000
0000
0000
0000
0001
,
0000
0000
0000
0000
0000
0100
0000
0000
0000
0000
0000
1000
0000
0000
0000
0000
0000
0001
0000
0000
0000
0000
0000
0000
0100
0000
0000
0000
0000
0001
0000
0000
1000
0000
0000
0100
0000
0000
0001
0000
0000
0000
0000
0000
0010
0000
0000
0000
,
0000
0000
0001
0000
0000
0000
1000
0000
0000
0000
0000
0000
0001
0000
0000
0000
0000
1000
0000
0000
0001
0000
0000
0010
0000
0000
1000
0000
0000
0000
0000
0000
0001
0000
0000
0000
0000
0000
0010
0000
0000
0000
1000
0000
0000
0000
0000
0000
,
0100
0000
0000
0000
0000
0000
1000
0000
0000
0000
0000
0001
0000
0000
0000
0000
0000
0010
0000
0000
0000
0000
0000
1000
0000
0000
0000
0000
0000
0001
0000
0000
0000
0000
0000
0000
0010
0000
0000
0000
0000
0001
0000
0000
0000
0000
0000
0010
,
0000
0000
0000
0000
0000
0001
0000
0000
0000
0000
0000
0010
0000
0000
0000
0000
0000
1000
0000
0000
0000
0000
0000
0000
0001
0000
0000
0000
0000
1000
0000
0000
0001
0000
0000
1000
0000
0000
0001
0000
0000
0000
0000
0000
1000
0000
0000
0000
,
0000
0000
0001
0000
0000
0000
0001
0000
0000
0000
0000
0000
1000
0000
0000
0000
0000
0001
0000
0000
1000
0000
0000
0001
0000
0000
1000
0000
0000
0000
0000
0000
0001
0000
0000
0000
0000
0000
0010
0000
0000
0000
0100
0000
0000
0000
0000
0000
,
1000
0000
0000
0000
0000
0000
0001
0000
0000
0000
0000
0010
0000
0000
0000
0000
0000
0001
0000
0000
0000
0000
0000
0100
0000
0000
0000
0000
0000
0010
0000
0000
0000
0000
0000
0000
1000
0000
0000
0000
0000
0100
0000
0000
0000
0000
0000
0001
,
0000
0000
0000
0000
0000
0010
0000
0000
0000
0000
0000
1000
0000
0000
0000
0000
0000
0001
0000
0000
0000
0000
0000
0000
1000
0000
0000
0000
0000
0001
0000
0000
0010
0000
0000
1000
0000
0000
0100
0000
0000
0000
0000
0000
1000
0000
0000
0000
,
0000
0000
0100
0000
0000
0000
0010
0000
0000
0000
0000
0000
0010
0000
0000
0000
0000
0001
0000
0000
0010
0000
0000
1000
0000
0000
0010
0000
0000
0000
0000
0000
0100
0000
0000
0000
0000
0000
0010
0000
0000
0000
0001
0000
0000
0000
0000
0000
,
1000
0000
0000
0000
0000
0000
0010
0000
0000
0000
0000
0100
0000
0000
0000
0000
0000
1000
0000
0000
0000
0000
0000
0010
0000
0000
0000
0000
0000
1000
0000
0000
0000
0000
0000
0000
0010
0000
0000
0000
0000
0001
0000
0000
0000
0000
0000
0100
,
0000
0000
0000
0000
0000
1000
0000
0000
0000
0000
0000
0010
0000
0000
0000
0000
0000
0100
0000
0000
0000
0000
1001
0000
0000
0000
0000
0000
0000
0000
0100
0000
0000
0010
0000
0000
0001
0000
0000
0010
0000
0000
0100
0000
0000
1000
0000
0000
,
0100
0010
0001
1000
0100
0010
0001
1000
0100
0010
0001
0000
1000
0100
0001
0010
,
1100
0110
1001
0011
,
1010
1001
0110
1010
,
1100
0011
1001
0101
,
1020
0001
1000
0132
,
1000
0100
0213
1000
,
0010
0321
0001
0001
,
0031
1100
0101
0011
,
1001
1100
0101
1100
,
0110
1001
1010
0101
,
0012
0100
0010
2103
,
0010
0100
3210
0001
,
0010
1302
0100
1000
,
0103
1010
0101
0011
1001
1100
1010
1001
,
0110
1010
0110
0101
1001
1100
0101
1010
,
1001
0110
0011
1001
1010
1100
1001
0101
,
1001
0110
1010
1100
1010
1001
0101
0011
,
1001
0011
1100
0011
1100
0110
1001
0110
,
1001
0101
1010
0101
1010
1100
1001
1100
,
0201
0010
1000
0001
0010
1000
0001
0010
,
1000
0001
0010
1000
0010
0001
0010
1000
,
0321
1000
0100
0001
1000
0100
0001
1000
,
0100
0001
0100
1000
0001
0100
1000
0001
,
1230
0001
0001
0001
0321
0100
0100
0100
,
2130
0010
0010
0010
3012
1000
1000
1000
,
1203
0001
0001
0001
0321
0100
0100
0100
,
2130
0100
0100
0100
3100
0110
0110
0110
,
2001
0010
0100
0001
0010
0100
0001
0010
,
0100
0001
0010
0100
0001
0010
0100
0010
,
3102
1000
0100
0010
1000
0100
0010
1000
,
0100
0010
1000
0100
0010
1000
0100
0010
,
1003
0100
0010
0001
1000
0100
0010
0001
,
0010
1000
0100
0001
0010
1000
0100
0001
,
0010
0100
1000
0001
0010
0100
1000
0001
,
0010
0100
1000
0100
0010
0000
0000
0000
,
1000
0100
0010
0001
0010
1000
0100
0010
0001
0010
0001
0010
,
0100
1000
0100
0001
0010
0100
1000
0100
1000
0100
0001
0001
,
0001
1000
0100
1000
0001
0010
0100
1000
0001
1000
0100
0010
,
0001
1000
0001
0010
0100
1000
0100
0010
0001
1000
1000
1000
,
0001
1000
0100
0010
1001
0010
0001
0010
0100
1000
0110
1000
,
0100
0010
0001
1000
0101
0010
0100
1000
0001
0010
1100
1000
,
1000
0001
1000
0100
1010
0001
0010
0100
1000
0001
0110
1000
,
0001
0100
0010
0001
1100
0010
0100
1000
0100
1000
0101
0001
,
1001
0010
0100
1001
0100
0010
1001
0010
0100
1001
0100
0010
,
1001
0100
0100
1001
0010
0010
1001
0100
0010
0110
0110
0110
,
0011
1000
0100
0011
0100
1000
0011
1000
0100
0011
0100
1000
,
0011
1000
1000
0011
0100
0100
0011
0100
1000
0011
0011
0011
,
0110
1000
0001
0110
0001
1000
0110
1000
0001
0110
0001
0001
,
0110
1000
1000
0110
0001
1000
0110
0001
1000
0110
1010
1010
,
1010
0100
0001
1010
0001
0100
1010
0001
0100
1010
0100
0100
,
1010
0100
0001
2020
0000
0000
3230
0000
0000
0320
0000
0000
,
2032
0000
0000
0000
0000
0000
3003
0000
0000
0000
0000
0100
,
0000
0000
0000
0000
1000
0100
0010
0001
1000
0100
0010
0001
0010
0100
0001
0010
,
0100
1002
0000
0020
0000
0000
0000
0000
0003
0000
0200
0000
0000
0000
0000
0030
,
0000
2000
0000
3000
0300
0001
0010
0001
0010
0100
0010
0100
0010
0100
0010
0100
,
2012
0000
0000
0000
,
3103
0010
0001
0100
0010
0001
0010
0100
1000
0010
0100
1000
0100
0010
0001
1000
,
0100
0010
0001
0000
0100
0010
0100
0010
1000
0100
1000
0100
0001
0010
0001
0010
,
0100
0010
0001
0100
0010
0001
0100
0010
0001
1000
0100
0010
0001
0010
0100
1000
,
0002
0010
1000
0010
0203
1000
0010
0001
0320
0001
1000
0100
2030
0100
0010
0100
,
3002
0010
0100
1000
0203
0010
0001
0010
0320
0100
1000
0100
0231
0010
0001
1000
,
0301
0010
0100
1000
0001
0010
1000
0100
1000
0100
0010
0001
1000
0100
0010
0001
,
1000
0100
0010
0001
1000
0100
0010
0001
1000
0100
0001
0010
1000
0100
0001
0010
,
1000
2000
3200
0320
0032
0023
0230
2300
3200
0320
0032
0023
0230
2300
3200
0320
,
0030
0002
0023
0230
2300
3000
0200
0320
2030
3002
0203
0320
0032
0000
0000
0000
,
0013
0100
1000
0010
0100
1000
0010
0100
1000
0010
0100
1000
0010
0100
1000
0010
,
0100
0010
0001
0100
0010
0001
0100
0010
0001
0220
0000
0000
0000
0000
0000
0000
,
1331
1100
0110
0011
,
1001
1010
0101
0110
,
0011
1001
1010
1001
,
0011
0101
0110
0110
,
1000
0100
0001
0010
1000
0100
0001
0010
1000
0100
0001
0010
0100
1000
0100
0010
,
0001
0010
0100
1000
0001
0010
0100
1000
0001
0010
0100
1000
0010
0100
1000
0010
,
0100
1000
0010
0100
0001
1000
0100
0010
0001
0100
0010
0001
0100
0010
0001
0100
,
1000
0010
0001
0100
0010
0001
1000
0100
0010
0001
0010
0100
0010
0100
0010
0100
,
0022
0000
0000
0000
,
0000
0000
0000
0000
,
2133
0010
0001
0010
,
0100
0001
0010
0100
,
3021
1000
0231
0010
,
1320
0001
2130
0001
,
3012
0100
2013
0100
,
3220
0000
0000
0000
0330
1001
1001
1001
,
2000
0100
0010
0001
0010
0001
0010
0100
,
0010
0100
0010
0001
0010
0001
0010
0100
,
3012
0100
1000
0010
0100
1000
0100
0010
,
0100
1000
0100
0010
1000
0100
0010
1000
,
0103
0010
0001
0010
0100
1000
0100
0010
,
0001
0010
0100
1000
0100
0010
0001
0010
,
0100
0010
0001
0010
0100
1000
0100
0010
,
0011
1010
0110
1001
0101
1010
0110
0000
,
1100
0101
0010
1001
,
0100
0101
0010
1100
,
1001
1000
0110
0001
,
0101
0010
0010
1100
,
2002
0000
3200
0000
,
0023
0000
2300
0000
,
0032
0000
3200
0000
,
0023
0000
0302
0000
,
1133
1001
0011
1010
,
1001
1100
0101
0110
,
1000
1001
0101
0011
,
1010
1001
0100
0110
,
2001
3210
1320
0132
,
1023
0231
2310
3210
,
1320
1032
0213
2310
,
3202
0000
0000
0000
,
1303
0000
0000
0000
0000
0010
0000
0000
0001
0000
0000
1000
0000
0000
0100
0000
0000
0000
0000
0000
0010
0000
0000
0000
0000
0000
0001
0000
0000
0000
0010
0000
0000
0000
0000
0000
0100
0000
0000
0000
0000
0001
0000
0000
1000
0000
0000
0010
,
0000
0000
0100
0000
0000
0000
0000
0000
0010
0000
0000
0000
0000
0000
0100
0000
0000
0000
0001
0000
0000
0000
0000
0000
0010
0000
0000
0000
0000
0000
0001
0000
0000
0000
0000
0010
0000
0000
0000
0000
0000
0100
0000
0000
0000
0000
0000
0010
,
0000
0000
0000
0000
0000
0001
0000
0000
0000
0000
0000
0000
0100
0000
0000
0000
0000
0001
0000
0000
0010
0000
0000
0100
0000
0000
1000
0000
0000
0000
0000
0000
0001
0000
0000
0000
0000
0000
0010
0000
0000
0000
0100
0000
0000
0000
0000
0000
,
1000
0000
0000
0000
0000
0010
0000
0000
0001
0000
0000
1000
0000
0000
0010
0000
0000
0000
0000
0000
0100
0000
0000
0000
0000
0000
0010
0000
0000
0000
0001
0000
0000
0000
0000
0000
0010
0000
0000
0000
0000
0001
0000
0000
0010
0000
0000
0100
,
0000
0000
0001
0000
0000
0000
0000
0000
0010
0000
0000
0000
0000
0000
0100
0000
0000
0000
0001
0000
0000
0000
0000
0000
1000
0000
0000
0000
0000
0000
0001
0000
0000
0000
0000
0010
0000
0000
0000
0000
0000
0100
0000
0000
0000
0000
0000
0001
,
0000
0000
0000
0000
0000
0010
0000
0000
0000
0000
0000
0000
0100
0000
0000
0000
0000
0010
0000
0000
0100
0000
0000
0010
0000
0000
0100
0000
0000
0000
0000
0000
0010
0000
0000
0000
0000
0000
0100
0000
0000
0000
0001
0000
0000
0000
0000
0000
,
0010
0000
0000
0000
0000
0001
0000
0000
0010
0000
0000
0001
0000
0000
0010
0000
0000
0000
0000
0000
0001
0000
0000
0000
0000
0000
0010
0000
0000
0000
0010
0000
0000
0000
0000
0000
0001
0000
0000
0000
0000
0010
0000
0000
0001
0000
0000
0010
,
0000
0000
0001
0000
0000
0000
0000
0000
0010
0000
0000
0000
0000
0000
0100
0000
0000
0000
1000
0000
0000
0000
0000
0000
0001
0000
0000
0000
0000
0000
0010
0000
0000
0000
0000
0100
0000
0000
0000
0000
0000
0010
0000
0000
0000
0000
0000
1000
,
0000
0000
0000
0000
0000
0100
0000
0000
0000
0000
0000
0000
0001
0000
0000
0000
0000
1000
0000
0000
0001
0000
0000
0010
0000
0000
0100
0000
0000
0000
0000
0000
0001
0000
0000
0000
0000
0000
0010
0000
0000
0000
1000
0000
0000
0000
0000
0000
,
0001
0000
0000
0000
0000
0010
0000
0000
0100
0000
0000
0001
0000
0000
1000
0000
0000
0000
0000
0000
0001
0000
0000
0000
0000
0000
1000
0000
0000
0000
0100
0000
0000
0000
0000
0000
0100
0000
0000
0000
0000
0010
0000
0000
0100
0000
0000
0001
,
0000
0000
0100
0000
0000
0000
0000
0000
1000
0000
0000
0000
0000
0000
0100
0000
0000
0000
0010
0000
0000
0000
0000
0000
0001
0000
0000
0000
0000
0000
0100
0000
0000
0000
0000
1000
0000
0000
0000
0000
0000
0001
0000
0000
0000
0000
0000
0100
,
0000
0000
0000
0000
0000
0001
0000
0000
0000
0000
0000
0000
0100
0000
0000
0000
0000
0010
0000
0000
0100
0000
0000
1000
0000
0000
0001
0000
0000
0000
0000
0000
0100
0000
0000
0000
0000
0000
1000
0000
0000
0000
0000
0000
0000
0000
0000
0000
,
2000
3200
0320
0032
,
2003
3200
0320
0002
,
0033
0000
0000
0000
;
