#TITLE:Outrun Remix;
#SUBTITLE:Keyboard ONLY!;
#ARTIST:Instant Remedy;
#TITLETRANSLIT:;
#SUBTITLETRANSLIT:;
#ARTISTTRANSLIT:;
#CREDIT:This DWI is made by ObliVioN;
#BANNER:outrun.jpg;
#BACKGROUND:outrun-bg.jpg;
#LYRICSPATH:;
#CDTITLE:;
#MUSIC:outrun.mp3;
#OFFSET:-1.853;
#SAMPLESTART:46.585;
#SAMPLELENGTH:12.000;
#SELECTABLE:YES;
#BPMS:0.000=134.131;
#STOPS:;
#BGCHANGES:;
// cache tags:
#FIRSTBEAT:12.000;
#LASTBEAT:288.000;
#SONGFILENAME:Songs/IzzySM Keyboard Mega Pack/outrun/steps.sm;
#HASMUSIC:1;
#HASBANNER:1;
#MUSICLENGTH:130.045;
// end cache tags

//---------------dance-single - Heavy----------------
#NOTES:
     dance-single:
     Heavy:
     Hard:
     11:
     0.688,0.775,0.900,0.477,0.381,447.000,117.000,62.000,0.000,0.000:
0000
0000
0000
0000
,
0000
0000
0000
0000
,
0000
0000
0000
0000
,
1000
0000
0001
0100
0000
0000
0001
0000
1000
0000
0100
0010
0000
0010
0000
0010
,
0100
1000
0000
0001
1000
0000
0000
0000
,
1000
0000
0001
1000
0000
0000
0001
0000
1000
0000
0100
0010
0000
0010
0000
0010
,
0100
1000
0000
0001
1000
0000
0000
0000
,
1000
0100
0010
0001
1000
0100
0010
0001
1000
0100
0010
0001
1000
0200
0000
0000
,
0020
0000
0000
0000
,
0000
0000
0000
0330
0000
1000
0001
0100
,
1100
0000
0000
0000
1001
0000
1100
0000
0000
0000
1100
0000
1001
0000
0010
1000
,
0101
0000
0000
0000
1001
0000
0101
0000
0000
0000
0101
0000
1001
0000
0100
0001
,
1100
0000
0000
0000
0110
0000
1100
0000
0000
0000
1100
0000
0110
0000
0100
1000
,
0011
0000
0000
0000
0110
0000
0011
0000
0000
0000
0011
0000
0110
0000
1000
0010
,
2000
0000
0000
0200
3000
0000
0302
0000
0020
0003
0000
0200
0030
0000
2000
0300
,
0200
3000
0000
0002
0300
0000
0200
0000
0000
0000
0000
0000
0000
0000
0300
0000
,
1003
0000
0001
0100
0000
0000
0001
0000
1000
0000
0000
0100
0000
0000
0100
0000
,
1000
0000
0000
0000
0000
0000
0001
0000
0000
2000
0000
0000
0000
0000
0000
0000
0010
0000
0000
0000
0000
0000
0000
0000
0010
0000
0000
0000
0000
0000
0000
0000
0000
0010
0000
0000
0000
0000
0000
0000
0000
0000
3010
0000
0000
0001
0000
0000
,
2000
0000
0000
0200
3300
0000
0002
0003
0020
0030
0000
0200
0000
0000
2300
0000
,
3200
0000
0302
0203
0000
0000
2000
0000
0000
0000
0000
0000
0300
0000
0000
0000
,
0001
0000
0000
0001
0000
0000
3002
0000
2000
0000
0000
3003
1001
0000
2000
3000
,
0002
0000
2000
0000
0000
0000
0000
0000
0000
0000
0000
3003
0000
0000
0100
0000
,
0101
0000
0101
0000
0001
1000
0000
1000
0001
0000
0101
0000
0100
0000
0100
1000
,
0010
0000
0011
0000
1100
0000
1001
0000
0010
0100
1000
0000
1001
0000
0001
0100
,
1000
0000
1001
0000
1000
0100
0000
0001
0010
0000
0000
0100
0010
0000
1001
0000
,
2000
0000
0010
0010
0020
0000
0000
0000
3030
0000
0000
0000
0000
0000
1000
0000
,
0011
0000
0011
0000
0001
0100
0000
0010
1000
0000
1100
0000
0100
0010
0001
1000
,
0100
0000
0100
0000
0200
0000
0001
0000
0301
0000
0001
0000
0010
0001
0010
0000
,
0110
0000
0100
1000
0100
0001
0100
1000
0110
0000
0001
0010
1000
0010
0001
0000
,
0200
0000
0000
0020
0000
0000
0000
0000
0000
0000
0000
0000
0000
0000
0330
0000
,
2000
0000
0010
0001
0000
0001
0010
3000
,
0002
0000
0010
1000
0000
1000
0010
0003
,
1100
0000
0000
0000
1001
0000
1100
0000
0000
0000
1100
0000
1001
0000
0010
1000
,
0011
0000
0000
0000
1001
0000
0011
0000
0000
0000
0011
0000
1001
0000
1000
0100
,
1001
0000
0000
0000
0101
0000
1001
0000
0000
0000
1001
0000
0101
0000
0010
0100
,
1100
0000
0000
0000
0101
0000
1100
0000
0000
0000
1100
0000
0001
1000
0001
1000
,
0002
0000
0000
2000
0003
0000
3200
0000
0020
0300
0030
2000
0000
3000
0020
0000
,
2000
0030
0000
0002
3000
0000
0200
0000
0000
0000
0000
0000
0000
0000
0303
0000
,
1000
0000
0001
1000
0000
0000
0001
0000
1000
0000
0010
1000
0000
0000
0100
0000
,
0010
0000
0002
2000
0000
0000
0000
0000
0000
0000
0000
0000
0000
0000
3003
0000
,
1001
0000
1000
0100
0010
0000
1000
0000
0010
0100
1000
0000
0010
0000
1000
0001
,
0100
0010
1000
0001
0000
0000
0220
0000
0000
0000
0000
0000
0000
0330
0000
0000
,
1000
0100
0001
0010
1000
0100
0001
0010
1000
0100
0001
0010
1000
0100
0001
0010
,
0002
2000
0000
0000
0000
0000
3003
1001
,
1001
0000
0100
0000
0001
0010
0100
1000
0101
0000
0101
0000
0001
0100
0010
1000
,
0100
0011
0012
1000
1000
1000
1003
0001
,
1010
0000
1100
0000
1000
0010
0100
0001
1100
0000
0100
0010
0001
1000
0002
0000
,
1000
0000
0200
0000
0000
0000
0303
0101
,
0101
0000
1001
0000
1000
0001
0000
0100
0010
0000
0001
1000
0100
0010
0001
0010
,
0100
1000
2000
0000
0100
0000
0100
3000
,
0110
0000
0110
0000
1000
0001
0000
0100
1000
0000
0010
0100
0010
0000
0101
0000
,
1100
1001
0220
0000
0000
0000
0330
0000
,
1002
0000
1000
1000
0000
1000
1000
0003
,
2001
0000
0001
0001
0000
0001
0001
3000
,
0110
0000
0000
0000
1001
0000
1100
0000
0000
0000
0011
0000
0101
0000
1000
0001
,
1100
0000
0000
0000
0101
0000
1010
0000
0000
0000
0110
0000
1001
0000
0010
0100
,
0011
0000
0000
0000
1100
0000
0110
0000
0000
0000
0101
0000
0110
0000
0100
1000
,
0011
0000
0110
1010
0000
0101
1100
0000
,
0000
1000
0100
0010
0001
0010
0100
1000
,
0100
0010
0001
1000
0001
1000
0001
0020
,
0000
0000
0000
0000
,
0030
0000
1000
0100
0000
0010
0001
0000
,
0000
0000
0010
1000
0000
0001
0100
0000
,
1000
0001
0100
0001
0000
0100
1000
0000
,
1000
0010
1000
0100
0000
0001
0001
0000
,
2020
0000
0000
0000
,
0000
0000
0000
3030
0000
0100
0001
0100
,
0101
0000
0000
0000
1010
0000
0101
0000
0000
0000
1010
0000
0110
0000
0001
1000
,
0101
0000
0000
0000
0110
0000
1001
0000
0000
0000
1100
0000
0101
0000
1000
0100
,
0110
0000
0000
0000
1010
0000
0011
0000
0000
0000
0101
0000
0011
0000
0100
0010
,
1100
0000
0000
0000
0110
0000
0011
0000
0000
0000
0110
0000
1001
0000
1000
0002
,
2000
0000
0000
0000
,
3003
0000
0000
0000
;
