#TITLE:Cry For Eternity;
#SUBTITLE:;
#ARTIST:Dragonforce;
#TITLETRANSLIT:;
#SUBTITLETRANSLIT:;
#ARTISTTRANSLIT:;
#CREDIT:B. Abear;
#BANNER:Bn-Cry.png;
#BACKGROUND:Bg-Cry.png;
#LYRICSPATH:;
#CDTITLE:;
#MUSIC:06 Cry For Eternity.ogg;
#OFFSET:-0.264;
#SAMPLESTART:42.633;
#SAMPLELENGTH:15.000;
#SELECTABLE:YES;
#BPMS:0.000=140.000,96.000=200.000,453.000=100.000,457.000=200.000,910.000=170.000,1006.000=200.000,1134.000=100.000,1138.000=200.000,1290.000=100.000,1294.000=200.000,1511.000=100.000,1515.000=200.000;
#STOPS:388.000=2.100
,649.000=2.100
,1390.000=2.100
;
#BGCHANGES:;
// cache tags:
#FIRSTBEAT:0.000;
#LASTBEAT:1533.500;
#SONGFILENAME:Songs/SSSC PACK/[Cosmic Pope] - Cry For Eternity/Cry For Eternity.sm;
#HASMUSIC:1;
#HASBANNER:1;
#MUSICLENGTH:105.000;
// end cache tags

//---------------dance-single - Blank----------------
#NOTES:
     dance-single:
     Blank:
     Challenge:
     15:
     1.000,1.000,1.000,1.000,1.000,3590.000,272.000,157.000,159.000,8.000:



0202
0000
0000
0000
,
0000
0000
0000
0000
0000
0000
0000
0303
,
2200
0000
0000
0000
,
0000
0000
0000
0000
0000
0000
0000
0000
0000
3300
0000
0000
1001
0000
0110
0000
0000
0000
0110
0000
1001
0000
0000
0000
,
0022
0000
0000
0000
,
0000
0000
0000
0000
0000
0000
0000
0033
,
2020
0000
0000
0000
,
0000
0000
0000
0000
0000
0000
0000
3030
,
1001
0000
0001
1000
0100
0010
0100
0001
0100
0000
1000
0010
0100
0010
0001
0010
,
0100
0000
0010
1000
0010
0100
0010
0001
0010
0000
0100
0010
0100
1000
0100
0001
,
1000
0000
0100
1000
0100
0010
0100
0001
0100
0000
0010
0001
0010
0100
0010
1000
,
0010
0000
0100
0001
0100
0010
0100
1000
0001
0000
0010
0100
0010
1000
0010
0001
,
0100
0000
0010
0100
0010
0001
0010
1000
0010
0000
0100
0010
0100
1000
0100
0001
,
0100
0000
0010
0100
0010
0001
0010
1000
0001
0000
0010
0100
0010
1000
0010
0001
,
0100
0000
0010
1000
0010
0100
0010
0001
0010
0000
0100
0001
0100
1000
0100
0010
,
1000
0000
0100
0001
0100
1000
0100
0010
0001
0000
0010
0100
0010
1000
0010
0001
,
1000
0000
0100
0010
0100
1000
0100
0001
0100
0000
0010
0001
0100
1000
0100
0001
,
0100
0000
0010
1000
0010
0001
0010
0100
0001
0000
1000
0100
0010
0100
0001
0100
,
0010
0000
0100
1000
0001
0100
0010
0100
1000
0000
0100
0001
1000
0100
0001
0100
,
0010
0000
0100
1000
0100
0001
0100
0010
1000
0000
0010
0001
0100
1000
0100
0010
,
0001
0000
0010
1000
0001
0010
1000
0010
0001
0000
0100
0010
0100
1000
0100
0001
,
0010
0000
1000
0010
0001
0100
1000
0100
0010
0000
0001
0010
1000
0001
0010
0100
,
1000
0000
0100
0010
0100
0001
0100
1000
0001
0000
0100
0010
0001
0010
1000
0001
,
0010
0000
0100
1000
0100
0001
0100
0010
1000
0000
0010
0001
1000
0100
0001
0100
,
1100
0000
1000
0001
0100
0000
0010
0000
1000
0000
0001
0000
0010
0000
0100
0000
,
1100
0100
0020
0000
0031
0100
0020
0000
,
1031
0000
1000
0010
0100
0000
0001
0000
0100
0000
0010
0000
1000
0000
0001
0000
,
0011
0000
0010
0000
0100
0000
4000
0000
0000
0000
0000
0000
,
3101
0000
0001
0100
0010
0000
0100
0000
0001
0000
1000
0000
0100
0000
0010
0000
,
0011
0000
0001
0000
1000
0100
1000
0100
0020
0000
0031
0000
0100
0010
0100
0000
,
0110
0010
0100
0010
1000
0001
1000
0100
0010
0001
1000
0001
0010
0100
1000
0000
,
1100
0000
1001
0000
0101
0110
2010
0000
,
3010
0000
0100
0000
0001
0100
0001
0000
1000
0000
0100
0000
0010
0100
0010
0000
,
0001
0000
1000
0000
0001
1000
0001
0000
0100
0000
0010
0000
1000
0010
1000
0000
,
0001
0000
0010
0000
0100
1000
0100
0000
0010
0000
0001
0000
1000
0010
1000
0000
,
0040
0000
0130
0000
0001
1000
0001
0000
0010
0000
0100
0000
0040
0000
0000
0000
,
0130
0200
0000
1300
0001
0100
0010
0100
,
0001
0002
0000
1003
0100
1000
0040
0130
,
0002
0000
0000
2003
0000
0000
3200
0000
,
0310
0000
0001
0000
0000
0000
1000
0000
0001
1000
0001
1000
0010
0100
0010
0100
,
0001
0000
1000
0000
0100
1000
0100
0000
0010
0000
0001
0000
1000
0001
1000
0000
,
0010
0000
0100
0000
0001
0100
0001
0000
1000
0000
0001
0000
0010
0001
0010
0000
,
0100
0000
1000
0000
0001
1000
0001
0000
0100
0000
0010
0000
1000
0010
1000
0000
,
0001
0000
0010
0000
0001
1000
0001
0000
0100
0000
0040
0000
0000
0000
0000
0000
,
1030
0001
1000
0001
1000
0001
1000
0001
1000
0001
1000
0001
1000
0001
1000
0001
,
0100
0010
0100
0010
1000
0010
0100
0010
1000
0001
0010
0001
1000
0100
0010
0100
,
1000
0100
0010
0001
1000
0100
0010
0001
1000
0100
0010
0001
1000
0100
0010
0001
,
2000
0000
0020
0000
,
0002
0000
0200
3333
,
0001
0000
1000
0000
0001
0100
0001
0000
0100
0010
0100
0000
0010
1000
0010
0000
,
1000
0001
1000
0000
0100
1000
0100
0000
0020
0000
0032
0000
2003
0000
0000
0000
,
3001
0000
0100
0000
0010
0100
0010
0000
1000
0010
1000
0000
0001
0010
0001
0000
,
1000
0100
1000
0000
0100
0010
0100
0000
0020
0000
0032
0000
0203
0000
0000
0000
,
0310
0000
1000
0000
0001
0100
0001
0000
1000
0100
1000
0000
0001
0010
0001
0000
,
1000
0001
1000
0000
0010
0100
0010
0000
0200
0000
0302
0000
0023
0000
0000
0000
,
0130
0000
1000
0000
0001
0100
0010
0000
1000
0000
0001
0000
0010
0100
1000
0000
,
0001
0100
0001
0100
0001
0100
0001
0100
0010
1000
0010
1000
0001
0010
0100
1000
,
0100
1000
0001
0100
0010
0100
0001
1000
0100
0010
0001
0010
0100
0010
0001
1000
,
0001
0100
0010
0100
0001
1000
0100
1000
0100
0010
0001
1000
0001
0100
0010
1000
,
0001
0100
0010
0100
0001
1000
0001
0010
0100
1000
0100
1000
0001
0100
0010
1000
,
0001
0010
0001
1000
0010
0100
0001
1000
0100
0010
0001
1000
0001
1000
0010
0100
,
0001
0000
1000
0000
0100
1000
0100
0000
0010
0000
0001
0000
1000
0001
1000
0000
,
0001
0000
0100
0000
0010
1000
0010
0000
0100
0000
0001
0000
1000
0100
1000
0000
,
0010
0100
0010
0100
0001
1000
0001
1000
0100
0010
0100
0010
0001
1000
0001
1000
,
0001
0100
0010
1000
0001
0100
0010
1000
0001
0100
0010
1000
0001
0100
0010
0000
,
0110
1010
1001
0011
0110
1100
0101
1010
,
1001
0011
1100
0110
0011
0101
0110
1010
,
0010
0000
0100
0000
0001
0100
0010
0000
1000
0100
0010
0000
0100
1000
0001
0000
,
0100
0010
1000
0000
0002
0000
2003
0000
3100
0010
0001
1000
0001
0100
0001
0000
,
0101
0110
1010
0101
0011
1001
0110
1010
,
0110
0101
0011
1100
0110
0011
1001
1010
,
1001
0000
0101
0000
0011
0000
1100
0000
0101
0000
0110
0000
0010
0100
0001
0000
,
1000
0100
1000
0100
0010
0001
0010
0001
1000
0100
1000
0100
0010
0001
0010
0001
,
1001
0M00
0000
000M
0000
M000
0000
0000
00M0
0000
0000
M000
,
0110
0000
000M
0000
0000
00M0
0000
0000
M000
0000
0000
000M
,
0010
0100
0001
1000
0100
1000
0001
0010
0100
1000
0001
0100
0010
0100
0001
0100
,
0010
1000
0001
0010
0100
1000
0100
0010
0100
1000
0001
0100
0001
0100
0010
1000
,
1010
000M
0000
00M0
0000
0000
M000
0M00
0000
0000
00M0
0000
,
1001
0M00
0000
0000
000M
0000
M000
0000
0000
0M00
0000
000M
,
2000
0000
3101
0110
1010
0110
0101
1100
,
0011
0110
1100
0101
0110
1010
0101
1001
,
0011
0110
1100
1001
0110
1010
0101
1001
,
0001
0100
0010
1000
0001
0010
0001
0010
0100
1000
0001
0100
0010
1000
0100
0010
,
0001
0000
1000
0000
0100
1000
0100
0000
0010
0000
0001
0000
1000
0001
1000
0000
,
0001
0000
0100
0000
0010
0100
0010
0000
0100
0000
0001
0000
1000
0100
1000
0000
,
0001
0000
0010
0000
0100
0010
0100
0000
1000
0000
0001
0000
0100
0001
0100
0000
,
0010
0000
1000
0000
0001
0010
0001
0000
1000
0000
0100
0000
0010
0100
0010
0000
,
0001
0000
1000
0000
0001
0100
0001
0000
1000
0000
0010
0000
0100
0001
0100
0000
,
0001
0000
0010
0000
0001
1000
0001
0000
1000
0000
0010
0000
0100
0010
0100
0000
,
0001
0000
0010
0000
0100
1000
0100
0000
0010
0000
0001
0000
1000
0010
1000
0000
,
0001
0100
0001
0100
0010
1000
0100
0010
0001
0100
0001
0100
0010
1000
0100
0010
,
0001
0000
1000
0000
0100
0010
0100
0000
1000
0000
0001
0000
0100
0010
0100
0000
,
0001
0000
1000
0000
0001
1000
0001
0000
0010
0000
0100
0000
1000
0010
1000
0000
,
0010
0000
0100
0000
0001
1000
0001
0000
0010
0000
0100
0000
1000
0100
1000
0000
,
0100
0000
0010
0000
0001
0010
0001
0000
0010
0000
0001
0000
1000
0001
1000
0000
,
0010
0100
0010
0100
0002
0000
1003
0100
0010
0100
0010
0100
2000
0000
3010
0100
,
0001
1000
0001
1000
0200
0000
0310
0001
1000
0001
1000
0001
0200
0000
0310
0000
,
2MM2
0000
3003
0000
1000
0000
0100
0000
0010
0001
1000
0000
0001
0000
0100
0000
,
0010
0100
0001
0000
1000
0000
0100
0000
0010
0100
1000
0000
0001
0000
0100
0000
,
0010
1000
0001
0000
0100
0001
0100
0010
0100
0001
0100
0010
1000
0100
1000
0001
,
1000
0100
1000
0001
0010
0100
0010
0001
0010
0100
0010
0001
1000
0010
1000
0010
,
0100
0001
0100
0001
1000
0010
0100
0010
1000
0100
0010
0100
0010
0001
1000
0010
,
0100
0001
1000
0100
0010
0001
0010
0001
1000
0010
0100
0001
1000
0100
1000
0100
,
0010
0001
1000
0001
0100
0000
0020
0000
0000
0000
0130
0000
0001
0000
1000
0000
,
0100
0000
0010
0000
0001
1000
0001
1000
0010
0100
0010
0100
0010
1000
0010
1000
,
0001
1000
0001
1000
0100
0010
0001
1000
0001
0100
0010
1000
0001
0010
0001
1000
,
0100
1000
0010
0100
0001
0010
0001
1000
0100
0010
0001
0010
0100
1000
0001
0100
,
0001
0100
0010
1000
0001
0010
0100
1000
0001
1000
0010
0100
0001
0010
0100
1000
,
0001
1000
0100
0010
0001
1000
0010
0100
0001
0100
0010
1000
0001
0010
0001
0010
,
0100
1000
0100
1000
0004
0400
0000
0000
0000
0000
0000
0000
0000
0000
0000
0000
,
0000
0040
0000
0000
,
0000
0000
0333
0000
0100
0001
2000
0000
0000
0000
3100
0000
0010
0000
0001
0000
,
1000
0010
0100
0000
0001
1000
0200
0000
0000
0000
0310
0000
0001
0000
1000
0000
,
0100
0010
0001
1000
0001
0000
M4M0
0000
M34M
0000
4M3M
0000
34MM
0000
0000
0000
,
0000
0000
0000
0000
0310
0001
0010
0000
0001
1000
0001
0000
0100
0010
0100
0000
,
0010
1000
0010
0000
1000
0001
1000
0000
0001
0010
0001
0000
1000
0000
0100
0000
,
0020
0000
0000
0000
0031
1000
0001
0000
0100
0010
0100
0000
0001
0100
0001
0000
,
1000
0100
1000
0000
0100
0010
0100
0000
0010
0001
0010
0000
0001
0000
1000
0000
,
0200
0000
0000
0000
0310
0001
0010
0000
0001
0100
0001
0000
1000
0010
1000
0000
,
0001
1000
0001
0000
0010
0100
0010
0000
0001
0100
0001
0000
0400
0000
0310
0000
,
1000
0001
0020
0000
0000
0230
0000
0000
,
2300
0000
0000
0000
3001
0100
0001
0100
0010
1000
0010
1000
0001
0100
0001
0100
,
0010
1000
0010
1000
0001
0000
0010
0000
0100
1000
0100
0000
0010
0000
0001
0000
,
1000
0001
1000
0000
0010
0000
0100
0000
0001
0100
0001
0000
1000
0000
0100
0000
,
1000
0001
1000
0000
0001
0000
0100
0000
0010
1000
0010
0000
0100
0000
0001
0000
,
1000
0100
1000
0000
0001
0000
0010
0000
0100
1000
0100
0000
0010
0000
0001
0000
,
1000
0001
1000
0000
0010
0000
0100
0000
0001
0100
0001
0000
1000
0000
0100
0000
,
0010
0001
0010
0000
0100
0000
1000
0000
0001
0100
0001
0000
0100
0000
0010
0000
,
0100
0010
0100
0000
0010
0100
0010
0100
0001
1000
0010
1000
0010
0100
0010
0100
,
0001
1000
0100
0010
0001
1000
0010
0100
0001
1000
0001
0010
0100
1000
0001
0010
,
0100
1000
0001
0000
0101
0000
0110
0000
1010
0000
0101
0000
1010
0000
0011
0000
,
0110
1100
1001
0110
1010
0101
0011
1001
,
1100
0000
0011
0000
0001
1000
0100
0000
0010
0001
0100
0000
0010
0100
0001
0000
,
1000
0001
0010
0000
0100
1000
0002
0000
0203
0000
0320
0000
2030
0000
3200
0000
,
0320
0000
1031
1100
0110
0011
0101
1010
,
1001
0110
0101
0011
1100
0110
0011
1001
,
0110
1010
0101
1100
0011
0101
1010
1001
,
0011
0000
1001
0000
1000
0010
1000
0010
0100
0001
1000
0010
0100
0001
1000
0100
,
1000
0000
0000
1001
0000
00M0
0000
0000
000M
0000
0000
M000
,
0M00
0000
0000
0110
M000
0000
0000
000M
0000
0000
00M0
0000
,
0M00
0000
0000
0000
M010
0000
0100
0000
0001
0100
0010
0000
1000
0000
0100
0000
,
0010
0001
1000
0000
0001
0000
1000
0000
0100
0010
0001
0000
1000
0010
1000
0010
,
0100
0000
0000
0001
0000
0000
1000
0000
0000
0100
0000
0000
1100
0000
0000
0000
0000
0000
0000
0000
000M
0000
0000
0000
0000
0000
0000
0000
M000
0000
0000
0000
0000
0000
0000
0000
0000
0000
0000
0000
00M0
0000
0000
0000
0000
0000
0000
0000
,
0000
0M00
0000
0110
000M
0000
0000
M000
00M0
0000
0000
000M
,
0000
0000
0000
0000
M000
0000
0000
0000
0000
0000
0000
0000
0110
0000
0000
0000
0000
0000
0101
0000
0000
0000
0000
0000
0001
0000
0000
1000
0000
0000
0100
0000
0000
0000
0000
0000
0110
0000
0000
0000
0000
0000
0011
0000
0000
0000
0000
0000
,
0001
1000
0100
0000
1100
0000
0101
0000
0100
0010
1000
0000
1010
0000
0101
0000
,
0001
1000
0100
0000
0110
0000
0011
0000
0001
0010
0100
0000
1100
0000
0101
0000
,
0001
0100
0010
0000
1000
0010
0100
0001
1000
0010
0100
0001
1000
0010
0100
0001
,
1000
0010
0100
0001
1000
0000
0100
0000
0010
0001
0010
0000
0001
0000
1000
0000
,
0001
0100
0001
0000
0010
0000
0100
0000
1000
0001
1000
0000
0010
0000
0100
0000
,
0001
0100
0001
0000
0100
0000
0010
0000
1000
0001
1000
0000
0001
0000
0010
0000
,
0100
1000
0100
0000
0010
0000
0001
0000
0100
0001
0100
0000
0010
0000
1000
0000
,
0001
1000
0001
0000
0010
0000
0100
0000
1000
0001
1000
0000
0010
0000
0100
0000
,
0010
0100
0010
0000
0100
0000
0001
0000
1000
0100
1000
0000
0001
0000
0010
0000
,
0001
0010
0001
0000
1000
0000
0010
0000
0100
0001
0100
0000
0010
0000
1000
0000
,
0001
0010
0001
0000
1000
0000
0010
0000
0100
0001
0100
0001
1000
0100
1000
0100
,
0010
0001
0010
0001
1000
0000
0001
0000
0100
0010
1000
0000
0001
0000
1000
0000
,
0001
0010
0100
0000
1000
0000
0001
0000
0100
0010
1000
0000
0010
0000
0100
0000
,
0001
1000
0100
0000
0010
0000
0001
0000
1000
0100
0010
0000
0100
0000
1000
0000
,
0001
0100
0010
0000
0100
0010
0100
0000
0010
1000
0010
0000
1000
0001
1000
0000
,
0001
0010
0001
0000
1000
0100
1000
0100
0010
0001
1000
0100
0010
0001
1000
0100
,
1000
0010
1000
0010
0100
0001
0100
0001
1000
0100
1000
0100
0010
0001
0010
0001
,
1000
0001
1000
0001
2MM2
0000
3003
0000
0001
0000
0010
0000
0100
1000
0001
0000
,
1000
0000
0010
0000
0100
0010
1000
0000
0001
0000
0010
0000
0100
0010
0001
0000
,
1000
0000
0010
0000
0100
0001
1000
0000
0010
1000
0010
0100
0010
1000
0010
0100
,
0001
0010
0001
1000
0001
0010
0001
1000
0100
0010
0100
1000
0100
0010
0100
1000
,
0001
0100
0001
0100
0010
1000
0010
1000
0001
0100
0010
0100
0001
0010
0100
0010
,
0100
1000
0001
0100
0010
1000
0001
0010
0100
1000
0100
1000
0001
0100
0010
1000
,
0001
0010
0001
0010
0100
1000
0001
1000
0010
0000
0200
0000
0000
0000
0310
0000
,
1000
0000
0001
0000
0010
0000
0100
0000
1000
0001
1000
0001
0100
0010
0100
0010
,
0100
0001
0100
0001
1000
0001
1000
0001
0010
0100
1000
0001
1000
0010
0100
0001
,
1000
0100
1000
0001
0010
0001
0100
0010
1000
0100
1000
0001
0010
0100
1000
0100
,
0010
0001
1000
0010
1000
0010
0100
0001
1000
0100
0010
0001
1000
0001
0100
0010
,
1000
0100
0010
0001
1000
0001
0010
0100
1000
0001
0100
0010
1000
0010
0100
0001
,
1000
0100
1000
0100
0010
0001
0010
0001
4000
0040
0000
0000
0000
0000
0000
0000
,
0000
0000
0004
0000
,
0000
0000
0000
0000
0000
0000
3033
0000
0010
1000
0002
0000
0000
0000
0013
0000
,
0100
0000
1000
0000
0001
0100
0010
0000
1000
0001
0010
0100
1000
0001
0100
0000
,
0010
0000
1000
0000
0010
0100
0001
1000
0200
0000
0000
0000
0000
0000
0000
0000
,
0000
0000
0000
0000
0310
0010
0001
0010
,
0000
0100
0000
0010
0000
0010
0000
0100
,
0010
0010
0100
0000
1000
1000
0001
1000
,
0000
0001
0000
1000
0000
1000
0000
0001
,
1000
1000
0001
0000
0100
0100
0001
0100
,
0000
0001
0000
0100
0000
0100
0000
0001
,
0100
0100
0001
0000
0010
0010
0100
0010
,
0000
0010
0000
0010
0100
0100
0010
0000
,
0020
0000
0000
0000
0031
0001
0100
0010
,
0000
1000
0000
0001
0000
1000
0000
0100
,
0010
0010
0001
0000
1000
1000
0001
0100
,
0000
0010
0000
1000
0000
0001
0000
0010
,
0100
0100
1000
0000
0001
0001
0100
0010
,
0000
0100
0000
0001
0000
1000
0000
0100
,
0010
0010
0001
0000
1000
1000
0001
0010
,
0000
0100
0000
1000
0001
0001
0100
0000
,
0200
0000
0000
0000
0310
0010
1000
0010
,
0100
0100
0001
0100
0001
0001
0010
0001
,
0010
0010
0100
0010
0001
0001
0100
0001
,
1000
1000
0100
1000
0010
0010
0100
0010
,
1000
1000
0001
1000
0100
0100
0010
0100
,
0010
0010
0001
0010
0100
0100
1000
0100
,
1000
1000
0001
1000
0010
0010
0100
0010
,
0100
0000
0100
0000
0001
0000
0100
0001
1000
0100
1000
0100
1000
0100
0010
0001
,
0010
0001
0010
0001
1000
0010
1000
0010
0100
0000
0100
0000
0010
0000
1000
0000
,
0001
0001
1000
0100
1000
1000
0010
0100
,
0010
0001
0010
1000
0001
0001
0010
0100
,
1000
0001
1000
1000
0100
0100
0100
0010
,
0010
0010
0001
0100
0001
0001
1000
0100
,
0010
0100
1000
0001
0100
0100
0010
0100
,
1000
0000
0100
0000
0001
0000
0010
0000
0100
1000
0100
1000
0001
0100
0001
0100
,
0010
0000
0010
0000
0100
0001
1000
0100
0010
0000
0010
0000
0100
0010
0001
1000
,
0001
0100
0001
0010
0100
1000
0001
0100
0010
0000
0010
0000
0100
0000
0001
0000
,
0010
0010
0100
1000
0001
0001
0100
0010
,
0100
0100
0010
1000
0001
0001
0010
0100
,
1000
1000
0010
0100
0010
0010
0100
0001
,
0010
0010
0100
1000
0001
0001
0100
0010
,
0100
1000
0100
0010
0100
1000
0100
0010
,
1000
1000
0100
0100
0010
0010
0100
0010
,
0100
0000
0100
0000
0001
0000
0100
0000
1000
0001
1000
0001
0100
0010
0100
0010
,
1000
0001
1000
0001
0100
0010
0100
0010
1000
0000
1000
0000
0100
0000
0010
0000
,
0100
0001
0100
0010
0001
0001
0100
0010
,
0100
1000
0100
0010
1000
1000
0010
0100
,
0010
0001
0010
0100
0001
0001
1100
0100
,
1000
1000
0101
0001
0010
0010
0100
1000
,
0100
0001
0100
1000
0010
0010
1000
0010
,
0001
0000
0010
0000
1000
0000
0010
0000
0100
0001
0100
0001
1000
0100
1000
0100
,
0010
0001
0010
0001
1000
0010
1000
0010
0100
0001
0100
0001
1000
0001
1000
0001
,
1000
0100
1000
0100
0010
0001
0010
0001
1M00
0000
0000
0000
M00M
0000
0000
0000
,
MMMM
M00M
1M1M
M0M0
,
MMMM
00MM
1MM1
M00M
,
MMMM
00MM
MM22
0000
,
0000
0000
0000
0033
1MM1
0000
M00M
0000
,
MMMM
MM00
11MM
MM00
,
MMMM
0M0M
M1M1
0M0M
,
MMMM
M00M
2MM2
0000
,
0000
0000
0000
3003
0000
0000
0000
0000
2000
0000
0000
0000
0000
0000
3010
0000
,
0200
0000
0000
0000
,
0302
0000
0000
0000
2003
0000
0000
0000
3200
0000
0000
0320
0000
0000
0032
0000
,
2003
0000
0000
3020
0000
0000
0230
0000
0302
0000
0000
0000
0000
0000
0000
0000
,
0000
0000
0000
0000
0000
0000
0000
0000
1003
0100
0010
0001
1000
0001
0100
0010
,
0100
0001
1000
0100
0010
0001
1000
0010
0100
0010
1000
0100
2000
0000
0000
0000
,
3001
0000
0000
0000
0010
0000
0000
0000
0100
0000
0000
0000
1000
0000
0000
0100
0000
0000
1000
0000
0000
0001
0000
0000
0100
0000
0000
0000
0000
0000
0000
0000
0000
0100
0000
0000
0000
0000
0000
0000
0000
0000
0010
0000
0000
0000
0000
0000
,
0100
0000
0000
0001
0000
0000
1000
0000
0100
0010
0100
0010
0001
1000
0100
0010
,
0100
0010
0001
1000
0100
0010
0100
0010
0002
0000
0000
0000
2003
0000
0000
0000
,
3020
0000
0000
0230
0000
0000
0302
0000
2003
0000
0000
0000
3200
0000
0000
0000
,
0320
0000
0000
0032
0000
0000
0203
0000
0302
0000
0000
0000
2003
0000
0000
0000
,
3020
0000
0000
0230
0000
0000
0302
0000
2003
0000
0000
0000
0000
0000
0000
0000
,
0002
0000
0000
3000
2003
0000
3020
0000
,
0230
0000
0000
0302
0000
0000
0023
0000
0230
0000
0000
0000
0000
0000
0000
0000
,
2300
0000
0000
3002
0000
0000
0203
0000
0302
0000
0000
0000
0000
0000
0000
0000
,
2003
0000
0000
3200
0000
0000
2300
0000
3010
0100
0010
0100
0001
1000
0001
1000
,
0010
0000
0010
0000
0100
0001
1000
0001
1001
0000
0000
0000
0000
0000
0000
0000
,
0000
0000
1100
0110
,
0011
0000
0000
0000
1001
0000
0000
0000
1000
0010
0100
0001
1000
0100
1000
0001
,
0010
0100
1000
0001
0100
0010
0100
0010
1000
0001
0010
0001
1000
0100
0010
0001
,
0100
0010
0100
0001
1000
0100
0010
0100
1000
0001
0100
0010
1000
0001
0100
0001
,
0010
0100
1000
0100
1000
0001
0010
0100
0010
0001
0100
0001
1000
0010
0100
0001
,
1000
0100
0010
0001
1000
0010
1000
0001
0100
0001
1000
0100
0010
0100
1000
0001
,
0100
0010
0100
0001
0100
0010
1000
0001
0010
0001
0100
0010
1000
0100
1000
0100
,
0010
0100
1000
0100
1000
0001
0100
0001
0010
0100
0010
0001
0100
0010
1000
0001
,
0100
0001
0010
0100
1000
0001
0100
0010
1000
0100
1000
0100
0010
0001
0010
0001
,
1000
0010
1000
0010
0100
0001
0100
0001
1000
0010
0100
0001
1000
0010
0100
0001
,
1000
0000
0100
0000
0000
0000
0100
0000
1000
0100
0010
0001
1000
0100
0010
0001
,
1000
0010
1000
0010
0100
0200
0000
0301
,
1000
0000
0100
0000
0010
0000
0100
0000
1000
0000
0001
0000
0100
0010
1000
0000
,
0004
0000
0000
0000
0000
0000
0000
0000
1003
0100
0010
0001
0010
0100
0010
0001
,
1000
0100
0010
0001
0010
0100
0010
0001
1000
0010
1000
0010
0100
0001
0100
0001
,
4000
0000
0000
0000
0000
0000
0000
0000
3010
0100
0010
0000
0100
0000
0001
1000
,
0001
1000
0001
0000
0010
0100
1000
0000
1001
0000
0M00
00M0
000M
M000
00M0
0M00
,
000M
M000
00M0
M000
0M00
00M0
000M
00M0
1000
0100
1000
0001
0010
0100
1000
0001
,
0100
0010
0100
0001
1000
0001
0010
0100
1000
0100
0010
0100
1000
0001
0100
0010
,
1000
0001
0100
0001
1000
0001
0010
0100
1000
0100
0010
0100
1000
0001
0100
0001
,
1000
0100
0010
0100
1000
0001
0100
0010
0100
0010
1000
0001
0010
0001
1000
0100
,
0010
0100
1000
0001
0100
0010
0100
0001
1000
0001
1000
0100
0010
0001
0010
0100
,
1000
0001
0100
0010
0100
0010
1000
0001
1000
0100
0010
0100
1000
0001
0100
0010
,
0100
0010
1000
0001
0010
0100
1000
0100
1000
0010
0100
0001
0100
0010
1000
0001
,
0010
0001
0100
0010
1000
0010
1000
0001
0010
0100
0010
0100
1000
0001
1000
0001
,
0100
0010
0100
0010
1000
0001
1000
0001
0100
0000
0010
0000
0000
0000
2000
0000
,
0000
3200
0000
0310
0001
1000
0000
0002
,
0000
0203
0000
0310
1000
0100
0000
0020
,
0000
0130
2000
0000
3001
0100
0000
0020
,
0000
0000
0000
0000
0000
0000
0000
0000
0130
0001
0100
0001
1000
0100
1000
0100
,
0010
0001
0010
0001
1000
0010
1000
0010
0100
0010
0100
0010
1000
0001
1000
0001
,
0010
0001
0010
0001
1000
0100
1000
0100
004M
0000
0M00
0000
000M
0000
M000
0000
,
000M
0M00
000M
M000
1130
1001
0110
0101
,
1010
0110
0011
1100
1001
0101
0101
1100
,
0011
1001
0110
1010
0101
1100
0011
0110
,
1001
0000
1100
0000
0011
0000
1001
0000
0001
0100
0010
1000
0001
0010
0001
1000
,
0010
0100
0001
0010
0100
1000
0100
0000
1100
0000
0011
0000
1001
0000
0101
0000
,
0110
1001
1100
0011
0110
1010
0101
0110
,
1010
1001
0110
0011
1100
0101
0110
1010
,
1001
0011
1100
0110
1MM1
0000
1MM1
0000
,
1001
M11M
2002
3000
2003
0000
3010
0200
,
0000
0301
2000
3000
0200
0000
0000
0300
,
0020
0000
0032
0000
2003
0000
0000
3020
,
0000
0000
0000
0000
0230
0000
0000
0000
0301
0000
1000
0000
0001
1000
0001
0000
,
1000
0000
0001
0000
1000
0001
1000
0000
MMMM
0000
0000
0000
0002
0000
0000
0000
,
0203
0000
0000
0320
0000
0000
1030
0100
0010
0001
1000
0010
,
0100
0000
0000
0000
0001
0000
0000
0000
1000
0000
0000
0000
0010
0000
0000
0000
0100
0000
0000
0000
0001
0000
0000
0000
4000
0000
0000
0400
0000
0000
0000
0000
0000
0000
0000
0000
0000
0000
0000
0000
0000
0000
3300
0000
0000
0000
0000
0000
,
0040
0400
0000
0000
0000
0000
0330
0000
1000
0001
1000
0001
0100
0010
0100
0010
,
1000
0001
1000
0001
0010
0100
0010
0100
1000
0001
0100
0010
1000
0001
0010
0001
,
1000
0100
0010
0100
1000
0001
0100
0010
1000
0001
1000
0010
0100
0001
0010
0001
,
1000
0100
1000
0001
0010
0100
1000
0001
0100
0010
1000
0010
0100
0010
1000
0100
,
0010
0001
0010
0100
0010
0001
1000
0100
1000
0001
0100
0001
1000
0010
0100
0010
,
1000
0001
0010
0001
0010
0100
1000
0100
0010
0001
0010
0001
0010
0000
M01M
0000
,
0100
1000
0100
1000
0100
0000
M10M
0000
1000
0001
1000
0001
1000
0000
1MM0
0000
,
0001
1000
0001
1000
0001
0000
0MM1
0000
0101
0000
1010
0000
0011
0000
1100
0000
,
0110
0000
0011
0000
1001
0000
0001
1000
0010
0100
0010
0100
0001
0100
0001
0100
,
0010
1000
0010
1000
0001
1000
0001
1000
0200
0000
0000
0000
0000
0000
0000
0000
,
0000
0000
0320
0000
,
0000
0000
0032
0000
,
0000
0000
2003
0000
,
0000
0000
3002
0000
,
0000
0000
0000
0000
,
0000
0000
2003
0000
,
0000
0000
0000
0000
,
0000
0000
3002
0000
,
0000
0000
2003
0000
,
0000
0000
3200
0000
,
0000
0000
0320
0000
,
0000
0000
0032
0000
,
0000
0000
0000
0000
,
0000
0000
2003
0000
,
0000
0000
31M1
0000
,
0000
0000
11M0
0000
,
0000
0000
0000
0000
0000
0000
0000
0000
0100
0010
0001
1000
0001
0100
0010
1000
,
0001
0010
0001
0100
0010
1000
0001
1000
0100
0010
0001
0010
0001
1000
0010
0100
,
0001
1000
0100
1000
0010
0100
0001
1000
0001
0000
0000
0000
0000
0000
0000
0000
,
0000
0000
01M1
0000
,
0000
0000
0000
0000
0020
0000
0131
1100
,
0101
0110
1100
0011
1001
0110
0101
1010
,
0101
0011
1100
0101
0110
1010
0011
1100
,
0110
0000
1100
0000
0110
0000
0101
0000
0001
0100
0001
0100
0010
1000
0001
0100
,
0001
0100
0010
1000
0001
1000
0100
0010
0001
0000
1000
0000
0100
1000
0100
0000
,
0010
0000
0001
0000
1000
0010
1000
0000
0010
0000
0100
0000
0001
0100
0001
0000
,
1000
0000
0001
0000
0010
0001
0010
0000
0100
0000
1000
0000
0001
0100
0001
0000
,
0100
0000
0010
0000
1000
0001
1000
0000
0100
0000
0010
0000
0001
0010
0001
0000
,
1000
0000
0010
0000
0100
0001
0100
0000
0010
0000
1000
0000
0100
1000
0100
0000
,
0010
0000
0001
0000
1000
0100
1000
0000
0001
0000
0100
0000
0010
0100
0010
0000
,
0100
0000
0001
0000
1000
0100
1000
0000
0001
0000
0010
0000
0100
0010
0100
0000
,
1000
0000
0001
0000
1000
0010
1000
0000
0001
0100
0001
0100
0010
0100
0010
0100
,
0001
0010
0001
0010
0100
0010
0100
0010
0001
0000
1000
0000
0010
0100
0010
0000
,
0100
0000
0001
0000
1000
0100
1000
0000
0001
0000
0010
0000
0100
0010
0100
0000
,
1000
0000
0001
0000
0100
0001
0100
0000
0010
0000
1000
0000
0001
1000
0001
0000
,
0010
0000
0100
0000
1000
0001
1000
0000
0010
0000
0100
0000
0001
0100
0001
0000
,
1000
0000
0100
0000
1000
0010
1000
0000
0001
0100
0001
0100
0010
0000
M00M
0000
,
1000
0100
1000
0100
0010
0000
0001
1000
0010
0100
0010
0100
0001
1000
0001
1000
,
0100
0010
0100
0010
0001
1000
0001
1000
2MM2
0000
3003
0000
0002
0000
0000
0000
,
1003
0200
0000
0310
0001
1000
0010
0100
,
0000
0001
0000
2000
0000
0000
3100
0100
,
0010
0001
0000
1000
0000
0020
0000
0130
,
0004
0000
0000
0000
0000
0000
0000
0000
0000
0000
0000
0000
1003
0010
1000
0010
,
2000
0000
3020
0000
0130
0001
0100
0001
0200
0000
0320
0000
0130
0000
0001
0000
,
1000
0001
1000
0000
0100
0000
1000
0000
0001
1000
0001
0000
0100
0010
1000
0001
,
1000
0100
0010
0001
1000
0010
0100
0001
1000
0100
0010
0100
1000
0010
1000
0010
,
0100
0001
0100
0001
1000
0100
1000
0100
0010
0001
0010
0001
1000
0010
1000
0000
,
0001
0010
0001
0000
0100
0010
0100
0000
0010
1000
0010
0000
1000
0001
1000
0000
,
0001
0010
0001
0000
1000
0100
1000
0000
0100
0010
0100
0000
0010
0001
1000
0001
,
0100
0000
0000
0000
0010
0000
0000
0000
1000
0000
0000
0000
0100
0000
0000
0010
0000
0000
0001
0000
0000
1000
0000
0000
0100
0000
0000
0000
0010
0000
0000
0000
0001
0000
0000
0000
1000
0000
0000
0010
0000
0000
0100
0000
0000
0001
0000
0000
,
1000
0100
0010
0001
1000
0001
0100
0010
2000
0000
0000
0000
3010
0000
0010
0000
,
0100
0010
0000
1000
0000
0002
0000
1003
,
0100
0000
1000
0000
0001
0000
0100
0000
0100
0000
0100
0000
0010
1000
0010
1000
,
0001
0100
0010
1000
0001
0100
0010
1000
0010
1000
0001
0010
0100
1000
0100
1000
,
0001
0100
0001
0100
0010
1000
0010
1000
0001
0010
0001
0010
0100
1000
0001
0100
,
0010
1000
0001
0100
0001
0010
0100
1000
0100
0010
0001
1000
0010
1000
0001
0100
,
0001
1000
0100
0010
0001
1000
0001
1000
0001
1000
0001
1000
0010
0100
0010
0100
,
0001
1000
0001
1000
0010
0100
0010
0100
0001
1000
0001
1000
0010
0100
0010
0100
,
0001
1000
0001
1000
0010
0100
0010
0100
0001
0010
0001
0010
0100
1000
0100
1000
,
0001
0100
0001
0010
0100
1000
0100
1000
0001
0100
0001
0010
0100
1000
0001
0100
,
0010
1000
0001
1000
0100
0010
0001
1000
0010
0100
0001
1000
0100
0010
0100
1000
,
0001
0100
0010
0100
0001
1000
0001
0010
0100
1000
0001
0100
0010
1000
0010
1000
,
0001
0100
0001
0100
0010
0100
0010
0100
0001
1000
0001
1000
0100
0000
0010
0000
,
0001
1000
0001
0000
0100
0000
0001
0000
1000
0010
1000
0000
0001
0000
0010
0000
,
0100
1000
0100
0000
0010
0000
0001
0000
1000
0010
1000
0000
0001
0000
0100
0000
,
0010
0100
0010
0000
1000
0000
0001
0000
0010
0001
0010
0000
0100
0000
1000
0000
,
0001
0100
0001
0000
1000
0000
0010
0000
0100
0010
0100
0000
0001
0100
0001
0100
,
0010
1000
0001
0100
0001
0100
0010
1000
0001
0100
0001
1000
0100
1000
0001
0100
,
0010
0000
0100
0000
0001
0000
1000
0000
0100
0000
0010
0000
0100
0000
0010
0000
0001
0000
1000
0000
0001
0000
0100
0000
0010
1000
0001
0100
0001
0010
0100
1000
,
0001
0100
0010
1000
0002
0000
0000
0000
1003
0100
0010
0001
1000
0100
1000
0001
0100
0010
0100
0001
2000
0000
0000
0000
3101
0000
0000
0000
0110
0000
0000
0000
,
0000
1010
1001
1100
0000
0110
0011
1001
,
0000
1010
1001
0011
0000
1001
0440
0000
,
0000
0000
0000
0000
,
0000
0000
0000
0000
1001
1001
2332
0000
,
0000
0000
0000
3003
0000
0000
0000
0000
;
